osu file format v14

[General]
AudioFilename: audio.mp3
AudioLeadIn: 0
PreviewTime: 58564
Countdown: 0
SampleSet: Soft
StackLeniency: 0.6
Mode: 0
LetterboxInBreaks: 0
WidescreenStoryboard: 1

[Editor]
DistanceSpacing: 1.5
BeatDivisor: 4
GridSize: 8
TimelineZoom: 1

[Metadata]
Title:Kawaki Wo Ameku (TV Size)
TitleUnicode:カワキヲアメク (TV Size)
Artist:Minami
ArtistUnicode:美波
Creator:Silent Rock
Version:Hard
Source:ドメスティックな彼女
Tags:Domestic na Kanojo Opening
BeatmapID:1907839
BeatmapSetID:913179

[Difficulty]
HPDrainRate:5
CircleSize:4
OverallDifficulty:7
ApproachRate:7.5
SliderMultiplier:1.5
SliderTickRate:1

[Events]
//Background and Video events
0,0,"girl friend2.jpg",0,0
//Break Periods
//Storyboard Layer 0 (Background)
//Storyboard Layer 1 (Fail)
//Storyboard Layer 2 (Pass)
//Storyboard Layer 3 (Foreground)
//Storyboard Sound Samples

[TimingPoints]
1520,882.352941176471,4,1,0,20,1,0
13099,465.116279069767,4,2,1,40,1,0
50075,-100,4,2,1,40,0,0
50773,-125,4,2,1,40,0,0
52168,-100,4,2,1,40,0,0
57517,-83.3333333333333,4,2,1,40,0,0
57982,-100,4,2,1,40,0,0
58680,-125,4,2,1,40,0,0
59610,-100,4,2,1,50,0,1
72633,-83.3333333333333,4,2,1,50,0,1
72866,-100,4,2,1,50,0,1
73564,-125,4,2,1,50,0,1
74029,-111.111111111111,4,2,1,50,0,1
74494,-100,4,2,1,50,0,1
83796,-100,4,2,1,50,0,1
84726,-125,4,2,1,50,0,1
85192,-100,4,2,1,50,0,1
85540,-100,4,2,1,5,0,1
85657,-100,4,2,1,40,0,0

[HitObjects]
112,72,1520,6,0,L|120:152,2,75
124,183,2843,1,0,0:0:0:0:
227,139,3284,2,0,L|219:219,1,75
137,290,4167,2,0,L|145:370,1,75
251,329,5049,6,0,P|292:325|333:335,2,75
362,346,6372,1,0,0:0:0:0:
443,267,6814,2,0,B|429:244|429:244|435:186,1,75
321,198,7696,2,0,B|335:175|335:175|329:117,1,75
373,23,8578,6,0,P|298:19|235:66,2,150
256,192,10564,12,0,14494,0:0:0:0:
393,269,14959,6,0,L|346:281,1,37.5
248,306,15308,2,0,P|261:266|260:224,1,75
229,125,15773,1,0,0:0:0:0:
152,206,16005,2,0,B|130:221|130:221|75:217,1,75
26,204,16354,2,0,P|34:246|25:286,1,75
0,384,16819,6,0,L|52:376,1,37.5
133,319,17168,2,0,L|211:335,1,75
316,358,17633,1,0,0:0:0:0:
280,251,17866,2,0,P|273:214|284:171,1,75
301,125,18215,2,0,P|308:88|297:45,1,75
405,12,18680,5,0,0:0:0:0:
405,12,18796,1,0,0:0:0:0:
487,88,19029,1,0,0:0:0:0:
405,164,19261,1,0,0:0:0:0:
487,240,19494,1,0,0:0:0:0:
405,316,19726,2,0,P|371:327|330:321,1,75
279,302,20075,2,0,P|245:291|204:297,1,75
103,341,20540,5,0,0:0:0:0:
66,234,20773,2,0,B|73:183|73:183|80:176|80:176|87:123,3,112.5
201,0,22168,1,0,0:0:0:0:
268,92,22401,6,0,L|359:83,1,75
390,115,22750,2,0,L|481:106,1,75
512,138,23098,1,0,0:0:0:0:
391,328,23564,2,0,P|355:268|401:196,1,150
502,261,24261,6,0,P|466:270|427:263,1,75
375,245,24610,2,0,P|339:236|300:243,1,75
251,268,24959,2,0,B|194:297|155:254|100:281,1,150
22,200,25657,2,0,L|28:156,1,37.5
69,125,25889,2,0,L|75:81,1,37.5
116,49,26122,6,0,P|152:59|194:52,1,75
292,10,26587,2,0,P|328:0|370:7,1,75
414,31,26936,1,0,0:0:0:0:
414,31,27052,2,0,L|408:68,2,37.5
374,112,27401,2,0,L|381:193,1,75
393,241,27750,1,0,0:0:0:0:
393,241,27866,1,0,0:0:0:0:
393,241,27982,6,0,L|345:236,1,37.5
270,349,28331,1,0,0:0:0:0:
270,349,28447,2,0,L|318:344,1,37.5
350,376,28680,2,0,L|398:381,1,37.5
417,332,28912,2,0,L|465:327,1,37.5
489,372,29145,2,0,P|494:336|512:303,1,75
456,204,29610,1,0,0:0:0:0:
339,226,29843,6,0,P|302:233|260:225,1,75
158,191,30308,1,0,0:0:0:0:
181,300,30540,2,0,P|141:360|67:383,2,150
158,191,31703,5,0,0:0:0:0:
104,92,31936,2,0,P|101:54|109:19,2,75
22,168,32633,2,0,P|25:206|17:241,1,75
107,294,33098,2,0,P|145:291|180:299,1,75
274,235,33564,6,0,P|312:239|348:230,2,75
446,286,34261,1,0,0:0:0:0:
512,49,34726,1,0,0:0:0:0:
512,49,34843,1,0,0:0:0:0:
512,49,34959,2,0,P|489:49|466:53,3,37.5
435,92,35424,6,0,P|394:91|354:80,1,75
313,51,35773,2,0,P|272:52|232:63,1,75
188,85,36122,1,0,0:0:0:0:
320,267,36587,1,0,0:0:0:0:
320,267,36704,1,0,0:0:0:0:
320,267,36820,2,0,L|326:230,1,37.5
284,192,37052,2,0,L|278:155,1,37.5
315,112,37285,6,0,P|353:97|396:101,1,75
425,153,37633,2,0,P|463:168|506:164,1,75
487,234,37982,2,0,P|499:283|474:353,1,112.5
425,377,38447,2,0,P|388:383|351:376,2,75
273,317,39145,6,0,P|239:311|200:318,1,75
139,349,39494,1,0,0:0:0:0:
139,349,39610,2,0,L|148:272,1,75
111,216,39959,2,0,L|120:139,1,75
83,83,40308,2,0,L|92:6,2,75
119,141,40889,1,0,0:0:0:0:
119,141,41005,6,0,L|171:135,3,37.5
215,171,41471,2,0,L|267:177,1,37.5
315,149,41703,1,0,0:0:0:0:
315,149,41819,2,0,P|352:143|398:144,1,75
456,155,42168,1,0,0:0:0:0:
456,155,42285,1,0,0:0:0:0:
456,155,42401,2,0,B|446:178|446:178|455:238,1,75
489,284,42750,1,0,0:0:0:0:
489,284,42866,6,0,L|481:338,3,37.5
427,359,43331,2,0,L|383:355,1,37.5
328,325,43564,2,0,L|284:329,1,37.5
239,372,43796,2,0,L|195:368,1,37.5
140,338,44029,2,0,P|103:348|56:348,1,75
0,232,44494,1,0,0:0:0:0:
66,114,44726,6,0,P|103:115|139:125,2,75
202,244,45424,2,0,P|239:242|275:232,1,75
349,119,45889,2,0,P|386:120|422:130,1,75
310,54,46354,1,0,0:0:0:0:
204,139,46587,6,0,P|240:148|277:150,1,75
148,191,47052,1,0,0:0:0:0:
47,100,47285,1,0,0:0:0:0:
23,232,47517,2,0,P|23:264|33:310,1,75
146,384,47982,1,0,0:0:0:0:
230,278,48215,1,0,0:0:0:0:
120,199,48447,6,0,P|120:167|130:121,1,75
160,65,48796,1,0,0:0:0:0:
160,65,48912,2,0,B|183:76|183:76|238:68,1,75
290,34,49261,1,0,0:0:0:0:
290,34,49378,2,0,L|345:39,1,37.5
386,70,49610,2,0,L|439:62,1,37.5
487,43,49843,1,0,0:0:0:0:
355,142,50075,1,0,0:0:0:0:
487,341,50540,5,0,0:0:0:0:
355,242,50773,2,0,P|322:240|284:251,2,60
192,298,51471,1,0,0:0:0:0:
174,107,51703,2,0,L|179:74,3,30
187,21,52168,6,0,P|227:34|275:30,1,75
312,12,52517,1,0,0:0:0:0:
312,12,52633,2,0,P|301:58|304:136,1,112.5
340,163,53098,2,0,P|338:184|331:208,1,37.5
298,244,53331,2,0,P|300:265|307:289,1,37.5
332,329,53564,2,0,P|330:350|323:374,2,37.5
465,295,54029,6,0,P|469:276|471:258,1,37.5
444,210,54261,2,0,P|439:191|437:173,1,37.5
470,126,54494,2,0,P|475:87|468:45,1,75
444,1,54843,1,0,0:0:0:0:
444,1,54959,1,0,0:0:0:0:
351,64,55192,2,0,L|299:76,1,37.5
259,60,55425,2,0,L|207:72,1,37.5
167,56,55657,2,0,L|115:68,1,37.5
75,52,55889,5,0,0:0:0:0:
180,136,56122,1,0,0:0:0:0:
0,205,56354,5,0,0:0:0:0:
105,121,56587,1,0,0:0:0:0:
180,274,56819,5,0,0:0:0:0:
75,190,57052,1,0,0:0:0:0:
75,190,57168,1,0,0:0:0:0:
75,190,57285,1,0,0:0:0:0:
0,343,57517,6,0,B|71:312|107:372|183:340,1,179.999994506836
236,312,58098,1,0,0:0:0:0:
236,312,58215,2,0,P|261:313|282:318,1,37.5
334,342,58447,2,0,P|359:341|380:336,1,37.5
430,306,58680,6,0,P|416:261|423:211,1,90
444,156,59145,2,0,P|458:111|451:61,1,90
424,7,59610,6,0,B|366:3|366:3|311:25,1,112.5
293,87,60075,2,0,B|235:91|235:91|180:69,1,112.5
127,33,60540,2,0,L|84:48,1,37.5
46,93,60773,1,0,0:0:0:0:
46,92,60889,2,0,L|11:80,1,37.5
99,135,61122,2,0,L|134:122,2,37.5
44,176,61471,6,0,P|40:214|51:252,1,75
115,262,61819,1,0,0:0:0:0:
115,262,61936,2,0,P|119:300|108:338,1,75
61,382,62285,1,0,0:0:0:0:
61,382,62401,2,0,L|18:386,2,37.5
109,335,62750,2,0,L|152:339,1,37.5
203,373,62982,2,0,L|284:366,1,75
345,359,63331,6,0,P|338:338|339:316,1,37.5
303,264,63564,2,0,P|309:243|309:221,1,37.5
346,171,63796,2,0,P|335:134|335:93,1,75
345,30,64145,1,0,0:0:0:0:
345,30,64261,2,0,B|319:43|319:43|267:37,2,75
499,154,64959,1,0,0:0:0:0:
499,154,65075,1,0,0:0:0:0:
499,154,65192,6,0,L|492:196,3,37.5
481,257,65657,2,0,L|474:299,3,37.5
461,360,66122,2,0,L|419:353,1,37.5
358,339,66354,2,0,L|316:332,1,37.5
254,317,66587,1,0,0:0:0:0:
30,353,66819,1,0,0:0:0:0:
30,353,66936,1,0,0:0:0:0:
30,353,67052,6,0,P|42:315|38:277,1,75
17,216,67401,1,0,0:0:0:0:
17,216,67517,2,0,P|5:178|9:140,1,75
44,13,67982,1,0,0:0:0:0:
171,56,68215,2,0,B|199:64|199:64|248:50,1,75
345,140,68680,1,0,0:0:0:0:
218,183,68913,6,0,B|190:191|190:191|141:177,1,75
82,155,69261,1,0,0:0:0:0:
82,155,69378,1,0,0:0:0:0:
126,282,69610,1,0,0:0:0:0:
218,183,69843,2,0,P|224:143|214:105,1,75
284,276,70308,2,0,P|278:316|288:354,1,75
339,384,70657,1,0,0:0:0:0:
339,384,70773,6,0,L|409:374,1,37.5
393,313,71005,2,0,L|448:269,1,37.5
404,224,71238,2,0,L|430:158,1,37.5
369,141,71471,2,0,L|359:71,1,37.5
297,86,71703,2,0,L|253:30,1,37.5
230,161,71936,2,0,L|225:124,1,37.5
134,192,72168,2,0,L|147:157,1,37.5
35,170,72401,2,0,L|64:146,1,37.5
65,267,72633,6,0,P|65:307|90:356,1,89.9999972534181
146,383,72982,1,0,0:0:0:0:
146,383,73098,2,0,P|171:384|196:377,1,37.5
243,349,73331,2,0,P|268:348|293:355,1,37.5
343,372,73564,6,0,P|327:329|332:286,1,90
362,232,74029,6,0,P|365:180|353:133,1,101.249996910095
312,77,74494,6,0,L|269:82,1,37.5
218,118,74726,2,0,L|175:123,1,37.5
124,159,74959,1,0,0:0:0:0:
240,228,75192,1,0,0:0:0:0:
124,297,75424,1,0,0:0:0:0:
124,297,75540,1,0,0:0:0:0:
124,297,75657,1,0,0:0:0:0:
240,366,75889,1,0,0:0:0:0:
240,366,76005,1,0,0:0:0:0:
240,366,76122,1,0,0:0:0:0:
364,315,76354,6,0,P|404:313|449:328,1,75
495,357,76703,1,0,0:0:0:0:
495,357,76819,2,0,L|489:276,1,75
483,214,77168,1,0,0:0:0:0:
483,214,77285,2,0,L|480:171,1,37.5
473,109,77517,2,0,L|470:66,1,37.5
462,4,77750,1,0,0:0:0:0:
358,90,77982,1,0,0:0:0:0:
254,4,78215,6,0,P|214:3|171:17,1,75
134,62,78564,1,0,0:0:0:0:
134,62,78680,1,0,0:0:0:0:
0,0,78912,2,0,P|7:39|0:84,2,75
134,62,79610,1,0,0:0:0:0:
53,170,79843,1,0,0:0:0:0:
53,170,79959,1,0,0:0:0:0:
53,170,80075,6,0,P|45:209|52:254,2,75
110,313,80773,1,0,0:0:0:0:
110,313,80889,1,0,0:0:0:0:
110,313,81005,2,0,B|181:346|201:285|276:323,2,150
170,182,82285,5,0,0:0:0:0:
170,182,82401,2,0,P|177:146|166:100,1,75
252,1,82866,1,0,0:0:0:0:
363,77,83098,1,0,0:0:0:0:
283,186,83331,1,0,0:0:0:0:
169,108,83564,1,0,0:0:0:0:
363,77,83796,6,0,P|403:76|449:91,1,75
356,194,84261,2,0,P|316:195|270:180,1,75
169,108,84726,2,0,B|145:157|188:171|162:224,1,120
161,224,85657,5,0,0:0:0:0:
245,329,85889,1,0,0:0:0:0:
245,329,86005,1,0,0:0:0:0:
245,329,86122,2,0,P|286:334|327:326,1,75
371,308,86471,1,0,0:0:0:0:
371,308,86587,2,0,P|412:303|453:311,1,75
498,326,86936,2,0,L|489:236,1,75
484,195,87285,1,0,0:0:0:0:
500,35,87517,5,0,0:0:0:0:
500,35,87633,2,0,P|479:44|448:48,2,37.5
408,35,87982,1,0,0:0:0:0:
408,35,88098,2,0,P|385:30|354:33,2,37.5
320,56,88447,2,0,P|284:63|239:55,1,75
195,32,88796,2,0,P|159:25|114:33,1,75
71,57,89145,1,0,0:0:0:0:
71,57,89261,1,0,0:0:0:0:
