osu file format v14

[General]
AudioFilename: audio.mp3
AudioLeadIn: 0
PreviewTime: 85231
Countdown: 0
SampleSet: Normal
StackLeniency: 1
Mode: 1
LetterboxInBreaks: 0
WidescreenStoryboard: 0

[Editor]
Bookmarks: 314446
DistanceSpacing: 1.1
BeatDivisor: 4
GridSize: 32
TimelineZoom: 2.2

[Metadata]
Title:Hollowness
TitleUnicode:ホロネス
Artist:Minami
ArtistUnicode:美波
Creator:Axer
Version:Illusion
Source:
Tags:japanese rock sv カワキヲアメク kawaki wo ameku
BeatmapID:2284386
BeatmapSetID:1092860

[Difficulty]
HPDrainRate:5
CircleSize:5
OverallDifficulty:6
ApproachRate:5
SliderMultiplier:1.4
SliderTickRate:1

[Events]
//Background and Video events
0,0,"Hollow.jpg",0,-80
//Break Periods
//Storyboard Layer 0 (Background)
//Storyboard Layer 1 (Fail)
//Storyboard Layer 2 (Pass)
//Storyboard Layer 3 (Foreground)
//Storyboard Layer 4 (Overlay)
//Storyboard Sound Samples

[TimingPoints]
-989,292.682926829268,6,1,0,10,1,0
-989,-200,4,1,0,10,0,0
4276,-200,4,1,0,25,0,0
11300,-200,4,1,0,25,0,0
11886,-189.473604432167,4,1,0,25,0,0
12471,-179.999856000115,4,1,0,25,0,0
13056,-171.428669387811,4,1,0,25,0,0
13934,-160,4,1,0,25,0,0
14812,-149.999925000038,4,1,0,25,0,0
15690,-141.176537024253,4,1,0,25,0,0
16568,-133.333333333333,4,1,0,25,0,0
17447,-100,4,1,0,70,0,0
18325,-111.111111111111,4,1,0,70,0,0
19203,-90.9090909090909,4,1,0,70,0,0
19495,-96.774224765879,4,1,0,70,0,0
19788,-103.448240190262,4,1,0,70,0,0
20081,-111.111111111111,4,1,0,70,0,0
20959,-90.9090909090909,4,1,0,70,0,0
21251,-96.774224765879,4,1,0,70,0,0
21544,-103.448240190262,4,1,0,70,0,0
21837,-111.111111111111,4,1,0,70,0,0
22715,-90.9090909090909,4,1,0,70,0,0
23007,-96.774224765879,4,1,0,70,0,0
23300,-103.448240190262,4,1,0,70,0,0
23593,-111.111111111111,4,1,0,70,0,0
24471,-90.9090909090909,4,1,0,70,0,0
24617,-93.7499707031342,4,1,0,70,0,0
24764,-96.774224765879,4,1,0,70,0,0
24910,-100,4,1,0,70,0,0
25056,-103.448240190262,4,1,0,70,0,0
25203,-107.142895408177,4,1,0,70,0,0
25349,-111.111111111111,4,1,0,70,0,0
26227,-90.9090909090909,4,1,0,70,0,0
26519,-96.774224765879,4,1,0,70,0,0
26812,-103.448240190262,4,1,0,70,0,0
27105,-111.111111111111,4,1,0,70,0,0
27983,-90.9090909090909,4,1,0,70,0,0
28275,-96.774224765879,4,1,0,70,0,0
28568,-103.448240190262,4,1,0,70,0,0
28861,-111.111111111111,4,1,0,70,0,0
29739,-90.9090909090909,4,1,0,70,0,0
30031,-96.774224765879,4,1,0,70,0,0
30324,-103.448240190262,4,1,0,70,0,0
30617,-111.111111111111,4,1,0,70,0,0
30910,-111.111111111111,4,1,0,70,0,0
31056,-108.695652173913,4,1,0,70,0,0
31203,-106.382978723404,4,1,0,70,0,0
31349,-104.166666666667,4,1,0,70,0,0
31422,-103.092783505155,4,1,0,70,0,0
31495,-102.040816326531,4,1,0,70,0,0
31642,-100,4,1,0,70,0,0
31788,-98.0392156862745,4,1,0,70,0,0
31934,-96.1538461538461,4,1,0,70,0,0
32081,-94.3396226415094,4,1,0,70,0,0
32227,-92.5925925925926,4,1,0,70,0,0
32373,-90.9090909090909,4,1,0,70,0,0
32666,-200,4,1,0,25,0,0
44373,-200,4,1,0,25,0,0
44666,-192.338392474183,4,1,0,50,0,0
45251,-178.650864402207,4,1,0,50,0,0
45544,-172.512541661779,4,1,0,50,0,0
45837,-166.782024233428,4,1,0,50,0,0
46422,-133.333333333333,4,1,0,70,0,0
73349,-133.333333333333,4,1,0,70,0,0
73495,-129.629557613209,4,1,0,70,0,0
73568,-127.853857926236,4,1,0,70,0,0
73642,-126.126148851558,4,1,0,70,0,0
73788,-122.806974453693,4,1,0,70,0,0
73934,-119.658160566893,4,1,0,70,0,0
74081,-116.666647222225,4,1,0,70,0,0
74227,-113.821193733916,4,1,0,70,0,0
74373,-111.111111111111,4,1,0,70,0,0
74520,-90.9090909090909,4,1,0,70,0,0
74666,-92.4369903255446,4,1,0,70,0,0
74812,-94.0171261597012,4,1,0,70,0,0
74959,-95.6521323251599,4,1,0,70,0,0
75105,-97.3451068995291,4,1,0,70,0,0
75251,-99.0990901712531,4,1,0,70,0,0
75398,-100.917440451141,4,1,0,70,0,0
75544,-102.803767141243,4,1,0,70,0,0
75690,-104.76195464855,4,1,0,70,0,0
75837,-106.79607503065,4,1,0,70,0,0
75983,-108.9108695226,4,1,0,70,0,0
76129,-111.111111111111,4,1,0,70,0,0
76276,-83.3333333333333,4,1,0,70,0,0
76422,-84.6104576833488,4,1,0,70,0,0
76495,-85.2638489806707,4,1,0,70,0,0
76568,-85.9273364072406,4,1,0,70,0,0
76715,-87.2859312536006,4,1,0,70,0,0
76861,-88.6880990326789,4,1,0,70,0,0
77007,-90.1360513559166,4,1,0,70,0,0
77154,-91.6320679250193,4,1,0,70,0,0
77300,-93.1785823437768,4,1,0,70,0,0
77447,-94.778285157531,4,1,0,70,0,0
77593,-96.4337822968791,4,1,0,70,0,0
77739,-98.1481408779155,4,1,0,70,0,0
77886,-99.9245569594956,4,1,0,70,0,0
78032,-90.9090909090909,4,1,0,70,0,0
78178,-91.6638174496743,4,1,0,70,0,0
78251,-92.04585724608,4,1,0,70,0,0
78325,-92.4310949295074,4,1,0,70,0,0
78471,-93.2114128053839,4,1,0,70,0,0
78617,-94.0049296185092,4,1,0,70,0,0
78764,-94.8121628835034,4,1,0,70,0,0
78910,-95.6333798749115,4,1,0,70,0,0
79056,-96.4688540657763,4,1,0,70,0,0
79203,-97.3191493917067,4,1,0,70,0,0
79349,-98.184470947706,4,1,0,70,0,0
79495,-99.0654168573676,4,1,0,70,0,0
79642,-99.9623142075438,4,1,0,70,0,0
79788,-90.9090909090909,4,1,0,70,0,0
79934,-91.743119266055,4,1,0,70,0,0
80007,-92.1658986175115,4,1,0,70,0,0
80081,-92.5925925925926,4,1,0,70,0,0
80227,-93.4579439252336,4,1,0,70,0,0
80373,-94.3396226415094,4,1,0,70,0,0
80520,-95.2380952380952,4,1,0,70,0,0
80666,-96.1538461538461,4,1,0,70,0,0
80812,-97.0873786407767,4,1,0,70,0,0
80959,-98.0392156862745,4,1,0,70,0,0
81105,-99.009900990099,4,1,0,70,0,0
81251,-100,4,1,0,70,0,0
81544,-90.9090909090909,4,1,0,70,0,0
81837,-88.2353200692118,4,1,0,70,0,0
82129,-85.7142612244968,4,1,0,70,0,0
82422,-83.3333333333333,4,1,0,70,0,0
82715,-81.0811029948927,4,1,0,70,0,0
83007,-78.9473476454348,4,1,0,70,0,0
83300,-76.9230769230769,4,1,0,70,0,0
83950,-133.333333333333,4,1,0,70,0,8
83953,324.324324324324,4,1,0,70,1,8
84274,-121.739066918748,4,1,0,70,0,8
85240,324.324324324324,6,1,0,100,1,1
85240,-83.3333333333333,4,1,0,100,0,9
86209,-71.4285714285714,4,1,0,100,0,9
86534,-74.9741526608702,4,1,0,100,0,9
86858,-78.8901108090496,4,1,0,100,0,9
87020,-81.0055707531007,4,1,0,100,0,9
87182,-83.2376793667943,4,1,0,100,0,9
88155,-71.4285714285714,4,1,0,100,0,9
88480,-74.9741526608702,4,1,0,100,0,9
88804,-78.8901108090496,4,1,0,100,0,9
88966,-81.0055707531007,4,1,0,100,0,9
89128,-83.2376793667943,4,1,0,100,0,9
90101,-71.4285714285714,4,1,0,100,0,9
90426,-74.9741526608702,4,1,0,100,0,9
90588,-77.5193798449612,4,1,0,100,0,9
90669,-77.873250382747,4,1,0,100,0,9
90750,-78.8901108090496,4,1,0,100,0,9
91074,-83.2376793667943,4,1,0,100,0,9
92047,-71.4285714285714,4,1,0,100,0,9
92372,-74.9741526608702,4,1,0,100,0,9
92696,-78.8901108090496,4,1,0,100,0,9
92858,-81.0055707531007,4,1,0,100,0,9
93020,-83.2376793667943,4,1,0,100,0,9
93993,-71.4285714285714,4,1,0,100,0,9
94318,-74.9741526608702,4,1,0,100,0,9
94642,-78.8901108090496,4,1,0,100,0,9
94804,-81.0055707531007,4,1,0,100,0,9
94885,-82.1064575907831,4,1,0,100,0,9
94966,-83.2376793667943,4,1,0,100,0,9
95939,-83.3333333333333,4,1,0,100,0,9
96101,-82.199527845912,4,1,0,100,0,9
96264,-81.0962263492993,4,1,0,100,0,9
96426,-80.0220860957624,4,1,0,100,0,9
96588,-78.9760284060979,4,1,0,100,0,9
96750,-77.9569661955207,4,1,0,100,0,9
96912,-76.9639270074116,4,1,0,100,0,9
97236,-83.3333333333333,4,1,0,100,0,9
97885,-86.9565217391304,4,1,0,100,0,9
98858,-90.9090909090909,4,1,0,100,0,9
99507,-90.9090909090909,4,1,0,100,0,9
99669,-89.8876404494382,4,1,0,100,0,9
99750,-89.3854748603352,4,1,0,100,0,9
99831,-88.8888888888889,4,1,0,100,0,9
99993,-87.9120879120879,4,1,0,100,0,9
100155,-86.9565217391304,4,1,0,100,0,9
100318,-86.0215053763441,4,1,0,100,0,9
100480,-85.1063829787234,4,1,0,100,0,9
100642,-84.2105263157895,4,1,0,100,0,9
100804,-83.3333333333333,4,1,0,100,0,9
101777,-71.4285714285714,4,1,0,100,0,9
102101,-74.9741526608702,4,1,0,100,0,9
102264,-76.3358778625954,4,1,0,100,0,9
102426,-78.8901108090496,4,1,0,100,0,9
102750,-83.2376793667943,4,1,0,100,0,9
103723,-71.4285714285714,4,1,0,100,0,9
104047,-74.9741526608702,4,1,0,100,0,9
104372,-78.7401574803149,4,1,0,100,0,9
104696,-83.2376793667943,4,1,0,100,0,9
105669,-71.4285714285714,4,1,0,100,0,9
105993,-74.9741526608702,4,1,0,100,0,9
106318,-78.8901108090496,4,1,0,100,0,9
106642,-83.2376793667943,4,1,0,100,0,9
107615,-66.6666666666667,4,1,0,100,0,9
107777,-68.9491121078088,4,1,0,100,0,9
107858,-70.1499876886772,4,1,0,100,0,9
107939,-71.3933846889747,4,1,0,100,0,9
108101,-74.0173822420457,4,1,0,100,0,9
108264,-76.8415657544804,4,1,0,100,0,9
108426,-79.8898159658199,4,1,0,100,0,9
108588,-83.189900080611,4,1,0,100,0,9
112480,-76.9230769230769,4,1,0,100,0,9
112804,-75.0064880612173,4,1,0,100,0,9
113128,-73.1830835838634,4,1,0,100,0,9
113453,-71.4462288537024,4,1,0,100,0,9
113777,-69.7899044715788,4,1,0,100,0,9
114101,-68.2086365775635,4,1,0,100,0,9
114429,-66.6974364173339,4,1,0,100,0,8
114588,-66.6974364173339,4,1,0,70,0,8
116375,292.682926829268,6,1,0,25,1,0
116375,-200,4,1,0,25,0,0
125152,-181.818181818182,4,1,0,45,0,0
125298,-179.999856000115,4,1,0,45,0,0
125445,-178.217857072843,4,1,0,45,0,0
125591,-176.470484429127,4,1,0,45,0,0
125884,-173.076856508901,4,1,0,45,0,0
126030,-171.428669387811,4,1,0,45,0,0
126323,-168.224424840691,4,1,0,45,0,0
126469,-166.666666666667,4,1,0,45,0,0
126762,-163.636393388435,4,1,0,45,0,0
126908,-162.162074506987,4,1,0,45,0,0
127054,-160.714343112265,4,1,0,45,0,0
127201,-159.291979011689,4,1,0,45,0,0
127347,-157.894819944642,4,1,0,45,0,0
127493,-156.521711909267,4,1,0,45,0,0
127640,-155.172520808635,4,1,0,45,0,0
127786,-153.846153846154,4,1,0,45,0,0
127932,-152.542269462868,4,1,0,45,0,0
128079,-151.260529623618,4,1,0,45,0,0
128225,-149.999925000038,4,1,0,45,0,0
128371,-148.760379755497,4,1,0,45,0,0
128518,-147.54093523248,4,1,0,45,0,0
128664,-146.341534800749,4,1,0,45,0,0
128811,-145.161266909473,4,1,0,45,0,0
128957,-144.000092160059,4,1,0,45,0,0
129103,-142.857142857143,4,1,0,45,0,0
129396,-140.62502197266,4,1,0,45,0,0
129542,-139.534818821014,4,1,0,45,0,0
129835,-137.404538197088,4,1,0,45,0,0
129981,-136.363698347136,4,1,0,45,0,0
130128,-135.338325513034,4,1,0,45,0,0
130420,-133.333333333333,4,1,0,70,0,0
142713,-100,4,1,0,70,0,0
143006,-103.448240190262,4,1,0,70,0,0
143152,-105.263157894737,4,1,0,70,0,0
143298,-107.142895408177,4,1,0,70,0,0
143445,-109.090869421502,4,1,0,70,0,0
143518,-110.091783519921,4,1,0,70,0,0
143591,-111.111111111111,4,1,0,70,0,0
143737,-113.207589889657,4,1,0,70,0,0
143884,-115.384571005934,4,1,0,70,0,0
144030,-117.647058823529,4,1,0,70,0,0
144176,-120.000048000019,4,1,0,70,0,0
144323,-122.448929612682,4,1,0,70,0,0
144469,-125,4,1,0,70,0,0
157054,-100,4,1,0,70,0,0
157201,-105.206125100603,4,1,0,70,0,0
157347,-110.983972804487,4,1,0,70,0,0
157493,-117.433468068666,4,1,0,70,0,0
157640,-124.678640803329,4,1,0,70,0,0
158518,-100,4,1,0,70,0,0
158664,-103.448240190262,4,1,0,70,0,0
158811,-107.142895408177,4,1,0,70,0,0
158957,-111.111111111111,4,1,0,70,0,0
159103,-115.384571005934,4,1,0,70,0,0
159250,-120.000048000019,4,1,0,70,0,0
159396,-125,4,1,0,70,0,0
160274,-200,4,1,0,10,0,0
162615,-133.333333333333,4,1,0,70,0,0
162908,-111.111111111111,4,1,0,70,0,0
163789,-90.9090909090909,4,1,0,100,0,9
164664,-76.9230769230769,4,1,0,100,0,9
164957,-81.0811029948927,4,1,0,100,0,9
165250,-85.7142612244968,4,1,0,100,0,9
165542,-90.9090909090909,4,1,0,100,0,9
166420,-76.9230769230769,4,1,0,100,0,9
166713,-81.0811029948927,4,1,0,100,0,9
167006,-85.7142612244968,4,1,0,100,0,9
167298,-90.9090909090909,4,1,0,100,0,9
168176,-76.9230769230769,4,1,0,100,0,9
168323,-78.9473476454348,4,1,0,100,0,9
168469,-81.0811029948927,4,1,0,100,0,9
168615,-83.3333333333333,4,1,0,100,0,9
168762,-85.7142612244968,4,1,0,100,0,9
168908,-88.2353200692118,4,1,0,100,0,9
169054,-90.9090909090909,4,1,0,100,0,9
169932,-76.9230769230769,4,1,0,100,0,9
170225,-81.0811029948927,4,1,0,100,0,9
170518,-85.7142612244968,4,1,0,100,0,9
170810,-90.9090909090909,4,1,0,100,0,9
171689,-76.9230769230769,4,1,0,100,0,9
171981,-81.0811029948927,4,1,0,100,0,9
172274,-85.7142612244968,4,1,0,100,0,9
172420,-88.2353200692118,4,1,0,100,0,9
172567,-90.9090909090909,4,1,0,100,0,9
173445,-76.9230769230769,4,1,0,100,0,9
173737,-81.0811029948927,4,1,0,100,0,9
174030,-85.7142612244968,4,1,0,100,0,9
174323,-90.9090909090909,4,1,0,100,0,9
174615,-92.3077207100679,4,1,0,100,0,9
174762,-93.0232558139535,4,1,0,100,0,9
174835,-93.0232558139535,4,1,0,100,0,9
174908,-93.7499707031342,4,1,0,100,0,9
175201,-95.2380952380952,4,1,0,100,0,9
175493,-96.774224765879,4,1,0,100,0,9
175640,-97.5609756097561,4,1,0,100,0,9
175786,-98.3606234883202,4,1,0,100,0,9
176079,-100,4,1,0,100,0,9
176371,-96.774224765879,4,1,0,100,0,9
176518,-95.2380952380952,4,1,0,100,0,9
176664,-93.7499707031342,4,1,0,100,0,9
176811,-92.3077207100679,4,1,0,100,0,9
176884,-91.6030254647251,4,1,0,100,0,9
176957,-90.9090909090909,4,1,0,100,0,9
177103,-89.5522120739665,4,1,0,100,0,9
177250,-88.2353200692118,4,1,0,100,0,9
177396,-86.9565217391304,4,1,0,100,0,9
177542,-85.7142612244968,4,1,0,100,0,9
177689,-84.5070660583285,4,1,0,100,0,9
177835,-83.3333333333333,4,1,0,100,0,9
184859,-83.3333333333333,4,1,0,100,0,9
185152,-82.7079235844952,4,1,0,100,0,9
185298,-82.3987257861045,4,1,0,100,0,9
185445,-82.0918985968032,4,1,0,100,0,9
185737,-81.4849159197895,4,1,0,100,0,9
186030,-80.8868433504948,4,1,0,100,0,9
186176,-80.5910872704766,4,1,0,100,0,9
186250,-80.4440511624165,4,1,0,100,0,9
186323,-80.2974861266018,4,1,0,100,0,9
186615,-79.7167186685395,4,1,0,100,0,9
186908,-79.1442292776664,4,1,0,100,0,9
187054,-78.8610570693812,4,1,0,100,0,9
187201,-78.5799039753573,4,1,0,100,0,9
187493,-78.0235693598322,4,1,0,100,0,9
187786,-77.4751169293202,4,1,0,100,0,9
187932,-77.2037422197929,4,1,0,100,0,9
188006,-77.0687368356964,4,1,0,100,0,9
188079,-76.934261981165,4,1,0,100,0,9
188371,-125,4,1,0,100,0,9
188664,-122.450429005078,4,1,0,100,0,9
188957,-120.00278406459,4,1,0,100,0,9
189250,-117.651072801307,4,1,0,100,0,9
189542,-115.389763543297,4,1,0,100,0,9
189835,-113.21374188399,4,1,0,100,0,9
190128,-111.118272066422,4,1,0,100,0,9
190420,-109.098962577965,4,1,0,100,0,9
190713,-107.151735429507,4,1,0,100,0,9
191006,-105.272798666825,4,1,0,100,0,9
191262,-103.458621724241,4,1,0,100,0,9
191298,-103.236249963867,4,1,0,100,0,9
191591,-101.705913283504,4,1,0,100,0,9
191884,-100.011601345756,4,1,0,100,0,9
192176,-98.372815262739,4,1,0,100,0,9
192469,-96.7868695061353,4,1,0,100,0,9
192762,-95.2512489820023,4,1,0,100,0,9
193054,-93.7635957213796,4,1,0,100,0,9
193347,-92.3216967989298,4,1,0,100,0,9
193640,-90.9234733494207,4,1,0,100,0,9
193932,-89.5668903450475,4,1,0,100,0,9
194225,-88.2502707077054,4,1,0,100,0,9
194518,-86.9717985246104,4,1,0,100,0,9
194811,-85.7298395566053,4,1,0,100,0,9
195103,-84.5228515981581,4,1,0,100,0,9
195396,-83.3493780886154,4,1,0,100,0,9
195689,-82.2080422483571,4,1,0,100,0,9
195981,-81.0975416902187,4,1,0,100,0,9
196274,-80.0166434618401,4,1,0,100,0,9
196567,-78.9641794792628,4,1,0,100,0,9
196859,-77.9390423162236,4,1,0,100,0,9
197152,-76.9401813172313,4,1,0,100,0,9
197445,-75.9665990057492,4,1,0,100,0,9
197737,-75.0173477616699,4,1,0,100,0,9
198030,-74.0915267448184,4,1,0,100,0,9
198323,-73.1882790434877,4,1,0,100,0,9
198615,-72.3067890290355,4,1,0,100,0,9
198911,-71.4462798993751,4,1,0,100,0,8
199201,-76.9230769230769,4,1,0,100,0,8
199347,-77.4907863455035,4,1,0,100,0,8
199493,-78.0669377150744,4,1,0,100,0,8
199786,-79.2452680669305,4,1,0,100,0,8
200079,-80.459779363193,4,1,0,100,0,8
200371,-81.712030462245,4,1,0,100,0,8
200664,-83.0039460075932,4,1,0,100,0,8
200811,-83.6653453119797,4,1,0,100,0,8
200957,-84.3373697198481,4,1,0,100,0,8
201103,-85.0202773361447,4,1,0,100,0,8
201250,-85.7142612244968,4,1,0,100,0,8
201542,-87.1369330762213,4,1,0,100,0,8
201689,-87.8661271686458,4,1,0,100,0,8
201762,-88.2353200692118,4,1,0,100,0,8
201835,-88.6076285851754,4,1,0,100,0,8
201981,-89.361671706665,4,1,0,100,0,8
202128,-90.1287398920618,4,1,0,100,0,8
202274,-90.9090909090909,4,1,0,100,0,8
202423,-83.3333333333333,4,1,0,100,0,9
205054,-85.7142612244968,4,1,0,100,0,9
205201,-88.2353200692118,4,1,0,100,0,9
205347,-90.9090909090909,4,1,0,100,0,9
205420,-92.1658986175115,4,1,0,100,0,9
205493,-93.7499707031342,4,1,0,100,0,9
205640,-96.774224765879,4,1,0,100,0,9
205713,-98.5221674876847,4,1,0,100,0,9
205786,-100,4,1,0,100,0,9
205932,-83.3333333333333,4,1,0,100,0,9
208567,-85.7142612244968,4,1,0,100,0,9
208713,-88.2353200692118,4,1,0,100,0,9
208859,-90.9090909090909,4,1,0,100,0,9
209006,-93.7499707031342,4,1,0,100,0,9
209152,-96.774224765879,4,1,0,100,0,9
209298,-100,4,1,0,100,0,9
209445,-83.3333333333333,4,1,0,100,0,9
212079,-85.5119644064999,4,1,0,100,0,9
212225,-87.8075679586672,4,1,0,100,0,9
212371,-90.2299057999784,4,1,0,100,0,9
212445,-91.4918105680361,4,1,0,100,0,9
212518,-92.7895986571489,4,1,0,100,0,9
212664,-95.4987613810649,4,1,0,100,0,9
212737,-96.9135928097867,4,1,0,100,0,9
212811,-98.3708798586607,4,1,0,100,0,9
212957,-83.3333333333333,4,1,0,100,0,9
213835,-83.3333333333333,4,1,0,100,0,9
214128,-88.2353200692118,4,1,0,100,0,9
214274,-90.9090909090909,4,1,0,100,0,9
214420,-93.7499707031342,4,1,0,100,0,9
214567,-96.774224765879,4,1,0,100,0,9
214713,-100,4,1,0,100,0,9
215006,-71.4285714285714,4,1,0,100,0,9
215298,-76.9230769230769,4,1,0,100,0,9
215591,-83.3333333333333,4,1,0,100,0,9
215884,-71.4285714285714,4,1,0,100,0,9
216176,-76.9230769230769,4,1,0,100,0,9
216472,-66.6666666666667,4,1,0,100,0,8
216615,-66.6666666666667,4,1,0,50,0,8
218225,-83.3333333333333,4,1,0,50,0,8
219981,-111.111111111111,4,1,0,50,0,8
221737,-166.666666666667,4,1,0,50,0,8
223493,-333.333333333333,4,1,0,50,0,8
224371,-240.077593078083,4,1,0,50,0,8
225250,-187.594735341347,4,1,0,50,0,8
226128,-153.942071598457,4,1,0,50,0,8
226713,-137.498057839933,4,1,0,50,0,8
227006,-130.526662028619,4,1,0,50,0,8
227591,-118.509388906336,4,1,0,50,0,8
227884,-113.294035408918,4,1,0,50,0,8
228469,-104.129028361623,4,1,0,50,0,8
228762,-100.08096550109,4,1,0,50,0,8
228908,-250,4,1,0,5,0,0
231103,-250,4,1,0,25,0,0
231396,-235.366111987196,4,1,0,25,0,0
231689,-222.35019711345,4,1,0,25,0,0
231981,-210.698867072192,4,1,0,25,0,0
232274,-200.207414881818,4,1,0,50,0,0
242811,-200,4,1,0,50,0,0
243103,-193.1818401343,4,1,0,50,0,0
243542,-183.783664572758,4,1,0,50,0,0
243689,-180.85112154823,4,1,0,50,0,0
243981,-175.257804230022,4,1,0,50,0,0
244274,-170.000085000043,4,1,0,50,0,0
244567,-165.048639834159,4,1,0,50,0,0
244859,-160.377464400212,4,1,0,50,0,0
245006,-158.139520173068,4,1,0,50,0,0
245408,-153.846153846154,4,1,0,50,0,0
245737,-175.021308844352,4,1,0,50,0,0
246030,-199.419291024537,4,1,0,50,0,0
246323,-133.333333333333,4,1,0,70,0,0
246908,-113.207589889657,4,1,0,70,0,0
247201,-105.263157894737,4,1,0,70,0,0
247786,-92.3077207100679,4,1,0,70,0,0
248079,-86.9565217391304,4,1,0,70,0,0
248739,324.324324324324,6,1,0,70,1,8
248739,-133.333333333333,4,1,0,70,0,8
249060,-121.739066918748,4,1,0,70,0,8
250035,324.324324324324,6,1,0,100,1,1
250035,-83.3333333333333,4,1,0,100,0,9
251004,-71.4285714285714,4,1,0,100,0,9
251329,-74.9741526608702,4,1,0,100,0,9
251653,-78.8901108090496,4,1,0,100,0,9
251815,-81.0055707531007,6,1,0,100,0,1
251977,-83.2376793667943,4,1,0,100,0,9
252950,-71.4285714285714,4,1,0,100,0,9
253275,-74.9741526608702,4,1,0,100,0,9
253599,-78.8901108090496,4,1,0,100,0,9
253923,-83.2376793667943,4,1,0,100,0,9
254896,-71.4285714285714,4,1,0,100,0,9
255221,-74.9741526608702,4,1,0,100,0,9
255545,-78.8901108090496,4,1,0,100,0,9
255869,-83.2376793667943,4,1,0,100,0,9
256842,-71.4285714285714,6,1,0,100,0,1
257167,-74.9741526608702,6,1,0,100,0,1
257491,-78.8901108090496,6,1,0,100,0,1
257653,-81.0055707531007,6,1,0,100,0,1
257815,-83.2376793667943,6,1,0,100,0,1
258788,-71.4285714285714,6,1,0,100,0,1
259113,-74.9741526608702,6,1,0,100,0,1
259437,-78.8901108090496,6,1,0,100,0,1
259599,-81.0055707531007,6,1,0,100,0,1
259761,-83.2376793667943,6,1,0,100,0,1
260734,-83.3333333333333,4,1,0,100,0,9
260896,-82.199527845912,4,1,0,100,0,9
261059,-81.0962263492993,4,1,0,100,0,9
261221,-80.0220860957624,4,1,0,100,0,9
261383,-78.9760284060979,4,1,0,100,0,9
261545,-77.9569661955207,4,1,0,100,0,9
261707,-76.9639270074116,4,1,0,100,0,9
262032,-83.3333333333333,4,1,0,100,0,9
262194,-81.6326530612245,4,1,0,100,0,9
262275,-80.8080808080808,4,1,0,100,0,9
262356,-80,4,1,0,100,0,9
262518,-78.4313725490196,4,1,0,100,0,9
262680,-76.9230769230769,4,1,0,100,0,9
263004,-83.3333333333333,4,1,0,100,0,9
263167,-81.6498495193273,4,1,0,100,0,9
263329,-80.0329735851171,4,1,0,100,0,9
263491,-78.4789523373779,4,1,0,100,0,9
263653,-76.9230769230769,4,1,0,100,0,9
263734,-77.417057300235,4,1,0,100,0,9
263815,-77.9174231149827,4,1,0,100,0,9
263896,-78.4242989847974,4,1,0,100,0,9
263977,-78.9378127910832,4,1,0,100,0,9
264059,-79.4580957867345,4,1,0,100,0,9
264140,-79.9852827079817,4,1,0,100,0,9
264221,-80.5195118907189,4,1,0,100,0,9
264302,-81.0608596828413,4,1,0,100,0,9
264383,-81.60960251227,4,1,0,100,0,9
264464,-82.1658254255573,4,1,0,100,0,9
264545,-82.7296824172951,4,1,0,100,0,9
264626,-83.3013317383905,4,1,0,100,0,9
264707,-83.8809360441415,4,1,0,100,0,9
264788,-84.4686625485378,4,1,0,100,0,9
264869,-85.064683185094,4,1,0,100,0,9
264950,-85.6691747745402,4,1,0,100,0,9
265032,-86.2823191997142,4,1,0,100,0,9
265113,-86.904303588018,4,1,0,100,0,9
265275,-76.9230769230769,4,1,0,100,0,9
265356,-75.4716981132076,4,1,0,100,0,9
265437,-74.0740740740741,4,1,0,100,0,9
265518,-72.7272727272727,4,1,0,100,0,9
265599,-71.4285714285714,4,1,0,100,0,9
265923,-83.2376793667943,4,1,0,100,0,9
268518,-76.9230769230769,4,1,0,100,0,9
268599,-77.4607138624468,4,1,0,100,0,9
268680,-78.0058582399538,4,1,0,100,0,9
268761,-78.5587918286287,4,1,0,100,0,9
268842,-79.1195575634341,4,1,0,100,0,9
268923,-79.6884500357403,4,1,0,100,0,9
269004,-80.265518334651,4,1,0,100,0,9
269086,-80.8510707107294,4,1,0,100,0,9
269167,-81.4451629717711,4,1,0,100,0,9
269248,-82.0481179392467,4,1,0,100,0,9
269329,-82.6600670869105,4,1,0,100,0,9
269410,-83.2811438165416,4,1,0,100,0,9
269491,-71.4285714285714,4,1,0,100,0,9
269653,-70.8674530591708,4,1,0,100,0,9
269815,-70.3150324398402,4,1,0,100,0,9
269977,-69.7712062604308,4,1,0,100,0,9
270140,-69.235679638202,4,1,0,100,0,9
270302,-68.7083584405126,4,1,0,100,0,9
270464,-68.1889625253919,4,1,0,100,0,9
270626,-67.6774061686602,4,1,0,100,0,9
270788,-67.173422969549,4,1,0,100,0,9
270950,-66.6769349146435,4,1,0,100,0,9
271113,-66.1876884280755,4,1,0,100,0,9
271275,-65.705612573426,4,1,0,100,0,9
271437,-65.230508308736,4,1,0,100,0,9
271599,-64.7621835476854,4,1,0,100,0,9
271761,-64.300576904776,4,1,0,100,0,9
271923,-63.845463332912,4,1,0,100,0,9
272086,-63.3967871776194,4,1,0,100,0,9
272248,-62.9543335559818,4,1,0,100,0,9
272410,-62.5180520875403,4,1,0,100,0,9
272734,-76.9230769230769,4,1,0,100,0,9
272896,-78.415504940961,4,1,0,100,0,9
273059,-79.9670535739275,4,1,0,100,0,9
273140,-80.7660498294221,4,1,0,100,0,9
273221,-81.5811736757132,4,1,0,100,0,9
273302,-82.4129183897834,4,1,0,100,0,9
273383,-83.2617975722525,4,1,0,100,0,9
279224,-83.2617975722525,4,1,0,100,0,8
280194,-125,4,1,0,70,0,8
281167,-83.3333333333333,4,1,0,70,0,8
281815,-133.333333333333,4,1,0,70,0,8
283113,-83.3333333333333,4,1,0,70,0,8
283761,-133.333333333333,4,1,0,70,0,8
285062,292.682926829268,6,1,0,100,1,8
285071,292.682926829268,6,1,0,100,1,1
285071,-80,6,1,0,100,0,9
297653,-81.7775160897263,6,1,0,100,0,9
297799,-82.6962278115684,6,1,0,100,0,9
297946,-83.6358162019303,6,1,0,100,0,9
298092,-84.5970010363133,6,1,0,100,0,9
298165,-85.0858899516116,6,1,0,100,0,9
298238,-85.5804623227736,6,1,0,100,0,9
298385,-86.5871334983107,6,1,0,100,0,9
298531,-87.6177692340717,6,1,0,100,0,9
298677,-88.6732355799584,6,1,0,100,0,9
298824,-89.7544408253459,6,1,0,100,0,9
298970,-90.8623381060291,6,1,0,100,0,9
299116,-80,6,1,0,100,0,9
304385,-79.3650793650794,6,1,0,100,0,9
304458,-78.9265982636148,6,1,0,100,0,9
304531,-78.4929356357928,6,1,0,100,0,9
304604,-78.064012490242,6,1,0,100,0,9
304677,-77.639751552795,6,1,0,100,0,9
304824,-76.8049155145929,6,1,0,100,0,9
304897,-76.3941940412529,6,1,0,100,0,9
304970,-75.9878419452888,6,1,0,100,0,9
305116,-75.187969924812,6,1,0,100,0,9
305189,-74.794315632012,6,1,0,100,0,9
305263,-74.4047619047619,6,1,0,100,0,9
305336,-74.019245003701,6,1,0,100,0,9
305409,-73.6377025036819,6,1,0,100,0,9
305482,-73.2600732600733,6,1,0,100,0,9
305555,-72.8862973760933,6,1,0,100,0,9
305628,-72.5163161711385,6,1,0,100,0,9
305702,-72.1500721500721,6,1,0,100,0,9
305775,-71.7875089734386,6,1,0,100,0,9
305848,-71.4285714285714,6,1,0,100,0,9
306144,-66.6666666666667,6,1,0,100,0,8
306287,-40,6,1,0,75,0,8
306360,-100.804317650534,6,1,0,74,0,8
306433,-101.621575479933,6,1,0,74,0,8
306507,-102.452298209953,6,1,0,73,0,8
306580,-103.296714647991,6,1,0,72,0,8
306653,-104.155166200399,6,1,0,71,0,8
306726,-105.027895409021,6,1,0,71,0,8
306799,-105.915485797263,6,1,0,70,0,8
306872,-106.818206095047,6,1,0,69,0,8
306946,-107.736446485691,6,1,0,68,0,8
307019,-108.670492592476,6,1,0,68,0,8
307092,-109.62099636716,6,1,0,67,0,8
307165,-110.588274325273,6,1,0,66,0,8
307238,-111.572649973167,6,1,0,65,0,8
307311,-112.574834120982,6,1,0,65,0,8
307385,-113.595185381663,6,1,0,64,0,8
307458,-114.634202260586,6,1,0,63,0,8
307531,-115.692267822972,6,1,0,62,0,8
307604,-116.770183434281,6,1,0,62,0,8
307677,-117.868374029354,6,1,0,61,0,8
307750,-118.987275500758,6,1,0,60,0,8
307824,-120.127767893932,6,1,0,59,0,8
307897,-121.290335100938,6,1,0,59,0,8
307970,-122.475624288876,6,1,0,58,0,8
308043,-123.684155193931,6,1,0,57,0,8
308116,-124.916930241389,6,1,0,56,0,8
308189,-126.174527129416,6,1,0,56,0,8
308263,-127.457703161206,6,1,0,55,0,8
308336,-128.767080953288,6,1,0,54,0,8
308409,-130.103809829863,6,1,0,53,0,8
308482,-131.468582952732,6,1,0,53,0,8
308555,-132.86211569633,6,1,0,52,0,8
308628,-134.285687428577,6,1,0,51,0,8
308702,-135.740095723916,6,1,0,50,0,8
308775,-137.226353497831,6,1,0,50,0,8
308848,-138.74532601683,6,1,0,49,0,8
308921,-140.298499086657,6,1,0,48,0,8
308994,-141.886839569969,6,1,0,47,0,8
309068,-143.511349595083,6,1,0,47,0,8
309141,-145.173700332448,6,1,0,46,0,8
309214,-146.875013769533,6,1,0,45,0,8
309287,-148.616675979978,6,1,0,44,0,8
309360,-150.39991336965,6,1,0,44,0,8
309433,-152.226695995677,6,1,0,43,0,8
309507,-154.09840107499,6,1,0,42,0,8
309580,-156.016706268907,6,1,0,41,0,8
309653,-157.983124242668,6,1,0,41,0,8
309726,-160,6,1,0,40,0,8
309799,-162.069038168879,6,1,0,39,0,8
309872,-164.192019282711,6,1,0,39,0,8
309946,-166.371634301838,6,1,0,38,0,8
310019,-168.609895714779,6,1,0,37,0,8
310092,-170.909202776933,6,1,0,36,0,8
310165,-173.271787194522,6,1,0,36,0,8
310238,-175.700914874664,6,1,0,35,0,8
310311,-178.199119696349,6,1,0,34,0,8
310385,-180.769390680615,6,1,0,33,0,8
310458,-183.414555412288,6,1,0,33,0,8
310531,-186.13862860504,6,1,0,32,0,8
310604,-188.944837554676,6,1,0,31,0,8
310677,-191.836585922648,6,1,0,30,0,8
310750,-194.818604397446,6,1,0,30,0,8
310824,-197.894795168992,6,1,0,29,0,8
310897,-201.069690754816,6,1,0,28,0,8
310970,-204.347701701399,6,1,0,27,0,8
311043,-207.734797448186,6,1,0,27,0,8
311116,-211.236068981251,6,1,0,26,0,8
311189,-214.856926772462,6,1,0,25,0,8
311263,-218.604559653905,6,1,0,24,0,8
311336,-222.485249227976,6,1,0,24,0,8
311409,-226.506209667738,6,1,0,23,0,8
311482,-230.674654161025,6,1,0,22,0,8
311555,-234.999953000009,6,1,0,21,0,8
311628,-239.490555689936,6,1,0,21,0,8
311702,-244.156123191414,6,1,0,20,0,8
311775,-249.006464207811,6,1,0,19,0,8
311848,-254.054067786706,6,1,0,18,0,8
311921,-259.310545122628,6,1,0,18,0,8
311994,-264.788434041201,6,1,0,17,0,8
312068,-270.50348814248,6,1,0,16,0,8
312141,-276.470685813183,6,1,0,15,0,8
312214,-282.70709001111,6,1,0,15,0,8
312287,-289.230502248767,6,1,0,14,0,8
312360,-296.062954826714,6,1,0,13,0,8
312433,-303.226021644273,6,1,0,12,0,8
312507,-310.743329117582,6,1,0,12,0,8
312580,-318.64385176688,6,1,0,11,0,8
312653,-326.956589973549,6,1,0,10,0,8
312726,-335.714669388194,6,1,0,9,0,8
312799,-344.953672721753,6,1,0,9,0,8
312872,-354.716847276661,6,1,0,8,0,8
312946,-365.048770515741,6,1,0,7,0,8
313019,-376.000631681061,6,1,0,6,0,8
313092,-387.628450377744,6,1,0,6,0,8
313165,-400,6,1,0,5,0,8

[HitObjects]
256,192,620,12,0,4132,0:0:0:0:
160,96,4279,5,0,0:0:0:0:
160,96,6035,1,0,0:0:0:0:
352,96,6913,1,8,0:0:0:0:
352,96,7791,1,8,0:0:0:0:
160,96,8376,1,0,0:0:0:0:
160,96,8669,1,0,0:0:0:0:
160,96,9547,1,0,0:0:0:0:
352,96,10425,1,8,0:0:0:0:
160,96,11303,1,0,0:0:0:0:
352,96,11889,1,8,0:0:0:0:
160,96,12474,1,0,0:0:0:0:
352,96,13059,1,8,0:0:0:0:
352,96,13937,1,8,0:0:0:0:
160,96,14815,1,0,0:0:0:0:
352,96,15693,1,8,0:0:0:0:
352,96,16571,1,8,0:0:0:0:
160,288,17450,1,4,0:0:0:0:
352,288,18328,1,12,0:0:0:0:
160,96,18620,1,0,0:0:0:0:
352,96,18767,1,8,0:0:0:0:
160,96,18913,1,0,0:0:0:0:
352,288,19206,1,12,0:0:0:0:
160,288,19498,1,4,0:0:0:0:
160,288,19791,1,4,0:0:0:0:
160,288,20084,1,4,0:0:0:0:
160,96,20376,1,0,0:0:0:0:
352,96,20523,1,8,0:0:0:0:
160,96,20669,1,0,0:0:0:0:
352,288,20962,1,12,0:0:0:0:
160,288,21254,1,4,0:0:0:0:
160,288,21547,1,4,0:0:0:0:
160,288,21840,1,4,0:0:0:0:
160,96,22132,1,0,0:0:0:0:
352,96,22279,1,8,0:0:0:0:
160,96,22425,1,0,0:0:0:0:
352,288,22718,1,12,0:0:0:0:
160,288,23010,1,4,0:0:0:0:
160,288,23303,1,4,0:0:0:0:
352,288,23596,1,12,0:0:0:0:
160,96,23889,1,0,0:0:0:0:
352,96,24035,1,8,0:0:0:0:
160,96,24181,1,0,0:0:0:0:
352,288,24474,1,12,0:0:0:0:
352,96,24620,1,8,0:0:0:0:
160,288,24767,1,4,0:0:0:0:
352,96,24913,1,8,0:0:0:0:
160,288,25059,1,4,0:0:0:0:
352,96,25206,1,8,0:0:0:0:
160,288,25352,1,4,0:0:0:0:
160,96,25645,1,0,0:0:0:0:
352,96,25791,1,8,0:0:0:0:
160,96,25937,1,0,0:0:0:0:
352,288,26230,1,12,0:0:0:0:
160,288,26523,1,4,0:0:0:0:
160,288,26815,1,4,0:0:0:0:
160,288,27108,1,4,0:0:0:0:
160,96,27401,1,0,0:0:0:0:
352,96,27547,1,8,0:0:0:0:
160,96,27693,1,0,0:0:0:0:
352,288,27986,1,12,0:0:0:0:
160,288,28279,1,4,0:0:0:0:
160,288,28571,1,4,0:0:0:0:
160,288,28864,1,4,0:0:0:0:
160,96,29157,1,0,0:0:0:0:
352,96,29303,1,8,0:0:0:0:
160,96,29450,1,0,0:0:0:0:
352,288,29742,1,12,0:0:0:0:
160,288,30035,1,4,0:0:0:0:
160,288,30328,1,4,0:0:0:0:
352,288,30620,1,12,0:0:0:0:
160,96,30913,1,0,0:0:0:0:
352,96,31059,1,8,0:0:0:0:
160,96,31206,1,0,0:0:0:0:
352,96,31352,1,8,0:0:0:0:
352,96,31425,1,8,0:0:0:0:
352,96,31498,1,8,0:0:0:0:
160,96,31645,1,0,0:0:0:0:
160,96,31791,1,0,0:0:0:0:
160,96,31937,1,0,0:0:0:0:
352,96,32084,1,8,0:0:0:0:
352,96,32230,1,8,0:0:0:0:
160,96,32376,1,0,0:0:0:0:
352,96,33254,1,8,0:0:0:0:
160,96,33547,1,0,0:0:0:0:
352,96,33840,1,8,0:0:0:0:
352,96,34132,1,8,0:0:0:0:
160,96,34718,1,0,0:0:0:0:
352,96,35010,1,8,0:0:0:0:
160,96,35303,1,0,0:0:0:0:
352,96,35596,1,8,0:0:0:0:
352,96,35889,1,8,0:0:0:0:
160,96,36474,1,0,0:0:0:0:
352,96,36767,1,8,0:0:0:0:
160,96,37206,1,0,0:0:0:0:
352,96,37352,1,8,0:0:0:0:
352,96,37645,1,8,0:0:0:0:
160,96,37937,1,0,0:0:0:0:
160,96,38230,1,0,0:0:0:0:
352,96,38815,1,8,0:0:0:0:
160,96,39108,1,0,0:0:0:0:
160,96,39401,1,0,0:0:0:0:
352,96,39693,1,8,0:0:0:0:
352,96,39986,1,8,0:0:0:0:
352,96,40864,1,8,0:0:0:0:
160,96,41157,1,0,0:0:0:0:
352,96,41450,1,8,0:0:0:0:
352,96,42035,1,8,0:0:0:0:
352,96,42620,1,8,0:0:0:0:
160,96,42913,1,0,0:0:0:0:
352,96,43206,1,8,0:0:0:0:
352,96,43498,1,8,0:0:0:0:
160,96,44376,1,0,0:0:0:0:
352,96,44669,1,8,0:0:0:0:
160,96,45254,1,0,0:0:0:0:
352,288,45547,1,12,0:0:0:0:
160,96,45840,1,0,0:0:0:0:
160,288,46425,1,4,0:0:0:0:
160,96,46718,1,0,0:0:0:0:
352,96,46864,1,8,0:0:0:0:
160,96,47010,1,0,0:0:0:0:
352,96,47303,1,8,0:0:0:0:
160,96,47596,1,0,0:0:0:0:
352,96,47889,1,8,0:0:0:0:
160,96,48181,1,0,0:0:0:0:
160,96,48474,1,0,0:0:0:0:
352,96,48620,1,8,0:0:0:0:
160,96,48767,1,0,0:0:0:0:
352,96,49059,1,8,0:0:0:0:
160,96,49352,1,0,0:0:0:0:
352,96,49645,1,8,0:0:0:0:
160,96,49937,1,0,0:0:0:0:
160,96,50230,1,0,0:0:0:0:
352,96,50376,1,8,0:0:0:0:
160,96,50523,1,0,0:0:0:0:
352,96,50815,1,8,0:0:0:0:
160,96,51108,1,0,0:0:0:0:
160,96,51254,1,0,0:0:0:0:
352,96,51401,1,8,0:0:0:0:
352,96,51547,1,8,0:0:0:0:
160,96,51693,1,0,0:0:0:0:
160,96,51986,1,0,0:0:0:0:
352,96,52132,1,8,0:0:0:0:
160,96,52279,1,0,0:0:0:0:
352,96,52571,1,8,0:0:0:0:
160,96,52864,1,0,0:0:0:0:
352,96,53157,1,8,0:0:0:0:
160,288,53450,1,4,0:0:0:0:
160,96,53742,1,0,0:0:0:0:
352,96,53889,1,8,0:0:0:0:
160,96,54035,1,0,0:0:0:0:
352,96,54328,1,8,0:0:0:0:
160,96,54620,1,0,0:0:0:0:
160,96,54767,1,0,0:0:0:0:
352,96,54913,1,8,0:0:0:0:
160,96,55206,1,0,0:0:0:0:
160,96,55498,1,0,0:0:0:0:
352,96,55645,1,8,0:0:0:0:
160,96,55791,1,0,0:0:0:0:
352,96,56084,1,8,0:0:0:0:
160,96,56376,1,0,0:0:0:0:
160,96,56523,1,0,0:0:0:0:
352,96,56669,1,8,0:0:0:0:
160,96,56962,1,0,0:0:0:0:
160,96,57254,1,0,0:0:0:0:
352,96,57401,1,8,0:0:0:0:
160,96,57547,1,0,0:0:0:0:
352,96,57840,1,8,0:0:0:0:
160,96,58132,1,0,0:0:0:0:
352,96,58425,1,8,0:0:0:0:
352,96,58718,1,8,0:0:0:0:
160,96,59010,1,0,0:0:0:0:
352,96,59157,1,8,0:0:0:0:
160,96,59303,1,0,0:0:0:0:
352,96,59596,1,8,0:0:0:0:
160,96,59889,1,0,0:0:0:0:
352,96,60181,1,8,0:0:0:0:
160,288,60474,1,4,0:0:0:0:
160,96,60913,1,0,0:0:0:0:
160,96,61059,1,0,0:0:0:0:
352,96,61352,1,8,0:0:0:0:
352,96,61791,1,8,0:0:0:0:
160,96,61937,1,0,0:0:0:0:
160,96,62230,1,0,0:0:0:0:
160,96,62669,1,0,0:0:0:0:
160,96,62815,1,0,0:0:0:0:
352,96,63108,1,8,0:0:0:0:
352,96,63401,1,8,0:0:0:0:
160,96,63694,1,0,0:0:0:0:
160,96,63986,1,0,0:0:0:0:
160,96,64425,1,0,0:0:0:0:
160,96,64571,1,0,0:0:0:0:
352,96,64864,1,8,0:0:0:0:
352,96,65303,1,8,0:0:0:0:
160,96,65450,1,0,0:0:0:0:
160,96,65742,1,0,0:0:0:0:
160,96,66035,1,0,0:0:0:0:
352,96,66181,1,8,0:0:0:0:
160,96,66328,1,0,0:0:0:0:
160,96,66474,1,0,0:0:0:0:
352,96,66620,1,8,0:0:0:0:
352,96,66913,1,8,0:0:0:0:
160,96,67206,1,0,0:0:0:0:
160,288,67498,1,4,0:0:0:0:
352,96,67791,1,8,0:0:0:0:
352,96,67937,1,8,0:0:0:0:
160,96,68084,1,0,0:0:0:0:
352,96,68376,1,8,0:0:0:0:
352,96,68815,1,8,0:0:0:0:
160,96,68962,1,0,0:0:0:0:
160,96,69254,1,0,0:0:0:0:
352,96,69547,1,8,0:0:0:0:
352,96,69693,1,8,0:0:0:0:
160,96,69840,1,0,0:0:0:0:
352,96,70132,1,8,0:0:0:0:
160,96,70425,1,0,0:0:0:0:
352,96,70571,1,8,0:0:0:0:
160,96,70718,1,0,0:0:0:0:
160,96,71010,1,0,0:0:0:0:
352,96,71303,1,8,0:0:0:0:
352,96,71450,1,8,0:0:0:0:
160,96,71596,1,0,0:0:0:0:
352,96,71889,1,8,0:0:0:0:
160,96,72181,1,0,0:0:0:0:
160,96,72474,1,0,0:0:0:0:
352,96,72767,1,8,0:0:0:0:
160,96,73059,1,0,0:0:0:0:
352,96,73206,1,8,0:0:0:0:
160,96,73352,1,0,0:0:0:0:
352,96,73498,1,8,0:0:0:0:
352,96,73571,1,8,0:0:0:0:
352,96,73645,1,8,0:0:0:0:
352,96,73791,1,8,0:0:0:0:
160,96,73937,1,0,0:0:0:0:
160,96,74084,1,0,0:0:0:0:
160,96,74230,1,0,0:0:0:0:
160,96,74376,1,0,0:0:0:0:
352,288,74523,1,12,0:0:0:0:
160,96,74669,1,0,0:0:0:0:
160,96,74815,1,0,0:0:0:0:
352,96,74962,1,8,0:0:0:0:
160,96,75108,1,0,0:0:0:0:
160,96,75254,1,0,0:0:0:0:
352,96,75401,1,8,0:0:0:0:
352,96,75547,1,8,0:0:0:0:
160,96,75693,1,0,0:0:0:0:
352,96,75840,1,8,0:0:0:0:
160,96,75986,1,0,0:0:0:0:
160,96,76132,1,0,0:0:0:0:
352,288,76279,1,12,0:0:0:0:
160,96,76425,1,0,0:0:0:0:
160,96,76498,1,0,0:0:0:0:
160,96,76571,1,0,0:0:0:0:
352,96,76718,1,8,0:0:0:0:
160,96,76864,1,0,0:0:0:0:
160,96,77010,1,0,0:0:0:0:
352,96,77157,1,8,0:0:0:0:
352,96,77303,1,8,0:0:0:0:
160,96,77450,1,0,0:0:0:0:
160,96,77596,1,0,0:0:0:0:
352,96,77742,1,8,0:0:0:0:
160,96,77889,1,0,0:0:0:0:
352,288,78035,1,12,0:0:0:0:
160,96,78181,1,0,0:0:0:0:
160,96,78254,1,0,0:0:0:0:
160,96,78328,1,0,0:0:0:0:
352,96,78474,1,8,0:0:0:0:
160,96,78620,1,0,0:0:0:0:
160,96,78767,1,0,0:0:0:0:
352,96,78913,1,8,0:0:0:0:
352,96,79059,1,8,0:0:0:0:
160,96,79206,1,0,0:0:0:0:
352,96,79352,1,8,0:0:0:0:
160,96,79498,1,0,0:0:0:0:
160,96,79645,1,0,0:0:0:0:
352,288,79791,1,12,0:0:0:0:
160,96,79937,1,0,0:0:0:0:
160,96,80010,1,0,0:0:0:0:
160,96,80084,1,0,0:0:0:0:
160,96,80230,1,0,0:0:0:0:
352,96,80376,1,8,0:0:0:0:
160,96,80523,1,0,0:0:0:0:
352,96,80669,1,8,0:0:0:0:
352,96,80815,1,8,0:0:0:0:
160,96,80962,1,0,0:0:0:0:
352,96,81108,1,8,0:0:0:0:
160,96,81254,1,0,0:0:0:0:
160,96,81401,1,0,0:0:0:0:
352,288,81547,1,12,0:0:0:0:
160,288,81840,1,4,0:0:0:0:
160,288,82132,1,4,0:0:0:0:
352,288,82425,1,12,0:0:0:0:
160,288,82718,1,4,0:0:0:0:
160,288,83010,1,4,0:0:0:0:
352,288,83303,1,12,0:0:0:0:
352,96,84277,1,8,0:0:0:0:
352,288,85240,1,12,0:0:0:0:
160,96,85564,1,0,0:0:0:0:
352,96,85726,1,8,0:0:0:0:
352,96,85807,1,8,0:0:0:0:
160,96,85888,1,0,0:0:0:0:
352,288,86212,1,12,0:0:0:0:
160,288,86537,1,4,0:0:0:0:
160,288,86861,1,4,0:0:0:0:
160,96,87023,1,0,0:0:0:0:
352,288,87185,1,12,0:0:0:0:
160,96,87510,1,0,0:0:0:0:
352,96,87672,1,8,0:0:0:0:
160,96,87834,1,0,0:0:0:0:
160,96,87996,1,0,0:0:0:0:
352,288,88158,1,12,0:0:0:0:
160,288,88483,1,4,0:0:0:0:
160,288,88807,1,4,0:0:0:0:
160,96,88969,1,0,0:0:0:0:
352,288,89131,1,12,0:0:0:0:
160,96,89456,1,0,0:0:0:0:
352,96,89618,1,8,0:0:0:0:
352,96,89699,1,8,0:0:0:0:
160,96,89780,1,0,0:0:0:0:
352,288,90104,1,12,0:0:0:0:
160,288,90429,1,4,0:0:0:0:
352,96,90591,1,8,0:0:0:0:
352,96,90672,1,8,0:0:0:0:
160,288,90753,1,4,0:0:0:0:
352,288,91077,1,12,0:0:0:0:
160,96,91402,1,0,0:0:0:0:
352,96,91564,1,8,0:0:0:0:
160,96,91726,1,0,0:0:0:0:
160,96,91888,1,0,0:0:0:0:
352,288,92050,1,12,0:0:0:0:
160,288,92375,1,4,0:0:0:0:
160,288,92699,1,4,0:0:0:0:
160,96,92861,1,0,0:0:0:0:
352,288,93023,1,12,0:0:0:0:
160,96,93348,1,0,0:0:0:0:
352,96,93510,1,8,0:0:0:0:
352,96,93591,1,8,0:0:0:0:
160,96,93672,1,0,0:0:0:0:
352,288,93996,1,12,0:0:0:0:
160,288,94321,1,4,0:0:0:0:
160,288,94645,1,4,0:0:0:0:
160,96,94807,1,0,0:0:0:0:
160,96,94888,1,0,0:0:0:0:
352,288,94969,1,12,0:0:0:0:
160,96,95294,1,0,0:0:0:0:
352,96,95456,1,8,0:0:0:0:
160,96,95618,1,0,0:0:0:0:
160,96,95780,1,0,0:0:0:0:
352,288,95942,1,12,0:0:0:0:
160,96,96104,1,0,0:0:0:0:
352,288,96267,1,12,0:0:0:0:
352,96,96429,1,8,0:0:0:0:
160,288,96591,1,4,0:0:0:0:
352,96,96753,1,8,0:0:0:0:
160,288,96915,1,4,0:0:0:0:
160,96,97239,1,0,0:0:0:0:
352,96,97402,1,8,0:0:0:0:
352,96,97483,1,8,0:0:0:0:
160,96,97564,1,0,0:0:0:0:
352,288,97888,1,12,0:0:0:0:
160,96,98212,1,0,0:0:0:0:
352,96,98375,1,8,0:0:0:0:
160,96,98537,1,0,0:0:0:0:
352,288,98861,1,12,0:0:0:0:
160,96,99185,1,0,0:0:0:0:
352,96,99348,1,8,0:0:0:0:
160,96,99510,1,0,0:0:0:0:
352,96,99672,1,8,0:0:0:0:
352,96,99753,1,8,0:0:0:0:
352,96,99834,1,8,0:0:0:0:
160,96,99996,1,0,0:0:0:0:
160,96,100158,1,0,0:0:0:0:
160,96,100321,1,0,0:0:0:0:
352,96,100483,1,8,0:0:0:0:
352,96,100645,1,8,0:0:0:0:
160,288,100807,1,4,0:0:0:0:
160,96,101131,1,0,0:0:0:0:
352,96,101294,1,8,0:0:0:0:
160,96,101456,1,0,0:0:0:0:
352,288,101780,1,12,0:0:0:0:
160,288,102104,1,4,0:0:0:0:
352,96,102267,1,8,0:0:0:0:
160,288,102429,1,4,0:0:0:0:
352,288,102753,1,12,0:0:0:0:
160,96,103077,1,0,0:0:0:0:
352,96,103239,1,8,0:0:0:0:
352,96,103321,1,8,0:0:0:0:
160,96,103402,1,0,0:0:0:0:
352,288,103726,1,12,0:0:0:0:
160,288,104050,1,4,0:0:0:0:
352,288,104375,1,12,0:0:0:0:
352,288,104699,1,12,0:0:0:0:
160,96,105023,1,0,0:0:0:0:
352,96,105185,1,8,0:0:0:0:
160,96,105348,1,0,0:0:0:0:
160,96,105510,1,0,0:0:0:0:
352,288,105672,1,12,0:0:0:0:
160,288,105996,1,4,0:0:0:0:
160,288,106321,1,4,0:0:0:0:
352,288,106645,1,12,0:0:0:0:
160,96,106969,1,0,0:0:0:0:
352,96,107131,1,8,0:0:0:0:
352,96,107212,1,8,0:0:0:0:
160,96,107294,1,0,0:0:0:0:
352,96,107618,1,8,0:0:0:0:
352,96,107780,1,8,0:0:0:0:
352,96,107861,1,8,0:0:0:0:
160,96,107942,1,0,0:0:0:0:
160,96,108104,1,0,0:0:0:0:
352,96,108267,1,8,0:0:0:0:
352,96,108429,1,8,0:0:0:0:
160,288,108591,1,4,0:0:0:0:
160,96,108915,1,0,0:0:0:0:
352,96,109077,1,8,0:0:0:0:
160,96,109239,1,0,0:0:0:0:
160,96,109402,1,0,0:0:0:0:
352,96,109564,1,8,0:0:0:0:
160,96,109726,1,0,0:0:0:0:
160,96,109888,1,0,0:0:0:0:
160,96,110050,1,0,0:0:0:0:
352,96,110212,1,8,0:0:0:0:
160,96,110375,1,0,0:0:0:0:
352,96,110537,1,8,0:0:0:0:
352,96,110699,1,8,0:0:0:0:
160,96,110861,1,0,0:0:0:0:
160,96,111023,1,0,0:0:0:0:
352,96,111185,1,8,0:0:0:0:
160,96,111348,1,0,0:0:0:0:
352,96,111510,1,8,0:0:0:0:
160,96,111672,1,0,0:0:0:0:
160,96,111834,1,0,0:0:0:0:
160,96,111996,1,0,0:0:0:0:
352,96,112158,1,8,0:0:0:0:
160,96,112321,1,0,0:0:0:0:
352,288,112483,1,12,0:0:0:0:
352,96,112807,1,8,0:0:0:0:
352,96,113131,1,8,0:0:0:0:
352,96,113456,1,8,0:0:0:0:
352,96,113780,1,8,0:0:0:0:
352,96,114104,1,8,0:0:0:0:
160,288,114429,1,4,0:0:0:0:
256,192,114591,12,0,116212,0:0:0:0:
160,96,116375,5,0,0:0:0:0:
160,96,118131,1,0,0:0:0:0:
160,96,119887,1,0,0:0:0:0:
160,96,121643,1,0,0:0:0:0:
352,96,122521,1,8,0:0:0:0:
352,96,123399,1,8,0:0:0:0:
160,96,123984,1,0,0:0:0:0:
160,96,124277,1,0,0:0:0:0:
352,96,125155,1,8,0:0:0:0:
160,96,125301,1,0,0:0:0:0:
160,96,125448,1,0,0:0:0:0:
352,96,125594,1,8,0:0:0:0:
160,96,125887,1,0,0:0:0:0:
352,96,126033,1,8,0:0:0:0:
160,96,126326,1,0,0:0:0:0:
352,96,126472,1,8,0:0:0:0:
160,96,126765,1,0,0:0:0:0:
352,96,126911,1,8,0:0:0:0:
352,96,127057,1,8,0:0:0:0:
160,96,127204,1,0,0:0:0:0:
160,96,127350,1,0,0:0:0:0:
352,96,127496,1,8,0:0:0:0:
160,96,127643,1,0,0:0:0:0:
352,96,127789,1,8,0:0:0:0:
160,96,127935,1,0,0:0:0:0:
160,96,128082,1,0,0:0:0:0:
352,96,128228,1,8,0:0:0:0:
160,96,128374,1,0,0:0:0:0:
160,96,128521,1,0,0:0:0:0:
352,96,128667,1,8,0:0:0:0:
160,96,128814,1,0,0:0:0:0:
160,96,128960,1,0,0:0:0:0:
352,96,129106,1,8,0:0:0:0:
160,96,129399,1,0,0:0:0:0:
352,96,129545,1,8,0:0:0:0:
160,96,129838,1,0,0:0:0:0:
352,96,129984,1,8,0:0:0:0:
160,96,130131,1,0,0:0:0:0:
160,96,130423,1,0,0:0:0:0:
160,96,130716,1,0,0:0:0:0:
352,96,130862,1,8,0:0:0:0:
160,96,131009,1,0,0:0:0:0:
352,96,131301,1,8,0:0:0:0:
160,96,131594,1,0,0:0:0:0:
160,96,131887,1,0,0:0:0:0:
160,96,132179,1,0,0:0:0:0:
160,96,132472,1,0,0:0:0:0:
352,96,132618,1,8,0:0:0:0:
160,96,132765,1,0,0:0:0:0:
352,96,133057,1,8,0:0:0:0:
352,96,133350,1,8,0:0:0:0:
160,96,133643,1,0,0:0:0:0:
160,96,133935,1,0,0:0:0:0:
352,96,134082,1,8,0:0:0:0:
160,96,134228,1,0,0:0:0:0:
352,96,134374,1,8,0:0:0:0:
160,96,134521,1,0,0:0:0:0:
352,96,134814,1,8,0:0:0:0:
160,96,135106,1,0,0:0:0:0:
160,96,135399,1,0,0:0:0:0:
160,96,135692,1,0,0:0:0:0:
160,96,135984,1,0,0:0:0:0:
352,96,136131,1,8,0:0:0:0:
160,96,136277,1,0,0:0:0:0:
352,96,136570,1,8,0:0:0:0:
352,96,136862,1,8,0:0:0:0:
160,96,137155,1,0,0:0:0:0:
160,288,137448,1,4,0:0:0:0:
352,96,137594,1,8,0:0:0:0:
160,96,137740,1,0,0:0:0:0:
352,96,137887,1,8,0:0:0:0:
160,96,138033,1,0,0:0:0:0:
352,96,138326,1,8,0:0:0:0:
160,96,138618,1,0,0:0:0:0:
160,96,138911,1,0,0:0:0:0:
160,96,139204,1,0,0:0:0:0:
160,96,139496,1,0,0:0:0:0:
352,96,139643,1,8,0:0:0:0:
160,96,139789,1,0,0:0:0:0:
352,96,140082,1,8,0:0:0:0:
352,96,140374,1,8,0:0:0:0:
160,96,140667,1,0,0:0:0:0:
160,96,140960,1,0,0:0:0:0:
352,96,141106,1,8,0:0:0:0:
160,96,141253,1,0,0:0:0:0:
352,96,141399,1,8,0:0:0:0:
160,96,141545,1,0,0:0:0:0:
352,96,141838,1,8,0:0:0:0:
160,96,142131,1,0,0:0:0:0:
160,96,142423,1,0,0:0:0:0:
352,288,142716,1,12,0:0:0:0:
160,96,143009,1,0,0:0:0:0:
352,96,143155,1,8,0:0:0:0:
160,96,143301,1,0,0:0:0:0:
352,96,143448,1,8,0:0:0:0:
352,96,143521,1,8,0:0:0:0:
352,96,143594,1,8,0:0:0:0:
352,96,143740,1,8,0:0:0:0:
160,96,143887,1,0,0:0:0:0:
160,96,144033,1,0,0:0:0:0:
160,96,144179,1,0,0:0:0:0:
160,96,144326,1,0,0:0:0:0:
352,288,144472,1,12,0:0:0:0:
160,96,144765,1,0,0:0:0:0:
352,96,144911,1,8,0:0:0:0:
160,96,145057,1,0,0:0:0:0:
160,96,145204,1,0,0:0:0:0:
352,96,145350,1,8,0:0:0:0:
160,96,145643,1,0,0:0:0:0:
160,96,145935,1,0,0:0:0:0:
352,96,146228,1,8,0:0:0:0:
160,96,146521,1,0,0:0:0:0:
352,96,146667,1,8,0:0:0:0:
160,96,146814,1,0,0:0:0:0:
352,96,147106,1,8,0:0:0:0:
352,96,147399,1,8,0:0:0:0:
160,96,147692,1,0,0:0:0:0:
352,96,147984,1,8,0:0:0:0:
160,96,148277,1,0,0:0:0:0:
352,96,148423,1,8,0:0:0:0:
160,96,148570,1,0,0:0:0:0:
352,96,148862,1,8,0:0:0:0:
160,96,149009,1,0,0:0:0:0:
352,96,149155,1,8,0:0:0:0:
160,96,149448,1,0,0:0:0:0:
352,96,149740,1,8,0:0:0:0:
160,96,150033,1,0,0:0:0:0:
352,96,150179,1,8,0:0:0:0:
160,96,150326,1,0,0:0:0:0:
352,96,150618,1,8,0:0:0:0:
352,96,150911,1,8,0:0:0:0:
160,96,151204,1,0,0:0:0:0:
352,288,151496,1,12,0:0:0:0:
160,96,151789,1,0,0:0:0:0:
352,96,151935,1,8,0:0:0:0:
160,96,152082,1,0,0:0:0:0:
352,96,152374,1,8,0:0:0:0:
160,96,152667,1,0,0:0:0:0:
160,96,152960,1,0,0:0:0:0:
352,96,153253,1,8,0:0:0:0:
160,96,153545,1,0,0:0:0:0:
352,96,153692,1,8,0:0:0:0:
160,96,153838,1,0,0:0:0:0:
352,96,154131,1,8,0:0:0:0:
160,96,154277,1,0,0:0:0:0:
352,96,154423,1,8,0:0:0:0:
160,96,154716,1,0,0:0:0:0:
352,96,155009,1,8,0:0:0:0:
160,96,155301,1,0,0:0:0:0:
352,96,155448,1,8,0:0:0:0:
160,96,155594,1,0,0:0:0:0:
352,96,155887,1,8,0:0:0:0:
352,96,156179,1,8,0:0:0:0:
160,96,156472,1,0,0:0:0:0:
160,288,156765,1,4,0:0:0:0:
352,96,157057,1,8,0:0:0:0:
352,96,157204,1,8,0:0:0:0:
352,96,157350,1,8,0:0:0:0:
352,96,157496,1,8,0:0:0:0:
160,288,157643,1,4,0:0:0:0:
352,96,158521,1,8,0:0:0:0:
352,96,158667,1,8,0:0:0:0:
352,96,158814,1,8,0:0:0:0:
352,96,158960,1,8,0:0:0:0:
352,96,159106,1,8,0:0:0:0:
352,96,159253,1,8,0:0:0:0:
160,288,159399,1,4,0:0:0:0:
160,96,162618,5,0,0:0:0:0:
160,288,162911,1,4,0:0:0:0:
256,192,163057,12,0,163643,0:0:0:0:
352,288,163789,5,12,0:0:0:0:
160,96,164082,1,0,0:0:0:0:
352,96,164228,1,8,0:0:0:0:
352,96,164301,1,8,0:0:0:0:
160,96,164374,1,0,0:0:0:0:
352,288,164667,1,12,0:0:0:0:
160,288,164960,1,4,0:0:0:0:
160,288,165253,1,4,0:0:0:0:
352,288,165545,1,12,0:0:0:0:
160,96,165838,1,0,0:0:0:0:
352,96,165984,1,8,0:0:0:0:
160,96,166131,1,0,0:0:0:0:
352,288,166423,1,12,0:0:0:0:
160,288,166716,1,4,0:0:0:0:
160,288,167009,1,4,0:0:0:0:
352,288,167301,1,12,0:0:0:0:
160,96,167594,1,0,0:0:0:0:
352,96,167740,1,8,0:0:0:0:
352,96,167814,1,8,0:0:0:0:
160,96,167887,1,0,0:0:0:0:
352,288,168179,1,12,0:0:0:0:
160,288,168326,1,4,0:0:0:0:
352,288,168472,1,12,0:0:0:0:
160,288,168618,1,4,0:0:0:0:
352,288,168765,1,12,0:0:0:0:
160,288,168911,1,4,0:0:0:0:
352,288,169057,1,12,0:0:0:0:
160,96,169350,1,0,0:0:0:0:
352,96,169496,1,8,0:0:0:0:
160,96,169643,1,0,0:0:0:0:
352,288,169935,1,12,0:0:0:0:
160,288,170228,1,4,0:0:0:0:
160,288,170521,1,4,0:0:0:0:
352,288,170814,1,12,0:0:0:0:
160,96,171106,1,0,0:0:0:0:
352,96,171253,1,8,0:0:0:0:
352,96,171326,1,8,0:0:0:0:
160,96,171399,1,0,0:0:0:0:
352,288,171692,1,12,0:0:0:0:
160,288,171984,1,4,0:0:0:0:
160,288,172277,1,4,0:0:0:0:
160,96,172423,1,0,0:0:0:0:
352,288,172570,1,12,0:0:0:0:
160,96,172862,1,0,0:0:0:0:
352,96,173009,1,8,0:0:0:0:
160,96,173155,1,0,0:0:0:0:
352,288,173448,1,12,0:0:0:0:
160,288,173740,1,4,0:0:0:0:
160,288,174033,1,4,0:0:0:0:
352,288,174326,1,12,0:0:0:0:
160,96,174618,1,0,0:0:0:0:
352,96,174765,1,8,0:0:0:0:
352,96,174838,1,8,0:0:0:0:
160,96,174911,1,0,0:0:0:0:
352,288,175204,1,12,0:0:0:0:
160,96,175496,1,0,0:0:0:0:
352,96,175643,1,8,0:0:0:0:
160,96,175789,1,0,0:0:0:0:
352,288,176082,1,12,0:0:0:0:
160,96,176374,1,0,0:0:0:0:
352,96,176521,1,8,0:0:0:0:
160,96,176667,1,0,0:0:0:0:
352,96,176814,1,8,0:0:0:0:
352,96,176887,1,8,0:0:0:0:
352,96,176960,1,8,0:0:0:0:
160,96,177106,1,0,0:0:0:0:
160,96,177253,1,0,0:0:0:0:
160,96,177399,1,0,0:0:0:0:
160,96,177545,1,0,0:0:0:0:
160,96,177692,1,0,0:0:0:0:
352,288,177838,1,12,0:0:0:0:
160,96,178131,1,0,0:0:0:0:
352,96,178277,1,8,0:0:0:0:
160,96,178423,1,0,0:0:0:0:
160,96,178570,1,0,0:0:0:0:
352,288,178716,1,12,0:0:0:0:
160,96,179009,1,0,0:0:0:0:
160,96,179301,1,0,0:0:0:0:
352,288,179594,1,12,0:0:0:0:
160,96,179887,1,0,0:0:0:0:
352,96,180033,1,8,0:0:0:0:
352,96,180106,1,8,0:0:0:0:
160,96,180179,1,0,0:0:0:0:
160,96,180326,1,0,0:0:0:0:
352,288,180472,1,12,0:0:0:0:
160,96,180765,1,0,0:0:0:0:
160,96,181057,1,0,0:0:0:0:
160,96,181204,1,0,0:0:0:0:
352,288,181350,1,12,0:0:0:0:
160,96,181643,1,0,0:0:0:0:
352,96,181789,1,8,0:0:0:0:
160,96,181935,1,0,0:0:0:0:
160,96,182082,1,0,0:0:0:0:
352,288,182228,1,12,0:0:0:0:
160,96,182521,1,0,0:0:0:0:
160,96,182667,1,0,0:0:0:0:
160,96,182814,1,0,0:0:0:0:
352,288,183106,1,12,0:0:0:0:
160,96,183399,1,0,0:0:0:0:
352,96,183545,1,8,0:0:0:0:
352,96,183618,1,8,0:0:0:0:
160,96,183692,1,0,0:0:0:0:
160,96,183838,1,0,0:0:0:0:
352,288,183984,1,12,0:0:0:0:
160,96,184277,1,0,0:0:0:0:
160,96,184570,1,0,0:0:0:0:
352,288,184862,1,12,0:0:0:0:
160,96,185155,1,0,0:0:0:0:
352,96,185301,1,8,0:0:0:0:
160,96,185448,1,0,0:0:0:0:
352,288,185740,1,12,0:0:0:0:
160,96,186033,1,0,0:0:0:0:
352,96,186179,1,0,0:0:0:0:
352,96,186253,1,0,0:0:0:0:
160,96,186326,1,0,0:0:0:0:
352,288,186618,1,12,0:0:0:0:
160,96,186911,1,0,0:0:0:0:
352,96,187057,1,8,0:0:0:0:
160,96,187204,1,0,0:0:0:0:
352,288,187496,1,12,0:0:0:0:
160,96,187789,1,0,0:0:0:0:
352,96,187935,1,8,0:0:0:0:
352,96,188009,1,8,0:0:0:0:
160,96,188082,1,0,0:0:0:0:
352,288,188374,1,12,0:0:0:0:
352,96,188667,1,8,0:0:0:0:
352,96,188960,1,8,0:0:0:0:
352,96,189253,1,8,0:0:0:0:
352,96,189545,1,8,0:0:0:0:
352,96,189838,1,8,0:0:0:0:
352,96,190131,1,8,0:0:0:0:
352,96,190423,1,8,0:0:0:0:
352,96,190716,1,8,0:0:0:0:
352,96,191009,1,8,0:0:0:0:
160,96,191265,1,0,0:0:0:0:
160,96,191301,1,0,0:0:0:0:
160,96,191594,1,0,0:0:0:0:
352,288,191887,1,12,0:0:0:0:
160,96,192179,1,0,0:0:0:0:
352,96,192472,1,8,0:0:0:0:
352,288,192765,1,12,0:0:0:0:
352,96,193057,1,8,0:0:0:0:
352,96,193350,1,8,0:0:0:0:
352,288,193643,1,12,0:0:0:0:
352,96,193935,1,8,0:0:0:0:
352,96,194228,1,8,0:0:0:0:
352,288,194521,1,12,0:0:0:0:
352,96,194814,1,8,0:0:0:0:
352,96,195106,1,8,0:0:0:0:
352,288,195399,1,12,0:0:0:0:
160,96,195692,1,0,0:0:0:0:
352,96,195984,1,8,0:0:0:0:
352,288,196277,1,12,0:0:0:0:
160,96,196570,1,0,0:0:0:0:
352,96,196862,1,8,0:0:0:0:
352,288,197155,1,12,0:0:0:0:
160,96,197448,1,0,0:0:0:0:
352,96,197740,1,8,0:0:0:0:
160,96,198033,1,0,0:0:0:0:
352,96,198326,1,8,0:0:0:0:
160,96,198618,1,0,0:0:0:0:
352,288,198911,1,12,0:0:0:0:
160,96,199204,1,0,0:0:0:0:
160,96,199350,1,0,0:0:0:0:
160,96,199496,1,0,0:0:0:0:
160,96,199789,1,0,0:0:0:0:
160,96,200082,1,0,0:0:0:0:
160,96,200374,1,0,0:0:0:0:
160,96,200667,1,0,0:0:0:0:
352,288,200814,1,12,0:0:0:0:
160,96,200960,1,0,0:0:0:0:
160,96,201106,1,0,0:0:0:0:
352,288,201253,1,12,0:0:0:0:
160,96,201545,1,0,0:0:0:0:
352,96,201692,1,8,0:0:0:0:
352,96,201765,1,8,0:0:0:0:
352,96,201838,1,8,0:0:0:0:
352,96,201984,1,8,0:0:0:0:
160,96,202131,1,0,0:0:0:0:
160,96,202277,1,0,0:0:0:0:
352,288,202423,1,12,0:0:0:0:
352,96,202716,1,8,0:0:0:0:
352,96,202789,1,8,0:0:0:0:
352,96,202862,1,8,0:0:0:0:
352,96,202935,1,8,0:0:0:0:
352,96,203009,1,8,0:0:0:0:
352,96,203155,1,8,0:0:0:0:
352,288,203301,1,12,0:0:0:0:
352,96,203594,1,8,0:0:0:0:
352,96,203667,1,8,0:0:0:0:
352,96,203740,1,8,0:0:0:0:
352,96,203814,1,8,0:0:0:0:
352,96,203887,1,8,0:0:0:0:
352,96,204033,1,8,0:0:0:0:
352,288,204179,1,12,0:0:0:0:
352,96,204472,1,8,0:0:0:0:
352,96,204545,1,8,0:0:0:0:
352,96,204618,1,8,0:0:0:0:
352,96,204692,1,8,0:0:0:0:
352,96,204765,1,8,0:0:0:0:
352,96,204911,1,8,0:0:0:0:
352,96,205057,1,8,0:0:0:0:
352,96,205204,1,8,0:0:0:0:
160,96,205350,1,0,0:0:0:0:
160,96,205423,1,0,0:0:0:0:
160,96,205496,1,0,0:0:0:0:
160,96,205643,1,0,0:0:0:0:
160,96,205716,1,0,0:0:0:0:
160,96,205789,1,0,0:0:0:0:
352,288,205935,1,12,0:0:0:0:
352,96,206228,1,8,0:0:0:0:
352,96,206301,1,8,0:0:0:0:
352,96,206374,1,8,0:0:0:0:
352,96,206448,1,8,0:0:0:0:
352,96,206521,1,8,0:0:0:0:
352,96,206667,1,8,0:0:0:0:
352,288,206814,1,12,0:0:0:0:
352,96,207106,1,8,0:0:0:0:
352,96,207179,1,8,0:0:0:0:
352,96,207253,1,8,0:0:0:0:
352,96,207326,1,8,0:0:0:0:
352,96,207399,1,8,0:0:0:0:
352,96,207545,1,8,0:0:0:0:
352,288,207692,1,12,0:0:0:0:
352,96,207984,1,8,0:0:0:0:
352,96,208057,1,8,0:0:0:0:
352,96,208131,1,8,0:0:0:0:
352,96,208204,1,8,0:0:0:0:
352,96,208277,1,8,0:0:0:0:
160,96,208423,1,0,0:0:0:0:
352,96,208570,1,8,0:0:0:0:
160,96,208716,1,0,0:0:0:0:
352,96,208862,1,8,0:0:0:0:
160,96,209009,1,0,0:0:0:0:
352,96,209155,1,8,0:0:0:0:
160,96,209301,1,0,0:0:0:0:
352,288,209448,1,12,0:0:0:0:
352,96,209740,1,8,0:0:0:0:
352,96,209814,1,8,0:0:0:0:
352,96,209887,1,8,0:0:0:0:
352,96,209960,1,8,0:0:0:0:
352,96,210033,1,8,0:0:0:0:
352,96,210179,1,8,0:0:0:0:
352,288,210326,1,12,0:0:0:0:
352,96,210618,1,8,0:0:0:0:
352,96,210692,1,8,0:0:0:0:
352,96,210765,1,8,0:0:0:0:
352,96,210838,1,8,0:0:0:0:
352,96,210911,1,8,0:0:0:0:
352,96,211057,1,8,0:0:0:0:
352,288,211204,1,12,0:0:0:0:
352,96,211496,1,8,0:0:0:0:
352,96,211570,1,8,0:0:0:0:
352,96,211643,1,8,0:0:0:0:
352,96,211716,1,8,0:0:0:0:
352,96,211789,1,8,0:0:0:0:
352,96,211935,1,8,0:0:0:0:
352,96,212082,1,8,0:0:0:0:
352,96,212228,1,8,0:0:0:0:
160,96,212374,1,0,0:0:0:0:
160,96,212448,1,0,0:0:0:0:
160,96,212521,1,0,0:0:0:0:
160,96,212667,1,0,0:0:0:0:
160,96,212740,1,0,0:0:0:0:
160,96,212814,1,0,0:0:0:0:
352,288,212960,1,12,0:0:0:0:
352,96,213253,1,8,0:0:0:0:
352,96,213326,1,8,0:0:0:0:
352,96,213399,1,8,0:0:0:0:
352,96,213472,1,8,0:0:0:0:
352,96,213545,1,8,0:0:0:0:
352,96,213692,1,8,0:0:0:0:
352,288,213838,1,12,0:0:0:0:
352,96,214131,1,8,0:0:0:0:
160,96,214277,1,0,0:0:0:0:
160,96,214423,1,0,0:0:0:0:
160,96,214570,1,0,0:0:0:0:
160,96,214716,1,0,0:0:0:0:
352,288,215009,1,12,0:0:0:0:
352,288,215301,1,12,0:0:0:0:
160,96,215594,1,0,0:0:0:0:
352,288,215887,1,12,0:0:0:0:
352,288,216179,1,12,0:0:0:0:
160,288,216472,1,4,0:0:0:0:
256,192,216618,12,0,223350,0:0:0:0:
352,96,223496,5,8,0:0:0:0:
352,96,224374,1,8,0:0:0:0:
352,96,225253,1,8,0:0:0:0:
352,96,226131,1,8,0:0:0:0:
352,96,226716,1,8,0:0:0:0:
352,96,227009,1,8,0:0:0:0:
352,96,227594,1,8,0:0:0:0:
352,96,227887,1,8,0:0:0:0:
352,96,228472,1,8,0:0:0:0:
160,288,228765,1,4,0:0:0:0:
160,96,231106,5,0,0:0:0:0:
352,96,231399,1,8,0:0:0:0:
160,96,231692,1,0,0:0:0:0:
160,96,231984,1,0,0:0:0:0:
352,96,232277,1,8,0:0:0:0:
352,96,232570,1,8,0:0:0:0:
160,96,232862,1,0,0:0:0:0:
160,96,233009,1,0,0:0:0:0:
352,96,233155,1,8,0:0:0:0:
160,96,233448,1,0,0:0:0:0:
160,96,233740,1,0,0:0:0:0:
352,96,234033,1,8,0:0:0:0:
352,96,234326,1,8,0:0:0:0:
160,96,234618,1,0,0:0:0:0:
352,96,234911,1,8,0:0:0:0:
160,96,235204,1,0,0:0:0:0:
160,96,235496,1,0,0:0:0:0:
160,96,235643,1,0,0:0:0:0:
352,96,235789,1,8,0:0:0:0:
352,96,236082,1,8,0:0:0:0:
160,96,236374,1,0,0:0:0:0:
160,96,236521,1,0,0:0:0:0:
352,96,236667,1,8,0:0:0:0:
160,96,236960,1,0,0:0:0:0:
352,96,237253,1,8,0:0:0:0:
352,96,237545,1,8,0:0:0:0:
160,96,237692,1,0,0:0:0:0:
160,96,237765,1,0,0:0:0:0:
352,96,237838,1,8,0:0:0:0:
352,96,238423,1,8,0:0:0:0:
352,96,238716,1,8,0:0:0:0:
160,96,239009,1,0,0:0:0:0:
352,96,239301,1,8,0:0:0:0:
160,96,239594,1,0,0:0:0:0:
352,96,240179,1,8,0:0:0:0:
160,96,240472,1,0,0:0:0:0:
160,96,240838,1,0,0:0:0:0:
352,96,241057,1,8,0:0:0:0:
160,96,241350,1,0,0:0:0:0:
160,96,241643,1,0,0:0:0:0:
352,96,241935,1,8,0:0:0:0:
160,96,242228,1,0,0:0:0:0:
352,96,242521,1,8,0:0:0:0:
160,96,242814,1,0,0:0:0:0:
352,96,243106,1,8,0:0:0:0:
160,96,243545,1,0,0:0:0:0:
352,96,243692,1,8,0:0:0:0:
160,96,243984,1,0,0:0:0:0:
160,96,244277,1,0,0:0:0:0:
352,96,244570,1,8,0:0:0:0:
160,96,244862,1,0,0:0:0:0:
352,96,245009,1,8,0:0:0:0:
160,96,245411,1,0,0:0:0:0:
160,96,245448,1,0,0:0:0:0:
160,96,245740,1,0,0:0:0:0:
160,96,246033,1,0,0:0:0:0:
352,288,246326,1,12,0:0:0:0:
352,96,246911,1,8,0:0:0:0:
160,288,247204,1,4,0:0:0:0:
160,96,247789,1,0,0:0:0:0:
352,288,248082,1,12,0:0:0:0:
352,96,249063,1,8,0:0:0:0:
352,288,250035,1,12,0:0:0:0:
160,96,250359,1,0,0:0:0:0:
352,96,250521,1,8,0:0:0:0:
352,96,250602,1,8,0:0:0:0:
160,96,250683,1,0,0:0:0:0:
352,96,250845,1,8,0:0:0:0:
352,288,251007,1,12,0:0:0:0:
160,288,251332,1,4,0:0:0:0:
160,288,251656,1,4,0:0:0:0:
160,96,251818,1,0,0:0:0:0:
352,288,251980,1,12,0:0:0:0:
160,96,252305,1,0,0:0:0:0:
352,96,252467,1,8,0:0:0:0:
160,96,252629,1,0,0:0:0:0:
352,96,252791,1,8,0:0:0:0:
352,288,252953,1,12,0:0:0:0:
160,288,253278,1,4,0:0:0:0:
160,288,253602,1,4,0:0:0:0:
352,288,253926,1,12,0:0:0:0:
160,96,254251,1,0,0:0:0:0:
352,96,254413,1,8,0:0:0:0:
352,96,254494,1,8,0:0:0:0:
160,96,254575,1,0,0:0:0:0:
352,96,254737,1,8,0:0:0:0:
352,288,254899,1,12,0:0:0:0:
160,288,255224,1,4,0:0:0:0:
160,288,255548,1,4,0:0:0:0:
352,288,255872,1,12,0:0:0:0:
160,96,256197,1,0,0:0:0:0:
352,96,256359,1,8,0:0:0:0:
160,96,256521,1,0,0:0:0:0:
352,96,256683,1,8,0:0:0:0:
352,288,256845,1,12,0:0:0:0:
160,288,257170,1,4,0:0:0:0:
352,288,257494,1,12,0:0:0:0:
160,288,257656,1,4,0:0:0:0:
352,288,257818,1,12,0:0:0:0:
160,96,258143,1,0,0:0:0:0:
352,96,258305,1,8,0:0:0:0:
352,96,258386,1,8,0:0:0:0:
160,96,258467,1,0,0:0:0:0:
352,96,258629,1,8,0:0:0:0:
352,288,258791,1,12,0:0:0:0:
160,288,259116,1,4,0:0:0:0:
352,288,259440,1,12,0:0:0:0:
160,288,259602,1,4,0:0:0:0:
352,288,259764,1,12,0:0:0:0:
160,96,260089,1,0,0:0:0:0:
352,96,260251,1,8,0:0:0:0:
160,96,260413,1,0,0:0:0:0:
352,96,260575,1,8,0:0:0:0:
352,96,260737,1,8,0:0:0:0:
160,96,260899,1,0,0:0:0:0:
352,96,261062,1,8,0:0:0:0:
160,96,261224,1,0,0:0:0:0:
352,96,261386,1,8,0:0:0:0:
160,96,261548,1,0,0:0:0:0:
352,288,261710,1,12,0:0:0:0:
160,96,262035,1,0,0:0:0:0:
352,96,262197,1,8,0:0:0:0:
352,96,262278,1,8,0:0:0:0:
160,96,262359,1,0,0:0:0:0:
160,96,262521,1,0,0:0:0:0:
352,288,262683,1,12,0:0:0:0:
160,96,263007,1,0,0:0:0:0:
352,96,263170,1,8,0:0:0:0:
160,96,263332,1,0,0:0:0:0:
160,96,263494,1,0,0:0:0:0:
352,96,263656,1,8,0:0:0:0:
352,96,263737,1,8,0:0:0:0:
160,96,263818,1,0,0:0:0:0:
160,96,263899,1,0,0:0:0:0:
352,96,263980,1,8,0:0:0:0:
352,96,264062,1,8,0:0:0:0:
160,96,264143,1,0,0:0:0:0:
160,96,264224,1,0,0:0:0:0:
352,96,264305,1,8,0:0:0:0:
160,96,264386,1,0,0:0:0:0:
352,96,264467,1,8,0:0:0:0:
160,96,264548,1,0,0:0:0:0:
352,96,264629,1,8,0:0:0:0:
352,96,264710,1,8,0:0:0:0:
160,96,264791,1,0,0:0:0:0:
160,96,264872,1,0,0:0:0:0:
352,96,264953,1,8,0:0:0:0:
352,96,265035,1,8,0:0:0:0:
160,96,265116,1,0,0:0:0:0:
352,96,265278,1,8,0:0:0:0:
352,96,265359,1,8,0:0:0:0:
352,96,265440,1,8,0:0:0:0:
352,96,265521,1,8,0:0:0:0:
160,288,265602,1,4,0:0:0:0:
352,96,265926,1,8,0:0:0:0:
160,96,266089,1,0,0:0:0:0:
352,96,266413,1,8,0:0:0:0:
352,96,266575,1,8,0:0:0:0:
352,96,266899,1,8,0:0:0:0:
352,96,267224,1,8,0:0:0:0:
160,288,267548,1,4,0:0:0:0:
352,96,267872,1,8,0:0:0:0:
160,96,268035,1,0,0:0:0:0:
352,96,268359,1,8,0:0:0:0:
352,96,268521,1,8,0:0:0:0:
352,96,268602,1,8,0:0:0:0:
160,96,268683,1,0,0:0:0:0:
160,96,268764,1,0,0:0:0:0:
352,96,268845,1,8,0:0:0:0:
352,96,268926,1,8,0:0:0:0:
160,96,269007,1,0,0:0:0:0:
160,96,269089,1,0,0:0:0:0:
352,96,269170,1,8,0:0:0:0:
352,96,269251,1,8,0:0:0:0:
160,96,269332,1,0,0:0:0:0:
160,96,269413,1,0,0:0:0:0:
352,288,269494,1,12,0:0:0:0:
160,96,269656,1,0,0:0:0:0:
352,288,269818,1,12,0:0:0:0:
160,96,269980,1,0,0:0:0:0:
352,288,270143,1,12,0:0:0:0:
160,96,270305,1,0,0:0:0:0:
352,288,270467,1,12,0:0:0:0:
160,96,270629,1,0,0:0:0:0:
352,288,270791,1,12,0:0:0:0:
160,96,270953,1,0,0:0:0:0:
352,288,271116,1,12,0:0:0:0:
160,96,271278,1,0,0:0:0:0:
352,288,271440,1,12,0:0:0:0:
160,96,271602,1,0,0:0:0:0:
352,288,271764,1,12,0:0:0:0:
160,96,271926,1,0,0:0:0:0:
352,288,272089,1,12,0:0:0:0:
160,96,272251,1,0,0:0:0:0:
352,288,272413,1,12,0:0:0:0:
160,96,272737,1,0,0:0:0:0:
160,96,272899,1,0,0:0:0:0:
352,96,273062,1,8,0:0:0:0:
352,96,273143,1,8,0:0:0:0:
352,96,273224,1,8,0:0:0:0:
352,96,273305,1,8,0:0:0:0:
160,288,273386,1,4,0:0:0:0:
160,96,273710,1,0,0:0:0:0:
160,96,273872,1,0,0:0:0:0:
160,96,274035,1,0,0:0:0:0:
352,288,274359,1,12,0:0:0:0:
160,96,274683,1,0,0:0:0:0:
352,96,274845,1,8,0:0:0:0:
160,96,275007,1,0,0:0:0:0:
160,288,275332,1,4,0:0:0:0:
160,96,275656,1,0,0:0:0:0:
160,96,275818,1,0,0:0:0:0:
160,96,275980,1,0,0:0:0:0:
352,288,276305,1,12,0:0:0:0:
160,96,276629,1,0,0:0:0:0:
352,96,276791,1,8,0:0:0:0:
160,96,276953,1,0,0:0:0:0:
160,288,277278,1,4,0:0:0:0:
160,96,277602,1,0,0:0:0:0:
160,96,277764,1,0,0:0:0:0:
160,96,277926,1,0,0:0:0:0:
352,288,278251,1,12,0:0:0:0:
160,96,278575,1,0,0:0:0:0:
352,96,278737,1,8,0:0:0:0:
160,96,278899,1,0,0:0:0:0:
352,288,279224,1,12,0:0:0:0:
160,96,280197,1,0,0:0:0:0:
160,96,280845,1,0,0:0:0:0:
352,288,281170,1,12,0:0:0:0:
352,96,281818,1,8,0:0:0:0:
160,96,282143,1,0,0:0:0:0:
160,96,282791,1,0,0:0:0:0:
352,288,283116,1,12,0:0:0:0:
352,96,283764,1,8,0:0:0:0:
160,96,284089,1,0,0:0:0:0:
160,96,284737,1,0,0:0:0:0:
352,288,285071,1,12,0:0:0:0:
160,96,285363,1,0,0:0:0:0:
352,96,285510,1,8,0:0:0:0:
352,96,285583,1,8,0:0:0:0:
160,96,285656,1,0,0:0:0:0:
160,96,285802,1,0,0:0:0:0:
352,288,285949,1,12,0:0:0:0:
160,96,286241,1,0,0:0:0:0:
352,96,286388,1,8,0:0:0:0:
160,96,286534,1,0,0:0:0:0:
160,96,286680,1,0,0:0:0:0:
160,288,286827,1,4,0:0:0:0:
160,96,287119,1,0,0:0:0:0:
352,96,287266,1,8,0:0:0:0:
352,96,287339,1,8,0:0:0:0:
160,96,287412,1,0,0:0:0:0:
160,96,287558,1,0,0:0:0:0:
352,288,287705,1,12,0:0:0:0:
160,96,287997,1,0,0:0:0:0:
352,96,288144,1,8,0:0:0:0:
160,96,288290,1,0,0:0:0:0:
160,96,288436,1,0,0:0:0:0:
160,288,288583,1,4,0:0:0:0:
160,96,288875,1,0,0:0:0:0:
352,96,289022,1,8,0:0:0:0:
352,96,289095,1,8,0:0:0:0:
160,96,289168,1,0,0:0:0:0:
160,96,289314,1,0,0:0:0:0:
352,288,289461,1,12,0:0:0:0:
160,96,289753,1,0,0:0:0:0:
352,96,289900,1,8,0:0:0:0:
160,96,290046,1,0,0:0:0:0:
160,96,290192,1,0,0:0:0:0:
160,288,290339,1,4,0:0:0:0:
160,96,290631,1,0,0:0:0:0:
352,96,290778,1,8,0:0:0:0:
352,96,290851,1,8,0:0:0:0:
160,96,290924,1,0,0:0:0:0:
160,96,291071,1,0,0:0:0:0:
352,288,291217,1,12,0:0:0:0:
160,96,291510,1,0,0:0:0:0:
352,96,291656,1,8,0:0:0:0:
352,96,291729,1,8,0:0:0:0:
160,96,291802,1,0,0:0:0:0:
352,96,291949,1,8,0:0:0:0:
352,96,292022,1,8,0:0:0:0:
160,288,292095,1,4,0:0:0:0:
160,96,292388,1,0,0:0:0:0:
352,96,292534,1,8,0:0:0:0:
352,96,292607,1,8,0:0:0:0:
160,96,292680,1,0,0:0:0:0:
160,96,292827,1,0,0:0:0:0:
352,288,292973,1,12,0:0:0:0:
160,96,293266,1,0,0:0:0:0:
352,96,293412,1,8,0:0:0:0:
352,96,293485,1,8,0:0:0:0:
160,96,293558,1,0,0:0:0:0:
160,96,293705,1,0,0:0:0:0:
160,288,293851,1,4,0:0:0:0:
160,96,294144,1,0,0:0:0:0:
352,96,294290,1,8,0:0:0:0:
160,96,294436,1,0,0:0:0:0:
160,96,294583,1,0,0:0:0:0:
352,288,294729,1,12,0:0:0:0:
160,96,295022,1,0,0:0:0:0:
352,96,295168,1,8,0:0:0:0:
352,96,295241,1,8,0:0:0:0:
160,96,295314,1,0,0:0:0:0:
160,96,295461,1,0,0:0:0:0:
160,288,295607,1,4,0:0:0:0:
160,96,295900,1,0,0:0:0:0:
352,96,296046,1,8,0:0:0:0:
160,96,296192,1,0,0:0:0:0:
160,96,296339,1,0,0:0:0:0:
352,288,296485,1,12,0:0:0:0:
160,96,296778,1,0,0:0:0:0:
352,96,296924,1,8,0:0:0:0:
352,96,296997,1,8,0:0:0:0:
160,96,297071,1,0,0:0:0:0:
160,96,297217,1,0,0:0:0:0:
352,288,297363,1,12,0:0:0:0:
160,96,297656,1,0,0:0:0:0:
352,96,297802,1,8,0:0:0:0:
160,96,297949,1,0,0:0:0:0:
352,96,298095,1,8,0:0:0:0:
352,96,298168,1,8,0:0:0:0:
352,96,298241,1,8,0:0:0:0:
352,96,298388,1,8,0:0:0:0:
160,96,298534,1,0,0:0:0:0:
160,96,298680,1,0,0:0:0:0:
160,96,298827,1,0,0:0:0:0:
160,96,298973,1,0,0:0:0:0:
352,288,299119,1,12,0:0:0:0:
160,96,299412,1,0,0:0:0:0:
352,96,299558,1,8,0:0:0:0:
352,96,299631,1,8,0:0:0:0:
160,96,299705,1,0,0:0:0:0:
160,96,299851,1,0,0:0:0:0:
352,288,299997,1,12,0:0:0:0:
160,96,300290,1,0,0:0:0:0:
352,96,300436,1,8,0:0:0:0:
160,96,300583,1,0,0:0:0:0:
160,96,300729,1,0,0:0:0:0:
160,288,300875,1,4,0:0:0:0:
160,96,301168,1,0,0:0:0:0:
352,96,301314,1,8,0:0:0:0:
352,96,301388,1,8,0:0:0:0:
160,96,301461,1,0,0:0:0:0:
160,96,301607,1,0,0:0:0:0:
352,288,301753,1,12,0:0:0:0:
160,96,301900,1,0,0:0:0:0:
352,96,302046,1,8,0:0:0:0:
352,96,302192,1,8,0:0:0:0:
160,96,302339,1,0,0:0:0:0:
352,96,302485,1,8,0:0:0:0:
160,288,302631,1,4,0:0:0:0:
352,96,302924,1,8,0:0:0:0:
352,96,302997,1,8,0:0:0:0:
160,96,303071,1,0,0:0:0:0:
352,96,303217,1,8,0:0:0:0:
160,96,303363,1,0,0:0:0:0:
352,288,303510,1,12,0:0:0:0:
352,96,303802,1,8,0:0:0:0:
352,96,303875,1,8,0:0:0:0:
160,96,303949,1,0,0:0:0:0:
352,96,304095,1,8,0:0:0:0:
160,96,304241,1,0,0:0:0:0:
352,96,304388,1,8,0:0:0:0:
352,96,304461,1,8,0:0:0:0:
160,96,304534,1,0,0:0:0:0:
160,96,304607,1,0,0:0:0:0:
160,96,304680,1,0,0:0:0:0:
352,96,304827,1,0,0:0:0:0:
160,96,304900,1,0,0:0:0:0:
160,96,304973,1,0,0:0:0:0:
160,96,305119,1,0,0:0:0:0:
160,96,305192,1,0,0:0:0:0:
352,96,305266,1,8,0:0:0:0:
160,96,305339,1,8,0:0:0:0:
160,96,305412,1,0,0:0:0:0:
160,96,305485,1,0,0:0:0:0:
160,96,305558,1,8,0:0:0:0:
160,96,305631,1,0,0:0:0:0:
160,96,305705,1,0,0:0:0:0:
160,96,305778,1,0,0:0:0:0:
352,288,305851,1,12,0:0:0:0:
160,288,306144,1,4,0:0:0:0:
256,192,306290,12,0,313168,0:0:0:0:
