osu file format v14

[General]
AudioFilename: audio.mp3
AudioLeadIn: 0
PreviewTime: 258042
Countdown: 0
SampleSet: Soft
StackLeniency: 0.7
Mode: 0
LetterboxInBreaks: 0
WidescreenStoryboard: 0

[Editor]
Bookmarks: 84581,86518,161568,165080,221275,230056,233568,246739,249373,251313,307422,313275
DistanceSpacing: 0.8
BeatDivisor: 4
GridSize: 32
TimelineZoom: 3.799998

[Metadata]
Title:Hollowness
TitleUnicode:ホロネス
Artist:Minami
ArtistUnicode:美波
Creator:-[Shady]-
Version:Virtualized Lies
Source:
Tags:japanese Kawaki o ameku
BeatmapID:1972665
BeatmapSetID:944586

[Difficulty]
HPDrainRate:6
CircleSize:4.2
OverallDifficulty:8.5
ApproachRate:9.2
SliderMultiplier:1.8
SliderTickRate:1

[Events]
//Background and Video events
0,0,"Hollowness.jpg",0,0
//Break Periods
2,161768,164510
2,233568,246169
//Storyboard Layer 0 (Background)
//Storyboard Layer 1 (Fail)
//Storyboard Layer 2 (Pass)
//Storyboard Layer 3 (Foreground)
//Storyboard Sound Samples

[TimingPoints]
289,292.682926829268,6,2,1,35,1,0
5557,-166.666666666667,6,2,1,35,0,0
18728,-250.000000000001,6,2,1,45,0,0
19606,-100,6,2,1,65,0,0
33654,-166.666666666667,6,2,1,45,0,0
38045,-166.666666666667,6,2,1,15,0,0
38191,-166.666666666667,6,2,1,45,0,0
45069,-166.666666666667,6,2,1,15,0,0
45142,-166.666666666667,6,2,1,45,0,0
47703,-125,6,2,1,50,0,0
58679,-125,6,2,1,15,0,0
58752,-125,6,2,1,50,0,0
75801,-100,6,2,1,60,0,0
82825,-100,6,2,1,70,0,0
84581,-166.666666666667,6,2,1,70,0,0
85231,324.324324324324,4,2,1,60,1,0
86518,324.324324324324,6,2,1,85,1,1
86518,-83.3333333333333,6,2,1,85,0,1
102085,-100,6,2,1,75,0,0
115707,-166.666666666667,6,2,1,55,0,0
117666,292.682926829268,6,2,1,35,1,0
117666,-166.666666666667,6,2,1,35,0,0
145763,-125,6,2,1,60,0,0
160690,-166.666666666667,6,2,1,50,0,0
161568,-166.666666666667,6,2,1,45,0,0
165080,-83.3333333333334,6,2,1,85,0,1
186153,-100,6,2,1,85,0,0
203714,-100,6,2,1,75,0,0
216007,-166.666666666667,6,2,1,75,0,0
216300,-100,6,2,1,75,0,0
216885,-166.666666666667,6,2,1,75,0,0
217178,-100,6,2,1,75,0,0
217763,-125,6,2,1,60,0,0
230056,-166.666666666667,6,2,1,45,0,0
247617,-125,6,2,1,60,0,0
249373,-100,6,2,1,70,0,0
250017,324.324324324324,6,2,1,70,1,0
251313,324.324324324324,6,2,1,85,1,1
251313,-83.3333333333333,6,2,1,85,0,1
258042,-83.3333333333333,6,2,1,85,0,0
258123,-76.9230769230769,6,2,1,90,0,1
274664,-100,6,2,1,85,0,0
280502,-125,6,2,1,65,0,0
286349,292.682926829268,4,2,1,90,1,1
286349,-83.3333333333333,4,2,1,90,0,1
300397,-100,4,2,1,80,0,0
307422,-250,4,2,1,40,0,0
313275,-250,4,2,1,5,0,0

[Colours]
Combo1 : 119,132,242
Combo2 : 119,242,230
Combo3 : 119,163,242

[HitObjects]
86,71,5557,5,2,0:2:0:0:
132,210,5849,2,0,L|161:269,2,53.9999983520508,2|2|2,0:0|0:0|0:0,0:0:0:0:
86,71,6435,1,2,0:0:0:0:
214,201,6728,1,2,0:0:0:0:
313,71,7020,1,2,0:0:0:0:
266,276,7313,5,2,0:0:0:0:
407,254,7606,2,0,L|459:243,2,53.9999983520508,2|2|2,0:0|0:0|0:0,0:0:0:0:
266,276,8191,2,0,P|249:236|250:164,2,107.999996704102,2|2|2,0:0|0:0|0:0,0:0:0:0:
79,315,9069,6,0,P|68:274|77:197,1,107.999996704102,2|2,0:0|0:0,0:0:0:0:
119,138,9508,1,2,0:0:0:0:
154,55,9654,2,0,P|130:39|48:38,1,107.999996704102,2|2,0:0|0:0,0:0:0:0:
205,126,10240,1,2,0:0:0:0:
1,211,10532,1,2,0:0:0:0:
186,312,10825,5,2,0:0:0:0:
205,126,11118,2,0,L|208:57,2,53.9999983520508,2|2|2,0:0|0:0|0:0,0:0:0:0:
274,278,11703,2,0,P|299:302|381:315,2,107.999996704102,2|2|2,0:0|0:0|0:0,0:0:0:0:
276,38,12581,6,0,L|401:20,1,107.999996704102,2|2,0:0|0:0,0:0:0:0:
459,59,13020,1,2,0:0:0:0:
434,140,13167,2,0,P|425:180|446:260,1,107.999996704102,2|2,0:0|0:0,0:0:0:0:
332,261,13752,2,0,P|290:244|215:263,1,107.999996704102,2|2,0:0|0:0,0:0:0:0:
64,352,14337,6,0,L|19:241,1,107.999996704102,2|2,0:0|0:0,0:0:0:0:
38,170,14776,1,2,0:0:0:0:
102,228,14923,1,2,0:0:0:0:
125,40,15215,2,0,P|151:58|233:59,1,107.999996704102,2|2,0:0|0:0,0:0:0:0:
341,17,15801,1,2,0:0:0:0:
360,183,16093,6,0,P|343:145|297:95,1,107.999996704102,2|2,0:0|0:0,0:0:0:0:
224,62,16532,1,2,0:0:0:0:
214,139,16679,1,2,0:0:0:0:
283,291,16971,2,0,P|246:281|174:291,1,107.999996704102,2|2,0:0|0:0,0:0:0:0:
83,373,17557,1,2,0:0:0:0:
43,242,17849,6,0,P|34:180|233:130,1,323.999990112305,2|0,0:0|1:0,0:0:0:0:
464,49,19606,6,0,P|414:37|367:38,1,90,6|0,0:0|0:0,0:0:0:0:
326,218,19898,1,2,0:0:0:0:
287,36,20045,1,8,0:0:0:0:
415,178,20191,2,0,P|426:238|419:282,1,90,2|0,0:0|0:0,0:0:0:0:
190,137,20484,2,0,L|312:118,1,90,10|0,0:0|0:0,0:0:0:0:
336,310,20776,2,0,L|247:323,1,90,2|0,1:2|0:0,0:0:0:0:
55,92,21069,2,0,L|177:73,1,90,2|0,1:2|0:0,0:0:0:0:
85,336,21362,6,0,P|66:295|63:239,1,90,2|0,1:2|0:0,0:0:0:0:
55,92,21654,1,2,0:0:0:0:
169,254,21801,1,8,0:0:0:0:
231,94,21947,2,0,P|182:81|137:78,1,90,2|0,0:0|0:0,0:0:0:0:
237,304,22240,2,0,L|266:207,1,90,10|0,0:0|0:0,0:0:0:0:
461,44,22532,2,0,L|435:130,1,90,2|0,1:2|0:0,0:0:0:0:
316,325,22825,2,0,L|341:238,1,90,2|0,1:2|0:0,0:0:0:0:
296,28,23118,6,0,P|249:13|188:13,1,90,2|0,1:2|0:0,0:0:0:0:
90,216,23410,1,2,0:0:0:0:
141,44,23557,1,10,0:0:0:0:
195,220,23703,2,0,P|203:278|197:313,1,90,2|0,0:0|0:0,0:0:0:0:
31,159,23996,2,0,L|65:71,1,90,10|0,0:0|0:0,0:0:0:0:
253,67,24288,2,0,L|220:150,1,90,2|0,1:2|0:0,0:0:0:0:
57,299,24581,2,0,L|91:211,1,90,2|0,1:2|0:0,0:0:0:0:
266,333,24874,6,0,P|317:358|366:359,1,90,6|0,0:0|0:0,0:0:0:0:
325,86,25167,1,2,0:0:0:0:
487,258,25313,1,8,0:0:0:0:
287,237,25459,2,0,L|190:216,1,90,2|0,0:0|0:0,0:0:0:0:
121,34,25752,2,0,L|208:53,1,90,10|0,0:0|0:0,0:0:0:0:
200,294,26045,2,0,L|103:273,1,90,2|0,1:2|0:0,0:0:0:0:
18,93,26337,2,0,L|105:112,1,90,2|0,1:2|0:0,0:0:0:0:
283,318,26630,6,0,P|323:339|383:348,1,90,6|0,0:0|0:0,0:0:0:0:
480,147,26923,1,2,0:0:0:0:
353,268,27069,1,8,0:0:0:0:
417,91,27215,2,0,P|375:67|296:56,1,90,2|0,0:0|0:0,0:0:0:0:
274,239,27508,2,0,L|312:136,1,90,10|0,0:0|0:0,0:0:0:0:
187,25,27801,2,0,L|155:109,1,90,2|0,1:2|0:0,0:0:0:0:
163,325,28093,2,0,L|201:222,1,90,2|0,1:2|0:0,0:0:0:0:
84,82,28386,6,0,P|34:73|-31:80,1,90,2|0,1:2|0:0,0:0:0:0:
32,324,28679,1,2,0:0:0:0:
95,159,28825,1,10,0:0:0:0:
162,326,28971,2,0,P|230:327|276:314,1,90,2|0,0:0|0:0,0:0:0:0:
403,119,29264,2,0,L|424:219,1,90,10|0,0:0|0:0,0:0:0:0:
190,55,29557,2,0,L|169:155,1,90,2|0,1:2|0:0,0:0:0:0:
460,15,29849,2,0,L|481:115,1,90,2|0,1:2|0:0,0:0:0:0:
423,280,30142,5,2,0:0:0:0:
372,105,30288,1,2,0:0:0:0:
255,323,30435,1,2,0:0:0:0:
290,104,30581,1,10,0:0:0:0:
423,280,30728,2,0,P|375:304|322:311,1,90,2|0,0:0|0:0,0:0:0:0:
136,89,31020,2,0,L|224:61,1,90,10|0,0:0|0:0,0:0:0:0:
440,130,31313,2,0,L|354:157,1,90,2|0,1:2|0:0,0:0:0:0:
39,41,31606,2,0,L|127:13,1,90,2|0,1:2|0:0,0:0:0:0:
276,187,31898,6,0,P|286:237|276:290,1,90,2|0,0:0|0:0,0:0:0:0:
97,293,32191,2,0,L|79:248,1,45,2|0,1:2|0:0,0:0:0:0:
164,339,32337,1,8,0:0:0:0:
215,149,32484,2,0,L|233:104,1,45,2|0,1:2|0:0,0:0:0:0:
148,195,32630,1,8,0:0:0:0:
24,21,32776,6,0,P|85:9|127:14,1,90,2|0,1:2|1:0,0:0:0:0:
320,97,33069,2,0,P|259:109|217:104,1,90,2|0,1:2|1:0,0:0:0:0:
34,100,33362,1,10,0:2:0:0:
96,293,33508,1,8,0:0:0:0:
161,101,33654,5,2,0:0:0:0:
470,57,34532,6,0,P|438:50|350:64,1,107.999996704102,2|0,0:0|0:0,0:0:0:0:
372,226,35118,1,0,0:0:0:0:
247,68,35410,2,0,B|229:158|229:158|243:190|243:190|225:291,1,215.999993408203,2|0,0:0|0:0,0:0:0:0:
95,204,36288,1,0,0:0:0:0:
108,342,36581,1,0,0:0:0:0:
159,148,36874,1,0,0:0:0:0:
32,266,37167,6,0,P|10:229|48:62,1,215.999993408203,2|0,0:0|0:0,0:0:0:0:
169,18,38045,2,0,L|112:40,1,53.9999983520508,8|0,0:1|0:0,0:0:0:0:
121,153,38337,2,0,L|177:178,1,53.9999983520508,2|0,0:0|0:0,0:0:0:0:
203,189,38557,1,0,0:0:0:0:
203,189,38630,2,0,P|235:176|323:200,1,107.999996704102,2|2,0:0|0:0,0:0:0:0:
417,292,39215,1,0,0:0:0:0:
439,161,39508,1,0,0:0:0:0:
295,283,39801,1,2,0:0:0:0:
345,138,40093,2,0,P|356:102|321:30,1,107.999996704102
212,144,40679,6,0,P|177:163|109:162,2,107.999996704102,2|0|0,0:0|0:0|0:0,0:0:0:0:
430,148,41557,2,0,L|446:215,1,53.9999983520508,2|0,0:0|0:0,0:0:0:0:
369,230,41849,2,0,L|353:297,1,53.9999983520508,2|0,0:0|0:0,0:0:0:0:
444,361,42142,2,0,L|431:308,1,53.9999983520508,2|0,0:0|0:0,0:0:0:0:
352,148,42435,6,0,P|303:171|237:166,1,107.999996704102,2|0,0:2|0:0,0:0:0:0:
178,140,42874,1,2,0:0:0:0:
179,355,43313,2,0,P|166:325|34:378,1,215.999993408203,2|0,0:0|0:0,0:0:0:0:
78,211,44191,6,0,P|88:173|79:91,1,107.999996704102,2|0,0:0|0:0,0:0:0:0:
20,18,44776,1,0,0:0:0:0:
16,159,45069,1,8,0:1:0:0:
151,71,45362,2,0,L|203:45,1,53.9999983520508,2|0,0:0|0:0,0:0:0:0:
289,97,45654,2,0,L|341:71,1,53.9999983520508,2|0,0:0|0:0,0:0:0:0:
488,136,45947,6,0,B|494:209|494:209|465:273|465:273|470:352,1,215.999993408203,2|0,0:0|0:0,0:0:0:0:
286,373,46825,1,2,0:0:0:0:
348,204,47118,2,0,P|359:170|283:50,1,188.999994232178
251,43,47703,5,4,1:2:0:0:
251,43,48288,1,0,1:0:0:0:
227,177,48581,2,0,P|197:154|155:140,1,72,2|0,0:0|0:0,0:0:0:0:
91,157,48874,2,0,L|74:233,1,72,2|0,0:0|0:0,0:0:0:0:
95,301,49167,1,2,1:2:0:0:
95,301,49459,6,0,L|81:376,1,72,2|0,0:0|0:0,0:0:0:0:
177,383,49752,2,0,L|190:312,1,72,2|0,0:0|0:0,0:0:0:0:
212,238,50045,2,0,P|252:254|284:255,1,72,2|0,0:0|0:0,0:0:0:0:
420,122,50337,2,0,P|380:106|348:105,1,72,10|0,0:0|0:0,0:0:0:0:
280,141,50630,2,0,L|248:64,1,72,2|0,0:0|0:0,0:0:0:0:
198,22,50923,1,2,1:2:0:0:
198,22,51215,6,0,P|161:37|123:41,1,72,2|0,1:2|0:0,0:0:0:0:
55,22,51508,2,0,L|32:106,1,72,2|0,0:0|0:0,0:0:0:0:
86,154,51801,2,0,L|64:230,1,72,2|0,1:2|0:0,0:0:0:0:
22,353,52093,1,8,0:0:0:0:
22,353,52386,2,0,P|57:338|90:333,1,72,2|0,0:0|0:0,0:0:0:0:
168,351,52679,2,0,P|205:364|245:364,1,72,2|0,0:0|0:0,0:0:0:0:
341,265,52971,6,0,L|357:184,1,72,2|0,0:0|0:0,0:0:0:0:
435,166,53264,2,0,L|419:85,1,72,2|0,0:0|0:0,0:0:0:0:
367,38,53557,2,0,P|328:53|291:53,1,72,2|0,1:2|0:0,0:0:0:0:
130,28,53849,2,0,P|169:13|206:13,1,72,10|0,1:2|0:0,0:0:0:0:
235,98,54142,2,0,L|265:177,1,72,2|0,0:0|0:0,0:0:0:0:
293,255,54435,2,0,P|252:248|176:258,1,108,2|0,0:0|0:0,0:0:0:0:
149,273,54728,5,0,1:0:0:0:
149,273,55020,2,0,L|121:197,1,72,2|0,0:0|0:0,0:0:0:0:
39,202,55313,2,0,L|67:126,1,72,2|0,0:0|0:0,0:0:0:0:
102,9,55606,1,8,0:0:0:0:
102,9,55898,2,0,L|168:51,1,72,2|0,0:0|0:0,0:0:0:0:
211,121,56191,2,0,L|277:79,1,72,2|0,0:0|0:0,0:0:0:0:
331,34,56484,1,0,1:0:0:0:
331,34,56776,2,0,L|379:94,1,72,2|0,0:0|0:0,0:0:0:0:
463,112,57069,2,0,L|415:172,1,72,2|0,0:0|0:0,0:0:0:0:
326,272,57362,1,8,0:0:0:0:
326,272,57654,2,0,L|260:209,1,72
226,170,57947,2,0,L|160:233,1,72
111,284,58240,6,0,P|72:293|29:291,1,72,2|0,0:0|0:0,0:0:0:0:
89,207,58532,2,0,P|51:193|16:168,1,72,2|8,0:0|0:0,0:0:0:0:
114,130,58825,2,0,P|88:99|70:60,1,72,2|0,0:0|0:0,0:0:0:0:
217,0,59118,2,0,P|242:30|260:69,1,72,10|0,0:0|0:0,0:0:0:0:
337,35,59410,2,0,P|343:74|339:117,1,72,2|0,0:0|0:0,0:0:0:0:
431,105,59703,2,0,P|417:142|392:177,1,72,2|0,0:0|0:0,0:0:0:0:
298,264,59996,6,0,B|154:251|225:310|74:295,1,216,2|8,0:0|0:0,0:0:0:0:
48,229,60581,2,0,P|41:189|47:150,1,72,2|0,0:0|0:0,0:0:0:0:
164,60,60874,2,0,P|166:101|100:204,2,144,10|2|2,0:0|0:0|0:0,0:0:0:0:
242,154,61752,6,0,B|327:208|404:129|404:129|453:235,1,288,6|0,0:0|0:0,0:0:0:0:
311,98,62630,2,0,P|282:73|176:224,1,288,10|0,0:0|0:0,0:0:0:0:
301,298,63508,2,0,B|125:273|196:371|-5:339,1,288,2|0,0:0|0:0,0:0:0:0:
28,157,64386,2,0,L|42:82,1,72,10|0,0:0|0:0,0:0:0:0:
127,91,64679,2,0,L|176:33,1,72,2|0,0:0|0:0,0:0:0:0:
238,80,64971,2,0,L|309:54,1,72,2|0,0:0|0:0,0:0:0:0:
368,111,65264,6,0,P|394:158|332:295,1,216,6|0,0:0|0:0,0:0:0:0:
253,286,65849,2,0,L|208:212,1,72,2|0,0:0|0:0,0:0:0:0:
127,91,66142,1,8,0:0:0:0:
127,91,66728,2,0,L|112:178,1,72,2|0,0:0|0:0,0:0:0:0:
101,256,67020,6,0,P|140:243|176:242,1,72,2|0,0:0|0:0,0:0:0:0:
215,186,67313,2,0,P|255:194|286:211,1,72,2|0,0:0|0:0,0:0:0:0:
328,147,67606,2,0,P|360:176|377:204,1,72,2|0,0:0|0:0,0:0:0:0:
512,72,67898,2,0,P|471:85|361:67,1,144,10|0,0:0|0:0,0:0:0:0:
124,38,68484,2,0,P|170:35|198:37,1,72,2|0,0:0|0:0,0:0:0:0:
255,120,68776,6,0,L|283:190,1,72,2|0,0:0|0:0,0:0:0:0:
210,213,69069,2,0,L|183:279,1,72,2|0,0:0|0:0,0:0:0:0:
155,353,69362,1,0,1:0:0:0:
155,353,69654,6,0,B|255:353|255:353|316:331|316:331|443:332,1,288,10|0,0:0|0:0,0:0:0:0:
444,144,70532,2,0,B|272:159|352:66|163:84,1,288,2|2,0:0|0:0,0:0:0:0:
156,333,71410,2,0,L|146:254,1,72,10|0,0:0|0:0,0:0:0:0:
225,249,71703,2,0,L|235:170,1,72,2|0,0:0|0:0,0:0:0:0:
311,336,71996,2,0,L|301:257,1,72,2|0,0:0|0:0,0:0:0:0:
382,167,72288,6,0,L|372:238,1,72,2|0,0:0|0:0,0:0:0:0:
322,115,72581,2,0,L|348:27,1,72,2|0,0:0|0:0,0:0:0:0:
403,8,72874,1,2,1:2:0:0:
403,8,73020,1,2,1:2:0:0:
271,34,73167,2,0,L|183:57,1,72,10|0,0:0|0:0,0:0:0:0:
140,116,73459,2,0,L|228:139,1,72,2|0,0:0|0:0,0:0:0:0:
247,205,73752,2,0,L|159:228,1,72,2|0,0:0|0:0,0:0:0:0:
63,244,74045,6,0,L|77:314,1,72,2|0,0:0|0:0,0:0:0:0:
149,303,74337,2,0,L|196:357,1,72,2|0,0:0|0:0,0:0:0:0:
277,334,74630,2,0,P|310:320|365:320,1,72,0|0,0:0|1:0,0:0:0:0:
389,328,74849,1,0,1:0:0:0:
389,328,74923,5,10,1:2:0:0:
452,280,75069,1,0,1:0:0:0:
397,222,75215,1,0,1:0:0:0:
454,167,75362,1,0,1:0:0:0:
387,124,75508,2,0,L|316:84,1,72,2|0,1:2|1:0,0:0:0:0:
205,38,75801,5,2,1:2:0:0:
205,38,75947,1,0,1:0:0:0:
244,106,76093,1,0,1:0:0:0:
244,106,76240,1,2,1:2:0:0:
191,164,76386,1,0,1:0:0:0:
191,164,76532,1,0,1:0:0:0:
268,234,76679,2,0,L|337:298,1,90,10|0,0:0|0:0,0:0:0:0:
202,284,76971,2,0,L|252:363,1,90,0|0,1:0|0:0,0:0:0:0:
125,327,77264,2,0,P|76:340|27:336,1,90,0|0,1:0|0:0,0:0:0:0:
24,153,77557,5,2,1:2:0:0:
24,153,77703,1,0,1:0:0:0:
66,220,77849,1,0,1:0:0:0:
66,220,77996,1,2,1:2:0:0:
122,166,78142,1,0,1:0:0:0:
122,166,78288,1,0,1:0:0:0:
218,269,78435,1,10,1:2:0:0:
177,111,78581,1,8,1:2:0:0:
259,127,78728,2,0,P|307:136|364:138,1,90,0|0,1:0|0:0,0:0:0:0:
481,92,79020,2,0,P|433:83|376:81,1,90,0|0,1:0|0:0,0:0:0:0:
337,215,79313,6,0,L|316:306,1,90,2|0,1:2|1:0,0:0:0:0:
197,356,79606,2,0,L|217:268,1,90,2|0,1:2|1:0,0:0:0:0:
118,214,79898,2,0,L|97:305,1,90,2|0,1:2|1:0,0:0:0:0:
41,126,80191,6,0,L|133:143,1,90,10|0,0:0|0:0,0:0:0:0:
273,103,80484,2,0,L|184:86,1,90,2|0,1:2|1:0,0:0:0:0:
53,8,80776,2,0,L|141:24,1,90,2|0,1:2|1:0,0:0:0:0:
358,81,81069,6,0,L|338:178,1,90,6|0,0:0|1:0,0:0:0:0:
382,304,81362,2,0,L|400:215,1,90,2|0,1:2|1:0,0:0:0:0:
461,160,81654,1,2,1:2:0:0:
461,160,81801,1,0,1:0:0:0:
320,246,81947,1,0,1:2:0:0:
275,91,82093,1,0,1:2:0:0:
221,158,82240,2,0,P|175:190|134:207,1,90,2|0,1:2|0:0,0:0:0:0:
0,155,82532,2,0,P|46:123|87:106,1,90,2|0,1:2|0:0,0:0:0:0:
179,271,82825,5,14,1:2:0:0:
243,42,83118,1,0,1:0:0:0:
304,272,83410,1,0,1:0:0:0:
76,109,83703,1,14,1:2:0:0:
383,111,83996,1,0,1:0:0:0:
238,331,84288,1,0,1:0:0:0:
244,168,84581,5,14,1:2:0:0:
425,48,86518,6,0,L|434:160,1,107.999996704102,6|0,0:0|0:0,0:0:0:0:
298,285,86842,1,2,1:2:0:0:
345,87,87004,1,8,0:0:0:0:
386,288,87166,2,0,P|356:230|303:196,1,107.999996704102,2|0,0:0|0:0,0:0:0:0:
123,304,87490,2,0,L|75:191,1,107.999996704102,10|0,0:0|0:0,0:0:0:0:
118,6,87815,2,0,L|160:105,1,107.999996704102,2|0,0:0|0:0,0:0:0:0:
230,213,88139,1,2,1:2:0:0:
43,84,88301,1,0,1:0:0:0:
226,24,88463,6,0,P|286:11|344:9,1,107.999996704102,2|0,0:0|0:0,0:0:0:0:
499,91,88788,1,2,1:2:0:0:
336,197,88950,2,0,P|276:210|218:212,1,107.999996704102,8|0,0:0|0:0,0:0:0:0:
86,171,89274,1,2,0:0:0:0:
105,332,89436,2,0,L|147:218,1,107.999996704102,10|0,0:0|0:0,0:0:0:0:
228,37,89761,2,0,L|270:151,1,107.999996704102,2|0,0:0|0:0,0:0:0:0:
388,317,90085,2,0,P|337:294|270:293,1,107.999996704102,2|0,0:0|0:0,0:0:0:0:
42,264,90409,6,0,P|14:193|8:153,1,107.999996704102,2|0,0:0|0:0,0:0:0:0:
118,71,90734,1,2,1:2:0:0:
165,280,90896,1,8,0:0:0:0:
306,206,91058,2,0,P|356:185|415:188,1,107.999996704102,2|0,0:0|0:0,0:0:0:0:
512,365,91382,2,0,P|462:386|403:383,1,107.999996704102,10|0,0:0|0:0,0:0:0:0:
267,299,91707,2,0,P|217:278|158:281,1,107.999996704102,2|0,0:0|0:0,0:0:0:0:
14,370,92031,2,0,L|-10:257,1,107.999996704102,2|0,0:0|0:0,0:0:0:0:
63,49,92355,6,0,L|188:22,1,107.999996704102,2|0,0:0|0:0,0:0:0:0:
326,89,92680,1,2,1:2:0:0:
105,171,92842,1,8,0:0:0:0:
276,257,93004,2,0,P|332:278|400:277,1,107.999996704102,2|0,0:0|0:0,0:0:0:0:
470,47,93328,6,0,L|494:170,1,107.999996704102,10|0,0:0|0:0,0:0:0:0:
214,143,93653,2,0,L|190:266,1,107.999996704102,2|0,0:0|0:0,0:0:0:0:
438,207,93977,2,0,L|462:330,1,107.999996704102,2|0,0:0|0:0,0:0:0:0:
287,104,94301,2,0,P|233:68|177:68,1,107.999996704102,2|0,0:0|0:0,0:0:0:0:
150,306,94626,1,2,1:2:0:0:
360,163,94788,2,0,P|368:107|359:51,1,107.999996704102,8|0,0:0|0:0,0:0:0:0:
299,221,95112,1,0,1:0:0:0:
81,93,95274,6,0,L|61:206,1,107.999996704102,10|0,0:0|0:0,0:0:0:0:
289,167,95599,2,0,L|309:280,1,107.999996704102,2|0,0:0|0:0,0:0:0:0:
126,242,95923,2,0,L|106:355,1,107.999996704102,2|0,0:0|0:0,0:0:0:0:
218,121,96247,2,0,P|276:90|333:88,1,107.999996704102
435,222,96572,1,2,0:0:0:0:
217,277,96734,2,0,L|162:166,1,107.999996704102,8|0,0:0|0:0,0:0:0:0:
108,54,97058,5,2,0:0:0:0:
78,240,97220,1,10,0:0:0:0:
267,180,97382,1,2,0:0:0:0:
41,131,97545,1,2,0:0:0:0:
204,89,97707,2,0,P|262:81|376:206,1,215.999993408203,2|0,0:0|0:0,0:0:0:0:
249,364,98193,6,0,P|247:310|256:253,1,107.999996704102,2|0,0:0|0:0,0:0:0:0:
313,97,98517,1,2,0:0:0:0:
336,315,98680,1,8,0:0:0:0:
180,218,98842,2,0,L|83:161,1,107.999996704102,2|0,0:0|0:0,0:0:0:0:
221,57,99166,2,0,L|318:0,1,107.999996704102,10|0,0:0|0:0,0:0:0:0:
372,171,99490,1,2,0:0:0:0:
152,104,99653,1,8,0:0:0:0:
101,262,99815,2,0,P|101:323|110:368,1,107.999996704102,2|0,0:0|0:0,0:0:0:0:
375,254,100139,6,0,B|249:239|295:326|162:313,1,215.999993408203,6|0,0:0|0:0,0:0:0:0:
15,244,100626,1,8,1:2:0:0:
171,104,100788,1,2,0:0:0:0:
98,272,100950,1,0,1:0:0:0:
98,272,101031,1,0,1:0:0:0:
98,272,101112,2,0,L|142:169,1,107.999996704102,2|0,1:2|0:0,0:0:0:0:
206,33,101436,1,2,1:2:0:0:
277,171,101599,1,2,0:0:0:0:
120,78,101761,1,2,1:2:0:0:
298,75,101923,1,2,0:0:0:0:
197,237,102085,5,2,0:0:0:0:
356,235,102247,1,2,0:0:0:0:
274,358,102409,1,2,0:0:0:0:
277,171,102572,1,10,0:0:0:0:
181,339,102734,1,2,0:0:0:0:
366,331,102896,1,2,0:0:0:0:
277,171,103058,6,0,P|263:104|272:69,1,90,14|0,0:0|0:0,0:0:0:0:
428,16,103382,2,0,P|442:83|433:118,1,90,2|0,0:0|0:0,0:0:0:0:
331,240,103707,2,0,P|289:253|239:246,1,90,2|0,1:2|0:0,0:0:0:0:
105,193,104031,2,0,P|63:180|13:187,1,90,2|0,1:2|0:0,0:0:0:0:
41,308,104355,1,2,0:0:0:0:
175,126,104517,1,8,0:0:0:0:
251,332,104680,2,0,P|295:337|338:324,1,90,2|0,1:2|0:0,0:0:0:0:
460,158,105004,2,0,L|486:282,1,90,10|0,0:0|0:0,0:0:0:0:
271,42,105328,2,0,L|245:166,1,90,2|2,0:2|0:0,0:0:0:0:
283,201,105572,2,0,L|329:190,1,45,4|0,0:0|1:0,0:0:0:0:
30,102,105977,6,0,L|121:82,1,90,2|0,0:0|0:0,0:0:0:0:
256,277,106301,2,0,L|168:296,1,90,2|8,0:0|0:0,0:0:0:0:
31,190,106626,1,0,1:0:0:0:
126,364,106788,1,2,0:0:0:0:
174,183,106950,2,0,L|199:78,1,90,8|0,0:0|0:0,0:0:0:0:
408,286,107274,2,0,L|383:181,1,90,2|0,0:0|0:0,0:0:0:0:
235,364,107599,2,0,L|260:259,1,90,2|0,0:0|0:0,0:0:0:0:
305,64,107923,6,0,P|365:90|475:64,1,180,2|0,0:0|0:0,0:0:0:0:
474,253,108409,1,8,0:0:0:0:
274,172,108572,2,0,P|204:147|173:148,1,90,2|0,0:0|0:0,0:0:0:0:
73,305,108896,1,10,1:2:0:0:
197,75,109058,1,8,1:2:0:0:
259,313,109220,1,0,1:0:0:0:
131,195,109382,1,0,1:0:0:0:
134,358,109545,1,2,1:2:0:0:
216,231,109707,1,0,1:0:0:0:
49,228,109869,6,0,P|44:164|117:65,1,180,4|0,0:0|0:0,0:0:0:0:
373,69,110517,1,2,0:0:0:0:
195,93,110842,2,0,P|139:161|137:249,1,180,2|0,0:0|0:0,0:0:0:0:
325,369,111490,1,2,0:0:0:0:
303,168,111815,6,0,L|286:79,1,90,2|0,1:2|1:0,0:0:0:0:
211,4,112139,2,0,L|194:92,1,90,2|0,1:2|1:0,0:0:0:0:
129,208,112463,2,0,L|112:119,1,90,2|0,1:2|1:0,0:0:0:0:
36,354,112788,2,0,L|52:265,1,90,10|0,1:2|1:0,0:0:0:0:
129,208,113112,2,0,L|145:296,1,90,2|0,1:2|1:0,0:0:0:0:
203,353,113436,1,2,1:2:0:0:
206,357,113599,1,2,1:2:0:0:
299,215,113761,6,0,L|314:124,1,90,2|0,1:2|0:0,0:0:0:0:
213,215,114085,2,0,L|198:124,1,90,2|0,1:2|0:0,0:0:0:0:
351,195,114409,2,0,L|366:104,1,90,0|0,1:0|0:0,0:0:0:0:
161,195,114734,2,0,L|146:104,1,90,0|0,1:0|0:0,0:0:0:0:
402,176,115058,2,0,L|417:85,1,90,0|0,1:0|0:0,0:0:0:0:
110,176,115382,2,0,L|95:85,1,90,0|0,1:0|0:0,0:0:0:0:
254,349,115707,5,4,0:0:0:0:
256,192,115788,12,0,117328,0:0:0:0:
12,0,117666,5,2,0:0:0:0:
90,126,117958,2,0,L|81:186,2,53.9999983520508,2|2|2,0:0|0:0|0:0,0:0:0:0:
139,61,118544,1,2,0:0:0:0:
189,202,118836,1,2,0:0:0:0:
266,64,119129,1,2,0:0:0:0:
137,268,119422,5,2,0:0:0:0:
279,337,119714,2,0,L|337:360,2,53.9999983520508,2|2|2,0:0|0:0|0:0,0:0:0:0:
235,229,120300,1,2,0:0:0:0:
412,163,120592,1,2,0:0:0:0:
226,105,120885,1,2,0:0:0:0:
489,181,121178,6,0,P|506:231|488:304,1,107.999996704102,2|2,0:0|0:0,0:0:0:0:
432,351,121617,1,2,0:0:0:0:
352,313,121763,1,2,0:0:0:0:
427,129,122056,1,2,0:0:0:0:
285,262,122348,1,2,0:0:0:0:
305,72,122641,1,2,0:0:0:0:
136,158,122934,6,0,P|104:188|82:252,1,107.999996704102,2|2,0:0|0:0,0:0:0:0:
103,324,123373,1,2,0:0:0:0:
177,344,123519,1,2,0:0:0:0:
303,246,123812,2,0,P|332:198|339:125,2,107.999996704102,2|2|2,0:0|0:0|0:0,0:0:0:0:
189,92,124690,6,0,P|142:69|66:68,1,107.999996704102,2|2,0:0|0:0,0:0:0:0:
26,122,125129,1,2,0:0:0:0:
81,193,125275,2,0,P|95:231|84:298,2,107.999996704102,2|2|2,0:0|0:0|0:0,0:0:0:0:
26,122,126153,1,2,0:0:0:0:
212,69,126446,5,2,0:0:0:0:
204,240,126739,1,2,0:0:0:0:
169,169,126885,1,2,0:0:0:0:
351,301,127178,1,2,0:0:0:0:
386,230,127324,1,2,0:0:0:0:
163,343,127617,1,2,0:0:0:0:
128,272,127763,1,2,0:0:0:0:
48,243,127909,1,2,0:0:0:0:
13,172,128055,1,2,0:0:0:0:
62,95,128202,6,0,P|100:65|114:58,1,53.9999983520508,2|2,0:0|0:0,0:0:0:0:
230,61,128495,2,0,P|192:91|178:98,1,53.9999983520508,2|2,0:0|0:0,0:0:0:0:
127,149,128787,2,0,L|166:192,1,53.9999983520508,2|2,0:0|0:0,0:0:0:0:
236,157,129080,2,0,L|275:200,1,53.9999983520508,2|2,0:0|0:0,0:0:0:0:
336,246,129373,2,0,P|369:232|404:228,1,53.9999983520508,2|2,0:0|0:0,0:0:0:0:
491,278,129665,2,0,P|458:292|423:296,1,53.9999983520508,2|2,0:0|0:0,0:0:0:0:
316,324,129958,5,2,0:0:0:0:
443,369,130105,1,2,0:0:0:0:
502,108,130397,5,2,0:0:0:0:
375,153,130544,1,2,0:0:0:0:
208,102,130836,6,0,P|170:95|90:102,1,107.999996704102,2|2,0:0|0:0,0:0:0:0:
24,243,131422,1,2,0:0:0:0:
247,323,131714,6,0,P|265:282|262:213,1,107.999996704102,0|0,1:0|1:0,0:0:0:0:
201,25,132153,2,8,L|264:14,1,53.9999983520508,8|0,0:0|1:0,0:0:0:0:
465,118,132592,2,8,L|411:127,1,53.9999983520508,8|0,0:0|0:0,0:0:0:0:
431,226,132885,1,2,0:2:0:0:
337,146,133031,2,8,L|283:155,1,53.9999983520508,0|0,1:0|0:0,0:0:0:0:
305,250,133324,1,2,0:0:0:0:
206,163,133470,5,2,0:0:0:0:
148,262,133617,2,0,L|115:324,1,53.9999983520508,2|0,0:0|1:0,0:0:0:0:
255,318,133909,1,10,0:0:0:0:
132,187,134056,2,0,P|112:148|108:120,1,53.9999983520508,2|0,0:0|0:0,0:0:0:0:
221,42,134348,2,0,P|241:81|245:109,1,53.9999983520508,10|0,0:0|0:0,0:0:0:0:
265,192,134641,2,0,P|297:178|329:175,1,53.9999983520508,2|0,0:0|0:0,0:0:0:0:
414,195,134934,1,2,0:0:0:0:
385,100,135080,1,2,0:0:0:0:
350,256,135226,6,0,L|333:323,1,53.9999983520508,2|0,1:2|0:0,0:0:0:0:
217,370,135519,2,0,L|203:317,1,53.9999983520508,2|8,1:2|0:0,0:0:0:0:
137,30,136105,1,8,0:0:0:0:
59,163,136397,2,0,L|75:94,1,53.9999983520508,2|0,1:2|0:0,0:0:0:0:
208,113,136690,2,0,L|221:166,1,53.9999983520508,2|0,1:2|0:0,0:0:0:0:
251,259,136983,5,0,1:0:0:0:
407,153,137275,2,0,L|358:175,1,53.9999983520508,2|8,0:0|0:0,0:0:0:0:
382,263,137568,2,0,L|328:257,1,53.9999983520508,2|0,0:0|0:0,0:0:0:0:
282,337,137861,2,0,L|238:305,1,53.9999983520508,10|0,0:0|0:0,0:0:0:0:
151,334,138153,2,0,L|129:285,1,53.9999983520508,2|0,0:0|0:0,0:0:0:0:
39,263,138446,2,0,L|44:209,1,53.9999983520508,2|0,0:0|0:0,0:0:0:0:
55,119,138739,6,0,P|99:140|176:124,1,107.999996704102,0|2,1:0|0:0,0:0:0:0:
281,82,139178,1,0,1:0:0:0:
179,43,139324,1,8,0:0:0:0:
393,126,139617,6,0,L|372:194,1,53.9999983520508,10|0,0:0|0:0,0:0:0:0:
440,224,139909,2,0,L|419:292,1,53.9999983520508,2|0,0:0|0:0,0:0:0:0:
352,272,140202,2,0,L|331:340,1,53.9999983520508,2|0,0:0|0:0,0:0:0:0:
263,346,140495,1,0,1:0:0:0:
110,123,140787,2,0,P|141:127|174:142,1,53.9999983520508,2|8,0:0|0:0,0:0:0:0:
233,168,141080,2,0,L|265:116,1,53.9999983520508,2|0,0:0|0:0,0:0:0:0:
308,9,141373,2,0,P|339:16|373:14,1,53.9999983520508,10|0,0:0|0:0,0:0:0:0:
447,1,141665,2,0,L|463:59,1,53.9999983520508,2|0,0:0|0:0,0:0:0:0:
385,97,141958,2,0,L|369:155,1,53.9999983520508,2|0,0:0|0:0,0:0:0:0:
340,234,142251,6,0,P|301:248|281:249,1,53.9999983520508,2|0,0:0|0:0,0:0:0:0:
216,210,142544,2,0,P|177:196|157:195,1,53.9999983520508,2|0,0:0|0:0,0:0:0:0:
92,233,142836,2,0,L|74:174,1,53.9999983520508
89,24,143129,2,0,P|117:38|203:46,2,107.999996704102,10|0|0,0:0|1:0|1:0,0:0:0:0:
276,47,144007,5,0,0:0:0:0:
257,148,144202,2,0,L|247:197,1,35.9999989013672
425,115,144446,1,8,0:0:0:0:
141,80,144739,1,0,1:0:0:0:
141,80,144812,1,0,1:0:0:0:
141,80,144885,1,8,0:0:0:0:
188,220,145031,1,0,1:0:0:0:
70,155,145178,1,0,1:0:0:0:
64,226,145324,1,0,1:0:0:0:
64,285,145470,1,0,1:0:0:0:
89,322,145617,1,0,1:0:0:0:
104,337,145763,6,0,P|140:360|238:364,1,144,6|0,0:0|0:0,0:0:0:0:
364,305,146202,1,10,0:0:0:0:
305,228,146348,2,0,P|282:182|277:148,1,72,2|0,0:0|0:0,0:0:0:0:
398,4,146641,2,0,P|421:50|426:84,1,72,10|0,0:0|0:0,0:0:0:0:
425,158,146934,2,0,P|373:143|339:145,1,72,2|0,0:0|0:0,0:0:0:0:
278,162,147226,2,0,P|226:177|192:175,1,72,2|0,0:0|0:0,0:0:0:0:
64,129,147519,6,0,B|46:182|46:182|57:225|57:225|39:275,1,144,2|0,0:0|1:0,0:0:0:0:
3,381,147958,1,8,0:0:0:0:
95,351,148105,2,0,P|130:343|167:345,1,72,2|0,0:0|0:0,0:0:0:0:
303,372,148397,2,0,L|323:280,1,72,10|0,0:0|0:0,0:0:0:0:
178,227,148690,2,0,L|155:146,1,72,2|0,0:0|0:0,0:0:0:0:
312,97,148983,2,0,L|332:22,1,72,2|0,0:0|0:0,0:0:0:0:
478,92,149275,6,0,P|497:133|485:235,1,144,2|0,0:0|0:0,0:0:0:0:
433,342,149714,1,8,0:0:0:0:
375,279,149861,2,0,P|352:248|323:226,1,72,2|0,0:0|0:0,0:0:0:0:
132,205,150153,2,0,L|112:291,1,72,10|0,0:0|0:0,0:0:0:0:
345,88,150446,2,0,L|365:174,1,72,2|0,0:0|0:0,0:0:0:0:
115,4,150739,2,0,L|95:90,1,72,2|0,0:0|0:0,0:0:0:0:
329,15,151031,6,0,P|379:13|417:20,1,72,2|0,0:0|0:0,0:0:0:0:
503,193,151324,2,0,P|453:195|415:188,1,72,2|8,0:0|0:0,0:0:0:0:
282,149,151617,2,0,L|272:230,1,72,2|0,0:0|0:0,0:0:0:0:
348,365,151909,2,0,L|356:293,1,72,10|0,0:0|0:0,0:0:0:0:
363,146,152202,2,0,P|343:95|325:75,1,72,2|0,0:0|0:0,0:0:0:0:
175,86,152495,2,0,P|154:115|144:149,1,72,2|0,0:0|0:0,0:0:0:0:
167,315,152787,6,0,P|131:291|26:304,1,144,6|0,0:0|0:0,0:0:0:0:
13,178,153226,2,0,L|-1:103,1,72,8|0,0:0|0:0,0:0:0:0:
34,19,153519,1,0,0:0:0:0:
129,106,153665,2,0,P|181:129|282:107,2,144,2|0|2,0:0|0:0|0:0,0:0:0:0:
330,56,154544,2,0,P|346:108|297:197,1,144,2|0,0:0|0:0,0:0:0:0:
188,242,154983,2,0,L|208:328,2,72,8|0|0,0:0|0:0|0:0,0:0:0:0:
337,255,155422,6,0,P|373:262|475:202,2,144,2|0|2,0:0|0:0|0:0,0:0:0:0:
128,154,156300,2,0,L|104:228,1,72,2|0,0:0|0:0,0:0:0:0:
27,54,156592,2,0,L|51:128,1,72,2|8,0:0|0:0,0:0:0:0:
182,14,156885,2,0,L|158:88,1,72
85,298,157178,6,0,P|126:318|166:321,1,72,10|0,0:0|0:0,0:0:0:0:
249,274,157470,2,0,P|290:254|330:251,1,72,2|0,0:0|0:0,0:0:0:0:
431,317,157763,2,0,L|465:231,1,72,2|0,0:0|0:0,0:0:0:0:
483,81,158056,6,0,P|450:98|361:88,1,108,6|0,0:0|0:0,0:0:0:0:
314,58,158348,1,8,0:0:0:0:
383,213,158495,1,8,0:0:0:0:
228,204,158641,1,8,0:0:0:0:
380,96,158787,1,8,0:0:0:0:
271,273,158934,6,0,P|236:295|183:299,1,72,10|0,0:0|0:0,0:0:0:0:
169,152,159226,2,0,P|204:130|257:126,1,72,2|0,0:0|0:0,0:0:0:0:
343,280,159519,2,0,P|393:290|427:285,1,72,2|0,0:0|0:0,0:0:0:0:
452,124,159812,1,0,0:0:0:0:
486,273,159958,1,0,0:0:0:0:
332,197,160105,1,0,0:0:0:0:
512,191,160251,1,0,0:0:0:0:
360,106,160397,1,0,0:0:0:0:
386,293,160544,1,0,0:0:0:0:
475,40,160690,6,0,B|294:46|417:195|214:194,1,323.999990112305,6|0,0:0|0:0,0:0:0:0:
83,60,165080,6,0,P|66:124|70:178,1,107.999996704102,6|0,0:0|0:0,0:0:0:0:
174,332,165373,1,2,0:0:0:0:
228,77,165519,1,8,0:0:0:0:
94,260,165665,2,0,P|74:310|77:374,1,107.999996704102,2|0,0:0|0:0,0:0:0:0:
363,315,165958,2,0,L|276:246,1,107.999996704102,10|0,0:0|0:0,0:0:0:0:
279,21,166251,2,0,L|363:88,1,107.999996704102,2|0,0:0|0:0,0:0:0:0:
493,184,166544,1,2,1:2:0:0:
200,248,166690,1,0,1:0:0:0:
467,378,166836,6,0,L|486:267,1,107.999996704102,2|0,0:0|0:0,0:0:0:0:
445,41,167129,1,2,0:0:0:0:
280,226,167275,1,8,0:0:0:0:
83,100,167422,2,0,P|62:185|64:213,1,107.999996704102,2|0,0:0|0:0,0:0:0:0:
342,331,167714,2,0,L|364:222,1,107.999996704102,10|0,0:0|0:0,0:0:0:0:
180,0,168007,2,0,L|158:105,1,107.999996704102,2|0,0:0|0:0,0:0:0:0:
107,309,168300,1,2,1:2:0:0:
313,108,168446,1,0,1:0:0:0:
451,313,168592,6,0,P|466:243|457:179,1,107.999996704102,2|0,0:0|0:0,0:0:0:0:
350,37,168885,1,2,0:0:0:0:
277,306,169031,1,8,0:0:0:0:
176,79,169178,2,0,P|227:52|289:39,1,107.999996704102,2|0,0:0|0:0,0:0:0:0:
364,247,169470,1,2,0:0:0:0:
442,39,169617,1,2,0:0:0:0:
204,151,169763,1,2,0:0:0:0:
495,161,169909,1,2,0:0:0:0:
275,40,170056,1,2,0:0:0:0:
324,321,170202,1,2,0:0:0:0:
406,112,170348,6,0,L|297:111,1,107.999996704102,2|0,0:0|0:0,0:0:0:0:
33,224,170641,2,0,L|140:224,1,107.999996704102,2|8,0:0|0:0,0:0:0:0:
322,230,170934,1,2,0:0:0:0:
130,111,171080,1,0,0:0:0:0:
206,350,171226,6,0,L|229:231,1,107.999996704102,2|0,0:0|0:0,0:0:0:0:
478,229,171519,2,0,L|455:110,1,107.999996704102,2|0,0:0|0:0,0:0:0:0:
201,138,171812,2,0,L|224:19,1,107.999996704102,2|0,0:0|0:0,0:0:0:0:
405,263,172105,6,0,P|389:322|361:372,1,107.999996704102,2|0,0:0|0:0,0:0:0:0:
294,144,172397,1,2,0:0:0:0:
115,253,172544,1,8,0:0:0:0:
295,329,172690,2,0,P|304:268|300:203,1,107.999996704102,2|0,0:0|0:0,0:0:0:0:
129,56,172983,6,0,L|12:44,1,107.999996704102,10|0,0:0|0:0,0:0:0:0:
222,241,173275,2,0,L|105:253,1,107.999996704102,2|0,0:0|0:0,0:0:0:0:
316,74,173568,2,0,L|199:62,1,107.999996704102,2|0,0:0|0:0,0:0:0:0:
45,214,173861,6,0,P|39:269|59:325,1,107.999996704102,2|0,0:0|0:0,0:0:0:0:
284,300,174153,1,2,0:0:0:0:
114,143,174300,1,8,0:0:0:0:
316,74,174446,6,0,P|395:64|446:81,1,107.999996704102,2|0,0:0|0:0,0:0:0:0:
427,312,174739,2,0,L|408:168,1,107.999996704102,10|0,0:0|0:0,0:0:0:0:
99,250,175031,2,0,L|118:106,1,107.999996704102,2|0,0:0|0:0,0:0:0:0:
330,181,175324,2,0,L|311:37,1,107.999996704102,2|0,0:0|0:0,0:0:0:0:
177,293,175617,6,0,P|125:321|57:327,1,107.999996704102,2|0,0:0|0:0,0:0:0:0:
46,94,175909,1,2,0:0:0:0:
252,241,176056,1,8,0:0:0:0:
228,19,176202,2,0,L|175:130,1,107.999996704102,2|0,0:0|0:0,0:0:0:0:
248,321,176495,2,0,P|306:346|388:342,1,107.999996704102,8|0,0:0|0:0,0:0:0:0:
459,247,176787,1,2,0:0:0:0:
236,165,176934,1,8,0:0:0:0:
132,320,177080,2,0,P|68:340|3:322,1,107.999996704102,2|0,0:0|0:0,0:0:0:0:
88,59,177373,6,2,P|115:127|64:266,1,215.999993408203,2|0,0:0|0:0,0:0:0:0:
292,255,177812,1,8,0:0:0:0:
205,86,177958,2,0,L|326:45,1,107.999996704102,2|0,0:0|1:0,0:0:0:0:
376,73,178178,1,0,1:0:0:0:
376,73,178251,1,2,1:2:0:0:
220,183,178397,1,0,1:0:0:0:
390,291,178544,1,2,1:2:0:0:
305,137,178690,1,0,1:0:0:0:
292,255,178836,1,2,1:2:0:0:
394,188,178983,1,0,1:0:0:0:
220,98,179129,6,0,P|161:81|94:81,1,107.999996704102,6|0,0:0|0:0,0:0:0:0:
27,314,179422,2,0,P|86:331|153:331,1,107.999996704102,2|8,0:0|0:0,0:0:0:0:
295,255,179714,1,0,1:0:0:0:
489,12,180007,6,0,L|474:118,1,107.999996704102,2|0,0:0|0:0,0:0:0:0:
169,128,180300,2,0,L|183:234,1,107.999996704102,2|0,0:0|0:0,0:0:0:0:
422,200,180592,2,0,L|407:306,1,107.999996704102,2|0,0:0|0:0,0:0:0:0:
243,96,180885,6,0,P|199:55|99:168,1,215.999993408203,6|0,0:0|0:0,0:0:0:0:
162,352,181324,1,8,0:0:0:0:
289,162,181470,2,0,L|349:273,1,107.999996704102,2|0,0:0|0:0,0:0:0:0:
88,286,181763,2,0,L|37:191,1,107.999996704102,10|0,0:0|0:0,0:0:0:0:
191,0,182056,2,0,L|251:111,1,107.999996704102,2|0,0:0|0:0,0:0:0:0:
383,319,182348,2,0,P|441:300|497:302,1,107.999996704102,2|0,0:0|0:0,0:0:0:0:
494,27,182641,6,0,P|494:104|385:184,1,215.999993408203,6|0,0:0|0:0,0:0:0:0:
168,115,183080,1,0,0:0:0:0:
235,264,183226,2,0,L|278:150,1,107.999996704102,2|0,0:0|0:0,0:0:0:0:
52,60,183519,2,0,B|24:124|24:124|34:202|34:202|10:271,1,215.999993408203,10|0,0:0|0:0,0:0:0:0:
176,201,183958,1,0,0:0:0:0:
47,337,184105,2,0,P|104:355|159:350,1,107.999996704102,2|0,0:0|0:0,0:0:0:0:
457,134,184397,6,0,P|400:116|345:121,1,107.999996704102,10|0,0:0|0:0,0:0:0:0:
227,306,184690,2,0,L|299:197,2,107.999996704102,2|8|0,0:0|0:0|0:0,0:0:0:0:
75,25,185275,2,0,L|54:140,1,107.999996704102,0|0,1:0|0:0,0:0:0:0:
267,109,185568,2,0,L|286:215,1,107.999996704102,0|0,1:0|0:0,0:0:0:0:
88,206,185861,2,0,L|71:316,1,107.999996704102,2|0,1:2|0:0,0:0:0:0:
188,69,186153,6,0,P|250:25|352:99,1,180,6|0,0:0|0:0,0:0:0:0:
421,211,186592,2,0,P|401:257|374:286,1,90,8|0,0:0|0:0,0:0:0:0:
95,99,187031,2,0,P|76:193|100:295,1,180,10|0,0:0|0:0,0:0:0:0:
183,354,187470,1,0,0:0:0:0:
243,269,187617,2,0,P|259:215|255:170,1,90
210,40,187909,6,0,P|259:58|412:40,1,180,2|0,0:0|0:0,0:0:0:0:
455,189,188348,2,0,P|463:248|463:285,1,90,8|0,0:0|0:0,0:0:0:0:
109,138,188787,2,0,P|185:120|226:125,1,90,10|0,0:0|0:0,0:0:0:0:
379,246,189080,2,0,P|290:267|249:262,1,90,2|8,0:0|0:0,0:0:0:0:
63,208,189373,2,0,L|23:306,1,90,2|0,0:0|0:0,0:0:0:0:
63,68,189665,5,0,1:0:0:0:
168,313,189958,1,0,1:0:0:0:
380,144,190251,1,0,1:0:0:0:
68,191,190544,1,0,1:0:0:0:
371,335,190836,1,0,1:0:0:0:
240,59,191129,1,0,1:0:0:0:
227,366,191422,1,0,1:0:0:0:
90,153,191714,1,0,1:0:0:0:
458,146,192007,1,0,1:0:0:0:
63,379,192300,1,0,1:0:0:0:
254,98,192592,1,0,1:0:0:0:
412,366,192885,1,0,1:0:0:0:
44,108,193178,6,0,P|96:66|143:57,1,90,2|0,0:0|0:0,0:0:0:0:
244,171,193470,2,0,P|192:213|145:222,1,90,2|0,0:0|0:0,0:0:0:0:
37,211,193763,2,0,L|19:311,1,90,2|0,0:0|0:0,0:0:0:0:
154,349,194056,2,0,P|218:318|343:356,2,180,2|0|0,0:0|0:0|0:0,0:0:0:0:
154,35,194934,6,0,P|218:66|343:28,2,180,2|0|0,0:0|0:0|0:0,0:0:0:0:
62,271,195812,2,0,L|162:251,1,90,2|0,0:0|0:0,0:0:0:0:
207,162,196105,2,0,L|307:182,1,90,2|0,0:0|0:0,0:0:0:0:
374,250,196397,2,0,L|474:230,1,90,2|0,0:0|0:0,0:0:0:0:
323,16,196690,6,0,L|290:128,1,90,2|0,0:0|0:0,0:0:0:0:
189,16,196983,2,0,L|214:102,1,90,2|0,0:0|0:0,0:0:0:0:
355,39,197275,6,0,L|322:151,1,90,2|0,0:0|0:0,0:0:0:0:
154,42,197568,2,0,L|179:128,1,90,2|0,1:2|0:0,0:0:0:0:
392,65,197861,6,0,L|359:177,1,90,2|0,0:0|0:0,0:0:0:0:
122,69,198153,2,0,L|147:155,1,90,2|0,0:0|0:0,0:0:0:0:
422,98,198446,6,0,L|389:210,1,90,2|0,1:2|0:0,0:0:0:0:
92,97,198739,2,0,L|117:183,1,90,2|0,0:0|0:0,0:0:0:0:
456,130,199031,6,0,L|423:242,1,90,2|0,0:0|0:0,0:0:0:0:
56,130,199324,2,0,L|89:242,1,90,2|0,1:2|0:0,0:0:0:0:
492,160,199617,6,0,L|459:272,1,90,10|0,0:0|0:0,0:0:0:0:
20,160,199909,2,0,L|53:272,1,90,2|0,0:0|0:0,0:0:0:0:
323,368,200202,6,0,L|290:256,1,90,2|0,0:0|0:0,0:0:0:0:
189,368,200495,2,0,L|214:282,1,90,2|0,0:0|0:0,0:0:0:0:
355,345,200787,6,0,L|322:233,1,90,2|0,0:0|0:0,0:0:0:0:
154,342,201080,2,0,L|179:256,1,90,2|0,1:2|0:0,0:0:0:0:
392,319,201373,6,0,L|359:207,1,90,2|0,0:0|0:0,0:0:0:0:
122,315,201665,2,0,L|147:229,1,90,2|0,0:0|0:0,0:0:0:0:
255,41,201958,5,0,0:0:0:0:
263,313,202105,1,8,0:0:0:0:
181,149,202251,2,0,P|134:127|83:124,1,90,2|0,0:0|0:0,0:0:0:0:
331,149,202544,2,0,P|378:127|429:124,1,90,2|0,0:0|0:0,0:0:0:0:
471,281,202836,1,8,0:0:0:0:
493,106,202983,1,0,1:0:0:0:
493,106,203056,1,0,1:0:0:0:
493,106,203129,1,0,1:0:0:0:
397,210,203275,1,0,1:0:0:0:
360,62,203422,2,0,P|314:48|248:51,1,90,0|2,1:0|0:0,0:0:0:0:
92,151,203714,6,0,L|89:206,1,45,4|0,0:0|0:0,0:0:0:0:
88,315,203861,1,2,0:0:0:0:
209,242,204007,1,0,1:0:0:0:
249,222,204080,1,0,1:0:0:0:
293,217,204153,1,0,1:0:0:0:
336,229,204226,1,0,1:0:0:0:
372,256,204300,6,0,L|410:166,1,90,2|8,0:0|0:0,0:0:0:0:
188,155,204592,2,0,L|150:65,1,90,2|0,0:0|0:0,0:0:0:0:
96,226,204885,1,0,1:0:0:0:
90,270,204958,1,0,1:0:0:0:
107,310,205031,1,0,1:0:0:0:
143,337,205104,1,0,1:0:0:0:
187,341,205178,2,0,L|288:329,1,90,2|0,0:0|0:0,0:0:0:0:
474,117,205470,6,0,P|414:94|369:95,1,90,4|0,0:0|0:0,0:0:0:0:
232,231,205763,1,2,0:2:0:0:
217,57,205909,1,2,1:2:0:0:
217,57,205983,1,0,1:0:0:0:
217,57,206056,1,2,1:2:0:0:
343,191,206202,1,2,0:0:0:0:
128,271,206348,6,0,L|94:187,1,90,2|0,0:0|0:0,0:0:0:0:
291,23,206641,2,0,L|325:107,1,90,2|0,0:0|0:0,0:0:0:0:
402,277,206934,2,0,P|349:275|281:322,1,135,2|0,0:0|0:0,0:0:0:0:
235,380,207226,6,0,L|141:372,1,90,4|0,0:0|0:0,0:0:0:0:
34,252,207519,1,0,1:0:0:0:
15,211,207592,1,0,1:0:0:0:
15,166,207665,1,0,1:0:0:0:
35,126,207738,1,0,1:0:0:0:
69,98,207812,6,0,P|110:68|188:50,1,90,2|0,0:0|0:0,0:0:0:0:
384,169,208105,2,0,P|343:199|265:217,1,90,2|0,0:0|0:0,0:0:0:0:
128,157,208397,1,0,1:0:0:0:
124,201,208470,1,0,1:0:0:0:
130,246,208544,1,0,1:0:0:0:
147,287,208617,1,0,1:0:0:0:
173,324,208690,1,0,1:0:0:0:
249,122,208836,1,8,0:0:0:0:
345,317,208983,6,0,P|391:322|437:311,1,90,2|0,0:0|0:0,0:0:0:0:
463,133,209275,1,0,1:0:0:0:
437,96,209348,1,0,1:0:0:0:
400,70,209422,1,0,1:0:0:0:
357,56,209495,1,0,1:0:0:0:
313,58,209568,1,0,1:0:0:0:
260,298,209714,1,0,1:0:0:0:
105,129,209861,5,8,0:0:0:0:
343,211,210007,1,0,1:0:0:0:
148,319,210153,1,0,1:0:0:0:
163,35,210300,1,0,1:0:0:0:
354,322,210446,1,0,1:0:0:0:
46,226,210592,1,0,1:0:0:0:
268,96,210739,6,0,P|322:82|382:96,1,90,6|0,0:0|0:0,0:0:0:0:
468,257,211031,1,0,1:0:0:0:
436,288,211104,1,0,1:0:0:0:
397,311,211177,1,0,1:0:0:0:
354,322,211250,1,0,1:0:0:0:
309,321,211323,1,0,1:0:0:0:
268,96,211470,1,8,0:0:0:0:
203,320,211617,6,0,L|173:228,1,90
114,56,211909,1,0,1:0:0:0:
95,96,211982,1,0,1:0:0:0:
83,140,212055,1,0,1:0:0:0:
77,184,212128,1,0,1:0:0:0:
79,229,212201,1,0,1:0:0:0:
21,49,212348,1,8,0:0:0:0:
204,127,212495,6,0,P|263:147|302:143,1,90
429,75,212787,1,0,1:0:0:0:
434,119,212860,1,0,1:0:0:0:
440,164,212933,1,0,1:0:0:0:
445,208,213006,1,0,1:0:0:0:
451,253,213079,1,0,1:0:0:0:
262,71,213226,1,0,0:0:0:0:
280,312,213373,5,8,1:2:0:0:
373,186,213519,1,0,1:0:0:0:
190,195,213665,1,0,1:0:0:0:
359,274,213812,1,0,1:0:0:0:
276,166,213958,1,0,1:0:0:0:
195,276,214105,1,0,1:0:0:0:
359,355,214251,6,0,P|417:366|458:361,1,90,4|0,0:0|0:0,0:0:0:0:
479,154,214544,1,0,1:0:0:0:
471,109,214617,1,0,1:0:0:0:
450,70,214690,1,0,1:0:0:0:
416,40,214763,1,0,1:0:0:0:
375,24,214836,1,0,1:0:0:0:
279,237,214983,1,8,0:0:0:0:
194,44,215129,6,0,P|150:31|95:31,1,90
90,246,215422,1,0,0:0:0:0:
97,108,215568,1,0,0:0:0:0:
195,193,215714,2,0,P|254:204|297:199,1,90,2|0,0:0|0:0,0:0:0:0:
419,120,216007,6,0,L|448:208,1,80.9999975280763,2|0,0:0|0:0,0:0:0:0:
452,225,216300,6,0,L|342:264,1,90,6|0,0:0|0:0,0:0:0:0:
113,221,216592,2,0,L|197:190,1,90,2|0,0:0|0:0,0:0:0:0:
328,146,216885,6,0,L|299:65,1,80.9999975280763,2|0,0:0|0:0,0:0:0:0:
290,41,217178,6,0,L|202:70,1,90,6|0,0:0|0:0,0:0:0:0:
27,249,217470,2,0,L|112:220,1,90,2|0,0:0|0:0,0:0:0:0:
433,119,217763,5,8,0:0:0:0:
256,192,217836,12,0,221275,0:0:0:0:
68,75,221617,5,2,0:0:0:0:
72,86,221714,1,2,0:0:0:0:
290,287,222153,1,2,0:0:0:0:
212,45,222592,1,2,0:0:0:0:
105,303,223031,5,2,0:0:0:0:
382,262,223275,1,2,0:0:0:0:
172,35,223739,1,2,0:0:0:0:
225,224,223909,6,0,L|261:306,1,72,2|0,0:0|0:0,0:0:0:0:
485,220,224202,2,0,L|456:154,1,72,2|0,0:0|0:0,0:0:0:0:
166,79,224495,2,0,L|202:161,1,72,2|0,0:0|0:0,0:0:0:0:
428,80,224787,2,0,P|375:68|350:71,1,72,2|0,0:0|0:0,0:0:0:0:
225,224,225080,2,0,P|278:236|303:233,1,72,2|0,0:0|0:0,0:0:0:0:
456,154,225373,1,0,0:0:0:0:
95,148,225665,5,2,0:0:0:0:
192,315,226544,5,2,0:0:0:0:
244,115,226690,1,2,0:0:0:0:
426,209,226983,1,2,0:0:0:0:
374,9,227129,1,2,0:0:0:0:
124,169,227422,1,2,0:0:0:0:
463,291,227714,5,2,0:0:0:0:
374,9,227861,1,2,0:0:0:0:
218,333,228300,5,2,0:0:0:0:
92,81,228592,1,2,0:0:0:0:
425,166,229031,5,2,0:0:0:0:
128,209,229178,1,2,0:0:0:0:
277,70,229470,2,2,L|312:162,1,72
370,274,229763,1,2,0:0:0:0:
203,151,229909,1,2,0:0:0:0:
203,151,229983,1,2,0:0:0:0:
203,151,230056,1,2,0:0:0:0:
135,93,246739,5,0,1:0:0:0:
154,115,247031,1,0,1:0:0:0:
174,139,247324,1,0,1:0:0:0:
243,282,247617,5,8,0:0:0:0:
243,282,248202,1,2,0:0:0:0:
467,256,248495,1,8,0:0:0:0:
467,256,249080,1,2,0:0:0:0:
305,49,249373,5,8,0:0:0:0:
173,307,251313,6,0,L|118:189,1,107.999996704102,4|0,0:0|0:0,0:0:0:0:
69,32,251637,1,0,0:0:0:0:
288,83,251799,1,8,0:0:0:0:
55,244,251961,2,0,P|29:288|32:350,1,107.999996704102,0|8,0:0|0:0,0:0:0:0:
270,260,252285,2,0,L|372:226,1,107.999996704102,2|0,0:0|0:0,0:0:0:0:
260,4,252610,2,0,L|158:38,1,107.999996704102,2|0,0:0|0:0,0:0:0:0:
132,224,252934,2,0,L|234:190,1,107.999996704102,2|0,0:0|0:0,0:0:0:0:
478,117,253258,6,0,P|503:173|503:228,1,107.999996704102,2|0,0:0|0:0,0:0:0:0:
365,384,253583,2,0,P|340:328|340:273,1,107.999996704102,2|0,0:0|0:0,0:0:0:0:
366,73,253907,1,2,0:0:0:0:
428,253,254069,1,8,0:0:0:0:
215,213,254231,2,0,P|157:202|90:207,1,107.999996704102,2|0,0:0|0:0,0:0:0:0:
0,375,254556,2,0,P|58:386|125:381,1,107.999996704102,2|0,0:0|0:0,0:0:0:0:
288,182,254880,2,0,L|257:73,1,107.999996704102,2|0,0:0|0:0,0:0:0:0:
6,299,255204,6,0,L|37:190,1,107.999996704102,2|0,0:0|0:0,0:0:0:0:
88,23,255529,2,0,P|150:46|200:48,1,107.999996704102,2|0,0:0|0:0,0:0:0:0:
361,48,255853,1,2,0:0:0:0:
136,151,256015,1,8,0:0:0:0:
312,251,256177,2,0,P|372:277|426:282,1,107.999996704102,2|0,0:0|0:0,0:0:0:0:
462,79,256502,2,0,P|402:53|348:48,1,107.999996704102,2|0,0:0|0:0,0:0:0:0:
212,216,256826,2,0,L|143:300,1,107.999996704102,2|0,0:0|0:0,0:0:0:0:
57,31,257150,6,0,P|118:22|181:31,1,107.999996704102,2|0,0:0|0:0,0:0:0:0:
427,167,257475,2,0,P|366:158|303:167,1,107.999996704102,2|0,0:0|0:0,0:0:0:0:
36,303,257799,2,0,P|97:294|160:303,1,107.999996704102
453,373,258123,6,0,L|488:251,1,116.999994644165,6|0,0:0|0:0,0:0:0:0:
3,234,258448,2,0,L|38:112,1,116.999994644165,2|0,0:0|0:0,0:0:0:0:
423,204,258772,2,0,L|458:82,1,116.999994644165,2|0,0:0|0:0,0:0:0:0:
108,52,259096,2,0,P|164:82|237:88,1,116.999994644165,2|0,0:0|0:0,0:0:0:0:
403,36,259421,1,0,0:0:0:0:
321,257,259583,1,8,0:0:0:0:
93,142,259745,2,0,P|149:172|222:178,1,116.999994644165,2|8,0:0|0:0,0:0:0:0:
469,113,260069,6,0,L|486:244,1,116.999994644165,6|0,0:0|0:0,0:0:0:0:
5,149,260394,2,0,L|22:280,1,116.999994644165,2|0,0:0|0:0,0:0:0:0:
396,199,260718,2,0,L|413:330,1,116.999994644165,2|0,0:0|0:0,0:0:0:0:
83,311,261042,2,0,P|139:329|199:330,1,116.999994644165
410,315,261367,1,2,0:0:0:0:
270,101,261529,1,0,0:0:0:0:
299,318,261691,1,8,0:0:0:0:
357,48,261853,1,8,0:0:0:0:
161,133,262015,5,10,0:0:0:0:
396,191,262177,1,2,0:0:0:0:
171,282,262340,1,2,0:0:0:0:
248,55,262502,1,10,0:0:0:0:
350,305,262664,1,2,0:0:0:0:
100,180,262826,1,2,0:0:0:0:
352,90,262988,5,10,0:0:0:0:
75,179,263150,1,2,0:0:0:0:
366,311,263313,1,10,0:0:0:0:
143,74,263475,1,2,0:0:0:0:
179,320,263637,1,10,0:0:0:0:
385,180,263799,1,2,0:0:0:0:
59,97,263961,6,0,L|20:226,1,116.999994644165,10|0,0:0|0:0,0:0:0:0:
179,320,264285,2,0,L|212:208,1,116.999994644165,10|0,0:0|0:0,0:0:0:0:
256,68,264610,2,0,P|316:82|374:76,1,116.999994644165
507,9,264934,6,0,L|526:78,3,58.4999973220826,2|0|0|0,0:0|0:0|0:0|0:0,0:0:0:0:
451,125,265258,2,0,L|470:194,3,58.4999973220826,2|0|0|0,0:0|0:0|0:0|0:0,0:0:0:0:
386,212,265583,2,0,L|405:281,3,58.4999973220826,2|0|0|0,0:0|0:0|0:0|0:0,0:0:0:0:
303,292,265907,2,0,L|245:303,1,58.4999973220826,0|0,1:0|1:0,1:0:0:0:
72,239,266069,2,0,L|130:250,1,58.4999973220826,0|0,1:0|1:0,1:0:0:0:
306,195,266231,2,0,L|248:206,1,58.4999973220826,0|0,1:0|1:0,1:0:0:0:
75,142,266393,2,0,L|133:153,1,58.4999973220826,0|0,1:0|1:0,1:0:0:0:
279,102,266556,1,8,1:2:0:0:
329,44,266637,1,8,1:2:0:0:
403,28,266718,1,8,1:2:0:0:
463,73,266799,1,8,1:2:0:0:
474,148,266880,6,0,P|485:216|473:279,1,116.999994644165,6|0,0:0|0:0,0:0:0:0:
279,102,267204,1,8,0:0:0:0:
159,260,267367,2,0,P|153:329|166:388,1,116.999994644165,2|0,0:0|0:0,0:0:0:0:
371,320,267691,1,8,0:0:0:0:
132,133,267853,2,0,P|118:55|125:14,1,116.999994644165,2|0,0:0|0:0,0:0:0:0:
390,128,268177,2,2,P|395:185|381:242,1,116.999994644165,2|0,0:0|0:0,0:0:0:0:
73,304,268502,2,2,P|67:246|81:189,1,116.999994644165,2|0,0:0|0:0,0:0:0:0:
331,7,268826,6,0,L|298:129,1,116.999994644165
221,338,269150,1,8,0:0:0:0:
161,118,269313,2,0,L|128:-8,1,116.999994644165,2|0,0:0|0:0,0:0:0:0:
115,262,269637,1,8,0:0:0:0:
263,195,269799,1,0,1:0:0:0:
332,190,269880,1,0,1:0:0:0:
380,241,269961,1,0,1:0:0:0:
352,305,270042,1,0,1:0:0:0:
283,319,270123,1,0,1:0:0:0:
242,261,270204,1,0,1:0:0:0:
263,195,270285,1,0,1:0:0:0:
294,131,270367,1,0,1:0:0:0:
281,62,270448,1,0,1:0:0:0:
216,35,270529,1,0,1:0:0:0:
150,59,270610,1,0,1:0:0:0:
135,127,270691,1,0,1:0:0:0:
162,191,270772,5,2,1:2:0:0:
0,185,270934,1,2,0:2:0:0:
75,337,271096,1,10,0:2:0:0:
92,124,271258,1,2,0:2:0:0:
0,290,271421,1,2,0:2:0:0:
165,289,271583,1,2,0:2:0:0:
11,108,271745,5,10,0:2:0:0:
172,304,271907,1,2,0:2:0:0:
297,117,272069,1,2,0:2:0:0:
49,241,272231,1,2,0:2:0:0:
160,51,272394,1,10,0:2:0:0:
298,237,272556,1,2,0:2:0:0:
69,32,272718,5,10,0:2:0:0:
167,300,272880,1,2,0:2:0:0:
270,29,273042,1,10,0:2:0:0:
49,241,273204,1,2,0:2:0:0:
353,172,273367,1,2,0:2:0:0:
51,111,273529,1,2,0:2:0:0:
263,285,273691,6,0,P|330:315|390:316,1,116.999994644165,10|0,0:2|0:2,0:2:0:0:
481,124,274015,2,0,P|414:94|354:93,1,116.999994644165,2|0,0:2|0:2,0:2:0:0:
202,237,274340,1,0,1:0:0:0:
145,277,274421,1,0,1:0:0:0:
76,294,274502,1,0,1:0:0:0:
17,255,274583,1,0,1:0:0:0:
10,180,274664,6,0,P|14:129|134:47,1,180,4|0,0:0|0:0,0:0:0:0:
404,185,275313,2,0,L|299:138,1,90,2|0,0:0|0:0,0:0:0:0:
105,155,275637,2,0,B|115:220|115:220|148:270|148:270|164:352,1,180,8|0,0:0|0:0,0:0:0:0:
208,77,276123,1,0,0:0:0:0:
298,260,276285,2,0,P|352:292|397:300,1,90
474,49,276610,6,0,B|406:45|414:115|286:98,1,180
210,79,277096,1,0,0:0:0:0:
217,244,277258,2,0,L|250:143,1,90
108,28,277583,2,0,P|80:91|106:208,1,180
132,328,278069,1,0,0:0:0:0:
310,227,278231,2,0,P|386:204|424:205,1,90
457,348,278556,6,0,L|474:237,1,90
401,128,278880,1,0,0:0:0:0:
351,384,279042,2,0,L|368:273,1,90
320,123,279367,1,0,0:0:0:0:
214,282,279529,2,0,P|163:301|114:300,1,90
45,158,279853,1,0,0:0:0:0:
78,363,280015,1,0,0:0:0:0:
189,139,280177,2,0,L|240:42,1,90
391,277,280502,5,2,0:0:0:0:
80,67,281475,1,2,0:0:0:0:
425,122,282123,1,2,0:0:0:0:
132,304,282448,5,2,0:0:0:0:
409,337,283096,1,2,0:0:0:0:
388,53,283421,1,2,0:0:0:0:
294,303,284069,1,2,0:0:0:0:
65,137,284394,5,2,0:0:0:0:
496,153,285042,1,2,0:0:0:0:
145,268,285367,1,2,0:0:0:0:
143,64,286015,1,2,0:0:0:0:
490,258,286349,6,0,P|429:226|246:255,1,215.999993408203,6|0,0:0|0:0,0:0:0:0:
274,69,286788,1,0,1:0:0:0:
371,333,286934,1,0,1:0:0:0:
123,219,287080,1,0,1:0:0:0:
342,122,287227,2,0,L|457:72,1,107.999996704102,2|0,0:0|0:0,0:0:0:0:
483,253,287519,1,0,1:0:0:0:
347,31,287666,1,0,1:0:0:0:
239,245,287812,1,0,1:0:0:0:
485,153,287958,1,0,1:0:0:0:
195,102,288105,6,0,P|139:86|65:88,1,107.999996704102,2|0,0:0|0:0,0:0:0:0:
40,278,288397,1,0,1:0:0:0:
18,80,288544,1,0,1:0:0:0:
195,182,288690,2,0,P|248:201|305:199,1,107.999996704102,0|0,1:0|1:0,0:0:0:0:
466,74,288983,2,0,L|488:188,1,107.999996704102,8|0,0:0|0:0,0:0:0:0:
410,337,289275,1,0,1:0:0:0:
372,101,289422,1,0,1:0:0:0:
260,277,289568,2,0,P|189:299|138:297,1,107.999996704102,0|0,1:0|1:0,0:0:0:0:
61,29,289861,6,0,P|138:21|267:125,1,215.999993408203,4|0,0:0|0:0,0:0:0:0:
396,282,290300,1,0,1:0:0:0:
170,186,290446,1,0,1:0:0:0:
372,58,290592,1,0,1:0:0:0:
274,267,290739,2,0,P|223:295|128:302,1,107.999996704102,8|0,0:0|0:0,0:0:0:0:
37,160,291031,1,0,1:0:0:0:
126,372,291178,1,0,1:0:0:0:
259,168,291324,1,0,1:0:0:0:
8,306,291470,1,0,1:0:0:0:
252,369,291617,6,0,P|314:380|389:375,1,107.999996704102,2|0,0:0|0:0,0:0:0:0:
493,244,291909,1,0,1:0:0:0:
330,92,292056,1,0,1:0:0:0:
300,293,292202,1,0,1:0:0:0:
446,118,292349,1,0,1:0:0:0:
265,179,292495,2,0,P|207:190|144:182,1,107.999996704102,10|0,0:0|0:0,0:0:0:0:
15,31,292788,2,0,L|-2:138,1,107.999996704102,2|0,0:0|0:0,0:0:0:0:
185,0,293080,2,0,L|202:107,1,107.999996704102,2|0,0:0|0:0,0:0:0:0:
232,311,293373,6,0,P|303:277|443:334,1,215.999993408203,6|0,0:0|0:0,0:0:0:0:
411,137,293812,1,0,1:0:0:0:
195,182,293958,1,0,1:0:0:0:
337,357,294105,1,0,1:0:0:0:
292,128,294251,2,0,P|256:80|210:59,1,107.999996704102,8|0,0:0|0:0,0:0:0:0:
43,149,294544,1,0,1:0:0:0:
266,231,294690,1,0,1:0:0:0:
267,6,294836,1,0,1:0:0:0:
121,248,294983,1,0,1:0:0:0:
124,27,295129,6,0,L|126:148,1,107.999996704102,2|0,0:0|0:0,0:0:0:0:
128,360,295422,1,0,1:0:0:0:
6,184,295568,1,0,1:0:0:0:
226,161,295714,1,0,1:0:0:0:
6,311,295861,1,0,1:0:0:0:
161,99,296007,2,0,P|217:81|277:82,1,107.999996704102,8|0,0:0|0:0,0:0:0:0:
446,189,296300,1,0,1:0:0:0:
262,262,296446,1,0,1:0:0:0:
241,9,296592,1,0,1:0:0:0:
389,293,296739,1,0,1:0:0:0:
163,151,296885,6,0,P|108:138|43:137,1,107.999996704102,2|0,0:0|0:0,0:0:0:0:
330,203,297178,1,0,0:0:0:0:
153,240,297324,2,0,P|98:227|33:226,1,107.999996704102,2|0,0:0|0:0,0:0:0:0:
323,316,297617,1,0,0:0:0:0:
253,105,297763,6,0,P|247:37|253:-4,1,107.999996704102,10|0,0:0|0:0,0:0:0:0:
500,107,298056,2,0,P|506:175|500:216,1,107.999996704102,2|0,0:0|0:0,0:0:0:0:
183,218,298349,2,0,P|177:150|183:109,1,107.999996704102,2|0,0:0|0:0,0:0:0:0:
389,236,298641,2,0,P|332:217|260:230,1,107.999996704102,10|0,0:0|0:0,0:0:0:0:
41,257,298934,2,0,L|16:138,1,107.999996704102,2|0,0:0|0:0,0:0:0:0:
68,30,299227,5,0,1:0:0:0:
270,127,299373,1,0,1:0:0:0:
270,127,299446,1,0,1:0:0:0:
270,127,299519,2,0,P|326:133|378:123,1,107.999996704102,2|0,1:2|0:0,0:0:0:0:
512,255,299812,2,0,P|456:261|404:251,1,107.999996704102,2|0,0:2|0:0,0:0:0:0:
258,365,300105,2,0,P|314:371|366:361,1,107.999996704102,2|0,0:2|0:0,0:0:0:0:
466,171,300397,6,0,P|468:117|450:62,1,90,6|0,0:0|0:0,0:0:0:0:
350,26,300690,1,2,1:2:0:0:
281,84,300836,1,0,1:2:0:0:
288,166,300983,2,0,L|302:277,1,90,2|0,0:0|0:0,0:0:0:0:
158,372,301275,2,0,L|146:282,1,90,10|0,0:0|0:0,0:0:0:0:
125,39,301568,5,0,1:0:0:0:
135,122,301714,1,0,1:0:0:0:
184,194,301861,1,0,1:0:0:0:
265,229,302007,1,0,1:0:0:0:
352,209,302153,6,0,P|401:191|410:59,1,180,2|0,0:0|0:0,0:0:0:0:
305,31,302592,2,0,L|250:62,1,45,0|0,1:0|1:0,0:0:0:0:
196,98,302738,2,0,P|148:109|90:104,1,90,0|0,1:0|0:0,0:0:0:0:
40,344,303031,2,0,L|32:237,1,90,10|0,0:0|0:0,0:0:0:0:
144,204,303324,1,0,1:0:0:0:
206,249,303470,1,0,1:0:0:0:
284,266,303617,1,0,1:0:0:0:
362,255,303763,1,0,1:0:0:0:
432,218,303909,6,0,P|452:169|403:37,1,180,6|0,0:0|0:0,0:0:0:0:
334,112,304349,1,0,1:0:0:0:
270,155,304495,1,0,1:0:0:0:
190,146,304641,1,0,1:0:0:0:
110,98,304788,2,0,P|86:156|95:275,1,180,6|0,0:0|0:0,0:0:0:0:
165,331,305227,1,0,1:0:0:0:
247,351,305373,1,0,1:0:0:0:
281,361,305446,1,0,1:0:0:0:
316,361,305519,1,0,1:0:0:0:
351,356,305592,1,0,1:0:0:0:
385,344,305666,6,0,P|423:309|433:172,1,180,6|0,0:0|0:0,0:0:0:0:
374,71,306105,1,0,1:0:0:0:
313,122,306251,1,0,1:0:0:0:
240,152,306397,1,0,1:0:0:0:
158,117,306544,6,0,L|85:287,2,180,10|0|0,0:0|0:0|0:0,0:0:0:0:
430,244,307422,5,4,0:0:0:0:
256,192,307495,12,0,313275,0:0:0:0:
