osu file format v14

[General]
AudioFilename: audio.mp3
AudioLeadIn: 0
PreviewTime: 209842
Countdown: 0
SampleSet: Soft
StackLeniency: 0.7
Mode: 0
LetterboxInBreaks: 0
WidescreenStoryboard: 0

[Editor]
DistanceSpacing: 1.2
BeatDivisor: 12
GridSize: 4
TimelineZoom: 5.499996

[Metadata]
Title:DROP
TitleUnicode:DROP
Artist:Minami
ArtistUnicode:美波
Creator:Spy_RO
Version:MELANCHOLY
Source:
Tags:Japanese jpop j-pop pop 10GAUGE rock jrock j-rock 373 female vocal hinae
BeatmapID:4078541
BeatmapSetID:1966817

[Difficulty]
HPDrainRate:5
CircleSize:4
OverallDifficulty:9
ApproachRate:9.3
SliderMultiplier:2.7
SliderTickRate:1

[Events]
//Background and Video events
0,0,"176cdd65f3e5ad2296e7e60159600453.jpg",0,0
//Break Periods
//Storyboard Layer 0 (Background)
//Storyboard Layer 1 (Fail)
//Storyboard Layer 2 (Pass)
//Storyboard Layer 3 (Foreground)
//Storyboard Layer 4 (Overlay)
//Storyboard Sound Samples

[TimingPoints]
2052,655.737704918033,4,2,1,45,1,0
9917,-100,4,2,1,40,0,0
12540,-100,4,2,1,50,0,0
20327,-100,4,2,1,5,0,0
20409,-100,4,2,1,50,0,0
21885,-100,4,2,1,5,0,0
21967,-100,4,2,1,50,0,0
22130,-100,4,2,1,5,0,0
22212,-100,4,2,1,50,0,0
30901,-100,4,2,1,50,0,0
33524,-100,4,2,1,55,0,0
42868,-100,4,2,1,55,0,0
42950,-100,4,2,1,55,0,0
43114,-100,4,2,1,55,0,0
43196,-100,4,2,1,55,0,0
43934,-100,4,2,1,5,0,0
44016,-100,4,2,1,55,0,0
46557,-100,4,2,1,5,0,0
46642,-100,4,2,1,55,0,0
53114,-100,4,2,1,5,0,0
53196,-100,4,2,1,55,0,0
60081,-100,4,2,1,55,0,0
60983,-100,4,2,1,5,0,0
61065,-100,4,2,1,55,0,0
62950,-100,4,2,1,5,0,0
63032,-100,4,2,1,55,0,0
64999,-83.3333333333333,4,2,1,55,0,0
65327,-100,4,2,1,55,0,0
74344,-100,4,2,1,55,0,0
74426,-100,4,2,1,55,0,0
74589,-100,4,2,1,55,0,0
74671,-100,4,2,1,55,0,0
75409,-100,4,2,1,5,0,0
75491,-100,4,2,1,55,0,0
80655,-100,4,2,1,5,0,0
80737,-100,4,2,1,55,0,0
99098,-100,4,2,1,55,0,0
117376,-100,4,2,1,5,0,0
117458,-100,4,2,1,40,0,0
127294,-100,4,2,1,45,0,0
127950,-100,4,2,1,50,0,0
138442,-100,4,2,1,65,0,0
156803,-100,4,2,1,60,0,0
159426,-142.857142857143,4,2,1,35,0,0
160573,-250,4,2,1,35,0,0
162049,-142.857142857143,4,2,1,35,0,0
163360,-200,4,2,1,35,0,0
180409,-400,4,2,1,35,0,0
185655,-111.111111111111,4,2,1,45,0,0
190819,-111.111111111111,4,2,1,5,0,0
190901,-111.111111111111,4,2,1,50,0,0
201311,-111.111111111111,4,2,1,5,0,0
201393,-111.111111111111,4,2,1,60,0,0
205327,-90.9090909090908,4,2,1,60,0,0
208445,-100,4,2,1,60,0,0
209265,641.025641025641,4,2,1,45,1,0
210547,666.666666666667,4,2,5,60,1,0
210547,-76.9230769230769,4,2,5,65,0,1
211213,651.289009497965,4,2,5,60,1,1
211213,-76.9230769230769,4,2,5,65,0,1
212515,-76.9230769230769,4,2,5,65,0,1
213166,652.173913043478,4,2,5,60,1,1
213166,-76.9230769230769,4,2,5,60,0,1
213814,-76.9230769230769,4,2,5,65,0,1
217079,-76.9230769230769,4,2,5,65,0,1
218369,-76.9230769230769,4,2,5,65,0,1
218700,-76.9230769230769,4,2,5,60,0,1
219035,-100,4,2,5,60,0,1
219198,-100,4,2,5,65,0,1
219280,-100,4,2,5,65,0,1
219360,-66.6666666666667,4,2,5,75,0,1
220992,-76.9230769230769,4,2,5,65,0,1
222290,-76.9230769230769,4,2,5,60,0,1
224905,655.737704918033,4,2,5,60,1,1
225560,-76.9230769230769,4,2,5,60,0,1
226216,655.737704918033,4,2,5,60,1,1
226216,-76.9230769230769,4,2,5,60,0,1
226864,-71.4285714285714,4,2,5,75,0,1
228838,648.648648648649,4,2,5,70,1,1
231432,-100,4,2,5,60,0,0
233946,-100,4,2,5,5,0,0
234027,652.173913043478,4,2,5,60,1,0
234027,-100,4,2,5,60,0,0
236635,659.340659340659,4,2,5,60,1,0
239272,655.737704918033,4,2,5,60,1,0
239927,631.578947368421,4,2,5,60,1,0
240558,641.711229946524,4,2,5,60,1,0
241199,666.666666666667,4,2,5,60,1,0
241865,655.737704918033,4,2,5,60,1,0
241865,-83.3333333333333,4,2,5,60,0,0
243832,638.297872340426,4,2,5,60,1,0
243832,-83.3333333333333,4,2,5,60,0,0
244470,659.340659340659,4,2,5,60,1,0
244470,-66.6666666666667,4,2,5,75,0,1
244964,-76.9230769230769,4,2,5,75,0,1
245129,-76.9230769230769,4,2,5,75,0,1
245788,641.711229946524,4,2,5,75,1,1
246429,-76.9230769230769,4,2,5,75,0,1
247071,655.737704918033,4,2,5,75,1,1
247071,-76.9230769230769,4,2,5,75,0,1
247718,-76.9230769230769,4,2,5,75,0,1
249038,648.648648648649,4,2,5,75,1,1
249038,-76.9230769230769,4,2,5,75,0,1
249686,652.173913043478,4,2,5,75,1,1
249686,-50,4,2,5,85,0,1
250745,-50,4,2,5,5,0,1
250827,-50,4,2,5,85,0,1
250908,-50,4,2,5,5,0,1
250990,648.648648648649,4,2,5,85,1,0
251638,-333.333333333333,4,2,5,80,0,0
252204,-333.333333333333,4,2,5,5,0,0
252287,659.340659340659,4,2,5,80,1,0
252287,-76.9230769230769,4,2,5,80,0,1
254924,640,4,2,5,80,1,1
255562,-76.9230769230769,4,2,5,80,0,1
256204,659.340659340659,4,2,5,80,1,1
257522,652.173913043478,4,2,5,80,1,1
257522,-76.9230769230769,4,2,5,80,0,1
258166,-76.9230769230769,4,2,5,80,0,1
258811,-76.9230769230769,4,2,5,80,0,1
259155,-76.9230769230769,4,2,5,80,0,1
262087,659.340659340659,4,2,5,80,1,1
262746,655.737704918033,4,2,5,80,1,1
262746,-76.9230769230769,4,2,5,80,0,1
263405,-76.9230769230769,4,2,5,80,0,1
263894,-76.9230769230769,4,2,5,80,0,1
264057,648.648648648649,4,2,5,80,1,1
264381,-76.9230769230769,4,2,5,80,0,1
265354,648.648648648649,4,2,5,80,1,1
266975,666.666666666667,4,2,5,80,1,1
267308,631.578947368421,4,2,5,80,1,1
267308,-76.9230769230769,4,2,5,80,0,1
267939,659.340659340659,4,2,5,80,1,1
267939,-76.9230769230769,4,2,5,80,0,1
269917,645.161290322581,4,2,5,80,1,1
270562,648.648648648649,4,2,5,80,1,1
270562,-76.9230769230769,4,2,5,80,0,1
272178,-76.9230769230769,4,2,5,80,0,1
272348,-76.9230769230769,4,2,5,80,0,1
273156,666.666666666667,4,2,5,80,1,1
274489,655.737704918033,4,2,5,80,1,1
274489,-76.9230769230769,4,2,5,80,0,1
275800,655.737704918033,4,2,5,80,1,1
275800,-76.9230769230769,4,2,5,80,0,1
277111,643.43163538874,4,2,5,80,1,1
277111,-76.9230769230769,4,2,5,80,0,1
278397,652.173913043478,4,2,5,80,1,1
278397,-76.9230769230769,4,2,5,80,0,1
280030,-76.9230769230769,4,2,5,80,0,1
280346,-76.9230769230769,4,2,5,90,0,1
281005,638.297872340426,4,2,5,90,1,1
281643,648.648648648649,4,2,5,90,1,1
283588,659.340659340659,4,2,5,90,1,1
283588,-66.6666666666667,4,2,5,90,0,1
286225,648.648648648649,4,2,5,90,1,1
286546,-66.6666666666667,4,2,5,90,0,1
288819,653.950953678474,4,2,5,90,1,1
288819,-66.6666666666667,4,2,5,90,0,1
291434,650.406504065041,4,2,5,90,1,1
291434,-66.6666666666667,4,2,5,90,0,1
293709,-76.9230769230769,4,2,5,65,0,1
294035,652.173913043478,4,2,5,60,1,1
294035,-100,4,2,5,50,0,0
296643,-76.9230769230769,4,2,1,40,0,0

[Colours]
Combo1 : 32,141,240
Combo2 : 192,192,192
Combo3 : 142,245,251
Combo4 : 61,158,160

[HitObjects]
137,314,9920,5,0,1:2:0:0:
64,233,10576,5,0,1:2:0:0:
124,143,11232,5,0,1:2:0:0:
129,138,11888,5,0,1:2:0:0:
197,209,12215,5,0,0:0:0:0:
29,293,12543,6,0,P|117:296|161:345,1,135,0|0,1:2|0:0,0:0:0:0:
148,338,12953,1,0,0:0:0:0:
144,353,13035,2,0,P|114:358|102:359,1,33.75
24,282,13199,2,0,P|33:216|25:129,1,135,8|0,0:0|0:0,0:0:0:0:
150,39,13691,1,0,1:2:0:0:
32,0,13855,6,0,P|45:41|61:70,1,67.5,0|0,1:2|0:0,0:0:0:0:
182,138,14183,1,0,1:2:0:0:
193,130,14265,1,0,0:0:0:0:
198,117,14347,1,0,1:2:0:0:
157,46,14511,1,8,0:0:0:0:
224,1,14674,1,0,1:2:0:0:
350,67,14838,2,0,P|304:82|264:94,1,67.5
339,194,15166,6,0,B|399:207|399:207|421:225|421:225|486:238,1,135,0|0,1:2|0:0,0:0:0:0:
478,231,15576,1,0,0:0:0:0:
490,225,15658,2,0,P|492:195|489:176,1,33.75,0|0,1:2|0:0,0:0:0:0:
460,7,15822,2,0,P|420:32|415:123,1,135,8|0,0:0|0:0,0:0:0:0:
504,107,16314,1,0,1:2:0:0:
344,203,16478,6,0,P|294:215|214:242,1,135,0|0,1:2|1:2,0:0:0:0:
98,312,16970,2,0,P|112:262|128:180,1,135,0|0,0:0|1:2,0:0:0:0:
216,122,17461,2,0,P|207:91|196:39,1,67.5
6,145,17789,6,0,B|91:154|52:178|148:193,1,135,0|0,1:2|0:0,0:0:0:0:
143,195,18199,1,0,0:0:0:0:
149,206,18281,2,0,P|146:234|142:255,1,33.75
61,372,18445,2,0,P|37:305|0:216,1,135,8|0,0:0|0:0,0:0:0:0:
13,245,18937,1,0,1:2:0:0:
154,300,19101,6,0,P|195:314|224:323,1,67.5,0|0,1:2|0:0,0:0:0:0:
149,206,19429,1,0,1:2:0:0:
239,145,19592,2,0,P|307:175|308:254,1,135,0|0,1:2|1:2,0:0:0:0:
245,384,20084,2,0,P|229:346|211:306,1,67.5
77,148,20412,6,0,P|46:161|14:174,1,67.5,0|0,1:2|0:0,0:0:0:0:
146,61,20740,1,0,0:0:0:0:
178,62,20822,1,0,0:0:0:0:
205,78,20904,1,0,1:2:0:0:
222,106,20986,1,0,0:0:0:0:
223,137,21068,2,0,P|216:196|227:268,1,101.25,8|0,0:0|0:0,0:0:0:0:
225,253,21396,6,0,P|258:265|267:270,3,33.75,0|0|0|0,1:2|1:2|1:2|1:2,0:0:0:0:
341,193,21724,6,0,P|386:177|402:131,1,67.5,0|0,1:2|0:0,0:0:0:0:
475,136,21970,6,0,P|472:88|432:60,1,67.5,0|0,1:2|0:0,0:0:0:0:
407,14,22215,5,0,1:2:0:0:
296,105,22379,5,8,0:0:0:0:
331,190,22543,1,0,1:2:0:0:
414,262,22707,5,0,0:0:0:0:
406,285,22871,1,0,0:0:0:0:
264,277,23035,6,0,P|207:279|153:365,1,135,0|0,1:2|0:0,0:0:0:0:
163,345,23445,1,0,0:0:0:0:
175,349,23527,1,0,0:0:0:0:
187,344,23609,1,0,0:0:0:0:
197,335,23691,2,0,P|178:272|157:181,1,135,8|0,0:0|0:0,0:0:0:0:
252,240,24183,1,0,1:2:0:0:
104,307,24347,6,0,P|52:296|20:287,1,67.5,0|0,1:2|0:0,0:0:0:0:
103,206,24674,1,0,1:2:0:0:
25,105,24838,2,0,P|58:111|90:119,1,67.5,0|8,1:2|0:0,0:0:0:0:
292,94,25166,1,0,1:2:0:0:
294,17,25330,2,0,P|237:38|218:99,1,101.25
177,138,25658,6,0,P|244:158|333:187,1,135,0|0,1:2|0:0,0:0:0:0:
318,184,26068,1,0,0:0:0:0:
324,196,26150,1,0,1:2:0:0:
321,208,26232,1,0,0:0:0:0:
312,217,26314,2,0,P|261:181|277:107,1,135,8|0,0:0|0:0,0:0:0:0:
269,115,26806,1,0,1:2:0:0:
398,163,26970,5,0,1:2:0:0:
453,95,27133,1,0,0:0:0:0:
408,19,27297,1,0,1:2:0:0:
269,115,27461,2,0,P|284:148|296:180,1,67.5,0|8,0:0|0:0,0:0:0:0:
192,49,27789,1,0,1:2:0:0:
353,86,27953,2,0,P|338:53|326:21,1,67.5
103,196,28281,6,0,P|150:183|217:254,1,135,0|0,1:2|0:0,0:0:0:0:
211,246,28691,1,0,0:0:0:0:
209,259,28773,1,0,0:0:0:0:
212,272,28855,1,0,0:0:0:0:
219,283,28937,2,0,B|288:300|356:327,1,135,8|0,0:0|0:0,0:0:0:0:
347,323,29429,1,0,1:2:0:0:
455,212,29592,6,0,P|466:243|478:275,1,67.5,0|0,1:2|0:0,0:0:0:0:
478,275,29920,1,0,1:2:0:0:
306,221,30084,2,0,P|317:189|329:157,1,67.5,0|8,1:2|0:0,0:0:0:0:
442,134,30412,1,0,1:2:0:0:
269,43,30576,1,0,0:0:0:0:
398,11,30740,1,0,0:0:0:0:
398,11,30822,1,0,0:0:0:0:
398,11,30904,6,0,P|377:54|363:92,1,67.5,0|0,1:2|0:0,0:0:0:0:
223,148,31232,1,0,1:2:0:0:
200,139,31314,1,0,0:0:0:0:
176,133,31396,1,0,0:0:0:0:
152,129,31478,1,0,0:0:0:0:
128,125,31560,2,0,P|86:142|74:232,1,135,8|0,0:0|1:2,0:0:0:0:
69,223,32052,1,0,1:2:0:0:
117,329,32215,5,0,1:2:0:0:
103,348,32379,1,0,1:2:0:0:
199,257,32543,5,0,1:2:0:0:
214,372,32707,1,0,1:2:0:0:
270,174,32871,5,8,0:0:0:0:
361,380,33035,1,0,0:0:0:0:
506,194,33199,5,0,1:2:0:0:
484,224,33281,1,0,1:2:0:0:
452,243,33363,1,0,1:2:0:0:
414,243,33445,1,0,1:2:0:0:
378,232,33527,6,0,P|319:251|293:286,1,101.25,0|0,1:2|0:0,0:0:0:0:
289,285,33855,6,0,P|307:310|328:315,3,33.75
426,162,34183,6,0,P|429:117|343:52,1,135,8|0,0:0|0:0,0:0:0:0:
432,169,34674,1,0,1:2:0:0:
344,137,34838,2,0,P|286:150|198:175,1,135,0|0,1:2|1:2,0:0:0:0:
111,257,35330,1,0,1:2:0:0:
106,269,35412,1,0,0:0:0:0:
110,282,35494,2,0,P|150:299|176:281,1,67.5,8|0,0:0|1:2,0:0:0:0:
200,191,35822,2,0,P|180:136|162:66,1,101.25
97,48,36150,6,0,P|84:125|63:212,1,135,0|0,1:2|0:0,0:0:0:0:
64,192,36560,1,0,0:0:0:0:
50,190,36642,1,0,1:2:0:0:
37,184,36724,1,0,0:0:0:0:
30,172,36806,2,0,P|75:166|181:202,1,135,8|0,0:0|0:0,0:0:0:0:
223,144,37297,1,0,1:2:0:0:
369,252,37461,6,0,P|423:226|484:208,1,101.25,0|0,1:2|0:0,0:0:0:0:
498,279,37789,2,0,P|489:315|425:314,1,101.25,0|0,1:2|0:0,0:0:0:0:
357,238,38117,1,8,0:0:0:0:
416,180,38281,1,0,1:2:0:0:
333,69,38445,2,0,P|301:56|269:47,1,67.5
501,142,38773,1,0,1:2:0:0:
508,150,39101,5,0,0:0:0:0:
478,177,39182,1,0,0:0:0:0:
439,190,39264,1,0,0:0:0:0:
398,186,39346,1,0,0:0:0:0:
364,162,39429,6,0,P|360:195|345:234,1,67.5,8|0,0:0|0:0,0:0:0:0:
226,374,39756,2,0,P|214:340|208:237,1,135,0|0,0:0|1:2,0:0:0:0:
163,183,40248,1,0,0:0:0:0:
339,251,40412,5,0,1:2:0:0:
419,241,40576,1,0,1:2:0:0:
423,380,40740,1,8,0:0:0:0:
468,313,40904,1,0,1:2:0:0:
273,314,41068,2,0,P|320:332|366:343,1,67.5,0|0,1:2|0:0,0:0:0:0:
260,323,41396,6,0,P|174:340|133:350,1,101.25,0|0,1:2|0:0,0:0:0:0:
150,337,41724,2,0,P|128:351|121:366,3,33.75,0|0|0|0,0:0|0:0|1:2|0:0,0:0:0:0:
26,294,42052,2,0,P|47:239|47:211,1,67.5,8|0,0:0|0:0,0:0:0:0:
36,102,42379,5,0,1:2:0:0:
43,128,42461,1,0,1:2:0:0:
63,146,42543,1,0,1:2:0:0:
89,153,42625,1,0,1:2:0:0:
116,152,42707,6,0,P|115:108|135:68,1,67.5,0|0,1:2|0:0,0:0:0:0:
96,15,42953,6,0,P|138:1|181:10,1,67.5,0|0,1:2|0:0,0:0:0:0:
234,51,43199,5,0,1:2:0:0:
224,69,43281,1,0,1:2:0:0:
206,78,43363,1,8,0:0:0:0:
301,131,43527,1,0,1:2:0:0:
121,207,43691,5,0,0:0:0:0:
317,125,43855,1,0,0:0:0:0:
259,357,44019,6,0,B|261:253|222:293|228:182,1,168.75,0|0,1:2|0:0,0:0:0:0:
215,179,44511,2,0,P|221:158|222:137,2,33.75,0|0|8,0:0|0:0|0:0,0:0:0:0:
309,225,45002,1,0,0:0:0:0:
460,148,45166,1,0,1:2:0:0:
423,86,45330,6,0,P|432:118|446:149,1,67.5,0|0,1:2|0:0,0:0:0:0:
466,351,45658,5,0,1:2:0:0:
509,291,45822,1,0,1:2:0:0:
373,214,45986,2,0,P|318:199|284:191,1,67.5,8|0,0:0|1:2,0:0:0:0:
253,132,46314,2,0,P|220:140|187:149,1,67.5,0|0,1:2|0:0,0:0:0:0:
451,11,46642,6,0,P|484:77|464:162,1,135,0|0,1:2|0:0,0:0:0:0:
463,145,47052,1,0,0:0:0:0:
446,146,47133,1,0,1:2:0:0:
430,139,47215,1,0,0:0:0:0:
420,121,47297,2,0,P|454:107|486:91,1,67.5,8|0,0:0|0:0,0:0:0:0:
337,176,47625,1,0,0:0:0:0:
465,284,47789,1,0,1:2:0:0:
465,284,47871,1,0,0:0:0:0:
465,284,47953,6,0,P|407:257|329:270,1,135,0|0,1:0|1:2,0:0:0:0:
393,337,48445,1,0,0:0:0:0:
412,175,48609,2,0,P|422:106|427:16,1,135,8|0,0:0|0:0,0:0:0:0:
269,174,49101,1,0,0:0:0:0:
269,174,49183,1,0,0:0:0:0:
269,174,49265,6,0,P|259:130|248:94,1,67.5,0|0,1:2|0:0,0:0:0:0:
152,29,49592,1,0,0:0:0:0:
120,15,49674,1,0,0:0:0:0:
86,20,49756,1,0,0:0:0:0:
59,40,49838,1,0,0:0:0:0:
47,71,49920,2,0,P|91:82|125:97,1,67.5,8|0,0:0|0:0,0:0:0:0:
263,92,50248,2,0,P|270:59|282:27,1,67.5,0|0,0:0|1:2,0:0:0:0:
187,167,50576,5,0,1:2:0:0:
217,231,50740,1,0,0:0:0:0:
151,316,50904,2,0,P|133:273|124:248,1,67.5,0|0,1:2|1:2,0:0:0:0:
289,158,51232,2,0,P|321:187|327:295,1,135,8|0,0:0|0:0,0:0:0:0:
335,274,51724,1,0,0:0:0:0:
160,203,51888,6,0,B|113:218|113:218|86:248|86:248|19:270,1,135,0|0,1:2|1:2,0:0:0:0:
26,258,52297,1,0,0:0:0:0:
13,246,52379,1,0,0:0:0:0:
11,229,52461,1,0,0:0:0:0:
17,213,52543,2,0,P|28:165|31:137,1,67.5,8|0,0:0|0:0,0:0:0:0:
169,288,52871,2,0,P|211:306|243:317,1,67.5,0|0,1:2|0:0,0:0:0:0:
439,373,53199,5,0,1:2:0:0:
366,344,53363,1,0,1:2:0:0:
467,225,53527,5,0,1:2:0:0:
314,265,53691,1,0,1:2:0:0:
512,136,53855,5,8,0:0:0:0:
298,45,54019,1,0,1:2:0:0:
405,5,54183,5,0,1:2:0:0:
422,38,54265,1,0,1:2:0:0:
421,75,54347,1,0,1:2:0:0:
406,108,54429,1,0,1:2:0:0:
381,134,54511,6,0,P|362:163|359:257,1,101.25,0|0,1:2|0:0,0:0:0:0:
350,246,54838,2,0,P|381:249|391:240,3,33.75
485,376,55166,6,0,P|424:348|330:349,1,135,8|0,0:0|1:0,0:0:0:0:
280,378,55658,1,0,0:0:0:0:
154,283,55822,1,0,0:0:0:0:
213,226,55986,2,0,P|200:182|198:149,1,67.5,0|0,1:2|0:0,0:0:0:0:
271,289,56314,1,0,1:2:0:0:
31,326,56478,6,0,B|110:335|77:362|176:368,1,135,8|0,0:0|0:0,0:0:0:0:
107,250,56970,1,0,0:0:0:0:
202,154,57133,2,0,P|151:166|68:116,1,135,0|0,1:2|0:0,0:0:0:0:
77,111,57543,1,0,0:0:0:0:
82,91,57625,2,0,P|110:81|125:78,1,33.75
262,4,57789,6,0,P|273:55|306:161,1,135,8|0,0:0|1:2,0:0:0:0:
395,98,58281,1,0,1:2:0:0:
477,176,58445,2,0,P|492:127|505:94,1,67.5,0|0,1:2|0:0,0:0:0:0:
389,88,58773,1,0,1:2:0:0:
339,203,58937,2,0,P|289:218|257:231,1,67.5,0|8,0:0|0:0,0:0:0:0:
425,371,59265,2,0,P|447:321|408:240,1,135,0|0,1:2|0:0,0:0:0:0:
243,287,59756,6,0,P|284:298|326:309,1,67.5,0|0,1:2|0:0,0:0:0:0:
318,306,60002,1,0,0:0:0:0:
327,309,60084,1,0,1:2:0:0:
247,374,60248,1,0,0:0:0:0:
241,195,60412,6,0,P|200:206|158:217,1,67.5,0|0,1:0|0:0,0:0:0:0:
166,214,60658,1,0,0:0:0:0:
157,217,60740,1,0,1:2:0:0:
236,288,60904,1,0,0:0:0:0:
361,194,61068,6,0,P|372:153|383:111,1,67.5,0|0,1:2|0:0,0:0:0:0:
380,119,61314,1,0,0:0:0:0:
383,110,61396,1,0,1:2:0:0:
461,68,61560,1,0,0:0:0:0:
240,8,61724,6,0,P|251:49|262:91,1,67.5,0|0,1:2|0:0,0:0:0:0:
259,83,61970,1,0,0:0:0:0:
262,92,62052,1,0,1:2:0:0:
341,28,62215,1,0,0:0:0:0:
259,212,62379,6,0,P|210:204|185:177,1,67.5,0|0,1:2|0:0,0:0:0:0:
192,184,62625,1,0,0:0:0:0:
191,173,62707,1,0,1:2:0:0:
323,134,62871,1,0,0:0:0:0:
387,310,63035,6,0,P|436:302|461:275,1,67.5,0|0,1:2|0:0,0:0:0:0:
454,282,63281,1,0,0:0:0:0:
455,271,63363,1,0,1:2:0:0:
357,200,63527,1,0,0:0:0:0:
274,306,63691,5,0,0:0:0:0:
265,312,63773,1,0,0:0:0:0:
255,315,63855,1,0,0:0:0:0:
245,317,63937,1,0,0:0:0:0:
234,317,64019,1,0,1:2:0:0:
224,315,64101,1,0,0:0:0:0:
214,311,64183,1,0,1:2:0:0:
204,306,64265,1,0,0:0:0:0:
195,300,64347,5,8,0:0:0:0:
215,264,64429,1,0,0:0:0:0:
250,245,64511,1,0,1:2:0:0:
289,240,64592,1,0,0:0:0:0:
329,243,64674,1,0,1:2:0:0:
366,257,64756,1,0,1:2:0:0:
399,280,64838,1,0,1:2:0:0:
421,313,64920,1,0,1:2:0:0:
439,348,65002,6,0,P|407:300|426:231,1,121.499996292114,0|0,1:2|0:0,0:0:0:0:
428,229,65330,2,0,P|450:233|473:246,3,33.75
348,180,65658,6,0,P|375:145|479:149,1,135,8|0,0:0|0:0,0:0:0:0:
428,229,66150,1,0,1:2:0:0:
230,152,66314,2,0,P|254:215|276:278,1,135,0|0,1:2|1:2,0:0:0:0:
276,278,66806,1,0,1:2:0:0:
162,324,66970,2,0,P|183:349|215:355,1,67.5,8|0,0:0|1:2,0:0:0:0:
92,262,67297,1,0,0:0:0:0:
180,191,67461,6,0,P|190:214|196:226,2,33.75,0|0|0,0:0|0:0|1:2,0:0:0:0:
108,347,67789,2,0,P|74:351|41:357,1,67.5,0|0,1:2|0:0,0:0:0:0:
21,352,68035,1,0,0:0:0:0:
9,335,68117,1,0,1:2:0:0:
8,314,68199,1,0,0:0:0:0:
17,296,68281,2,0,P|40:261|35:180,1,101.25,8|0,0:0|0:0,0:0:0:0:
17,132,68609,1,0,0:0:0:0:
188,42,68773,1,0,1:2:0:0:
188,42,68855,1,0,0:0:0:0:
188,42,68937,6,0,P|126:38|53:97,2,135,0|0|8,1:2|1:2|0:0,0:0:0:0:
349,116,69756,1,0,1:2:0:0:
284,3,69920,2,0,B|270:53|270:53|268:58|268:58|255:100,1,101.25
167,183,70248,6,0,B|226:201|226:201|241:218|241:218|310:237,1,135,0|0,1:2|0:0,0:0:0:0:
309,224,70658,1,0,0:0:0:0:
321,208,70740,1,0,0:0:0:0:
327,188,70822,1,0,0:0:0:0:
326,166,70904,2,0,P|309:112|310:78,1,67.5,8|0,0:0|0:0,0:0:0:0:
318,28,71232,1,0,0:0:0:0:
383,75,71396,1,0,1:2:0:0:
365,268,71560,5,0,1:2:0:0:
287,243,71724,1,0,0:0:0:0:
259,166,71888,1,0,1:2:0:0:
308,101,72052,1,0,1:2:0:0:
368,171,72215,5,8,0:0:0:0:
188,265,72379,1,0,1:2:0:0:
150,186,72543,5,0,0:0:0:0:
362,294,72707,1,0,0:0:0:0:
275,65,72871,5,4,1:2:0:0:
271,57,73199,6,0,P|266:32|261:14,3,33.75,0|0|0|0,0:0|0:0|1:2|0:0,0:0:0:0:
291,141,73527,1,8,0:0:0:0:
325,241,73855,5,0,1:2:0:0:
342,240,73937,1,0,1:2:0:0:
357,234,74019,1,0,1:2:0:0:
371,225,74101,1,0,1:2:0:0:
381,211,74183,6,0,P|391:172|383:136,1,67.5,0|0,1:2|0:0,0:0:0:0:
434,76,74429,6,0,P|399:55|362:53,1,67.5,0|0,1:2|0:0,0:0:0:0:
299,17,74674,5,0,1:2:0:0:
289,31,74756,1,0,1:2:0:0:
288,47,74838,1,8,0:0:0:0:
338,142,75002,1,0,1:2:0:0:
276,230,75166,1,0,0:0:0:0:
329,323,75330,1,0,0:0:0:0:
495,195,75494,6,0,P|446:218|357:228,1,135,2|0,1:2|0:0,0:0:0:0:
353,223,75904,1,0,0:0:0:0:
344,207,75986,2,0,P|343:191|351:164,1,33.75
404,106,76150,5,8,0:0:0:0:
404,106,76314,1,0,0:0:0:0:
351,31,76478,1,0,1:2:0:0:
260,95,76642,1,0,1:2:0:0:
142,27,76806,6,0,P|156:64|168:99,1,67.5,0|0,1:2|0:0,0:0:0:0:
294,201,77133,2,0,P|240:221|204:233,1,67.5,0|0,0:0|1:2,0:0:0:0:
215,233,77379,1,0,0:0:0:0:
205,247,77461,5,8,0:0:0:0:
289,303,77625,1,0,1:2:0:0:
122,323,77789,1,0,0:0:0:0:
206,379,77953,1,0,0:0:0:0:
32,372,78117,6,0,P|18:331|2:289,1,67.5,2|0,1:2|0:0,0:0:0:0:
113,203,78445,2,0,P|120:180|129:157,3,33.75
26,222,78773,5,8,0:0:0:0:
96,285,78937,1,0,0:0:0:0:
186,258,79101,1,0,1:2:0:0:
269,302,79265,1,0,1:2:0:0:
181,255,79429,6,0,P|170:287|159:319,1,67.5,2|0,1:2|0:0,0:0:0:0:
269,254,79756,1,0,1:2:0:0:
166,114,79920,1,0,1:2:0:0:
222,59,80084,6,0,P|242:89|244:130,1,67.5,8|0,0:0|1:2,0:0:0:0:
358,278,80412,2,0,P|324:317|267:337,1,101.25
259,337,80740,5,2,1:2:0:0:
150,243,80904,1,0,0:0:0:0:
150,243,80986,1,0,0:0:0:0:
150,243,81068,2,0,P|99:257|65:269,1,67.5,0|0,1:2|0:0,0:0:0:0:
162,345,81396,5,0,1:2:0:0:
292,197,81560,1,0,0:0:0:0:
292,197,81642,1,0,0:0:0:0:
292,197,81724,2,0,P|343:211|377:223,1,67.5,0|0,1:2|0:0,0:0:0:0:
266,284,82052,5,0,1:2:0:0:
175,155,82215,1,0,0:0:0:0:
175,155,82297,1,0,0:0:0:0:
175,155,82379,2,0,P|161:104|149:70,1,67.5,0|0,1:2|0:0,0:0:0:0:
149,285,82707,5,0,1:2:0:0:
299,140,82871,1,0,0:0:0:0:
299,140,82953,1,0,0:0:0:0:
299,140,83035,2,0,P|313:89|325:55,1,67.5,0|0,1:2|0:0,0:0:0:0:
205,19,83363,5,0,1:2:0:0:
131,67,83527,1,0,0:0:0:0:
119,78,83609,1,0,0:0:0:0:
117,94,83691,1,0,1:2:0:0:
167,172,83855,1,0,0:0:0:0:
104,263,84019,1,0,1:2:0:0:
10,219,84183,1,0,0:0:0:0:
18,204,84265,1,0,0:0:0:0:
33,196,84347,1,0,1:2:0:0:
108,139,84511,1,0,0:0:0:0:
209,258,84674,6,0,P|214:274|219:290,1,33.75,0|0,1:2|0:0,0:0:0:0:
144,329,84838,2,0,P|139:313|134:297,1,33.75
287,217,85002,2,0,P|292:233|297:248,3,33.75,0|0|0|0,1:2|0:0|1:2|0:0,0:0:0:0:
365,180,85330,5,8,0:0:0:0:
457,306,85494,1,0,1:2:0:0:
442,296,85576,1,0,1:2:0:0:
431,282,85658,2,0,P|432:254|444:233,1,33.75,0|0,1:2|1:2,0:0:0:0:
404,91,85822,5,0,1:2:0:0:
442,104,85904,1,0,1:2:0:0:
465,136,85986,6,0,P|416:162|346:184,1,101.25,2|0,1:2|0:0,0:0:0:0:
367,180,86314,2,0,P|345:167|334:146,3,33.75
467,216,86642,5,8,0:0:0:0:
394,99,86806,1,0,0:0:0:0:
441,28,86970,1,0,0:0:0:0:
498,81,87133,1,0,1:2:0:0:
377,235,87297,6,0,P|326:222|277:212,1,101.25,0|0,1:2|0:0,0:0:0:0:
263,212,87625,1,0,1:2:0:0:
320,139,87789,1,0,1:2:0:0:
147,10,87953,6,0,P|156:46|171:81,1,67.5,8|0,0:0|1:2,0:0:0:0:
258,79,88281,1,0,0:0:0:0:
70,201,88445,1,0,0:0:0:0:
137,258,88609,6,0,P|179:271|291:306,1,135,2|0,1:2|0:0,0:0:0:0:
281,310,89019,1,0,0:0:0:0:
286,329,89101,1,0,0:0:0:0:
278,347,89183,1,0,0:0:0:0:
260,357,89265,5,8,0:0:0:0:
193,277,89429,1,0,0:0:0:0:
264,202,89592,1,0,0:0:0:0:
352,235,89756,1,0,1:2:0:0:
159,120,89920,6,0,P|168:156|180:199,1,67.5,2|0,1:2|0:0,0:0:0:0:
272,296,90248,2,0,B|351:305|318:332|417:338,1,135,0|8,1:2|0:0,0:0:0:0:
399,336,90740,1,0,1:2:0:0:
245,369,90904,1,0,0:0:0:0:
185,311,91068,1,0,0:0:0:0:
182,290,91150,1,0,0:0:0:0:
190,270,91232,6,0,P|206:236|207:198,1,67.5,2|0,1:2|0:0,0:0:0:0:
119,115,91560,1,0,0:0:0:0:
92,99,91642,1,0,0:0:0:0:
61,99,91724,1,0,0:0:0:0:
35,115,91806,1,0,0:0:0:0:
22,142,91888,2,0,P|34:179|45:210,1,67.5,8|0,0:0|0:0,0:0:0:0:
109,321,92215,2,0,P|76:351|36:355,1,67.5,0|0,0:0|1:2,0:0:0:0:
208,206,92543,6,0,P|273:209|335:269,1,135,0|0,1:2|1:2,0:0:0:0:
242,281,93035,1,0,1:2:0:0:
115,175,93199,2,0,P|99:121|92:91,1,67.5,8|0,0:0|1:2,0:0:0:0:
167,47,93527,2,0,P|175:79|185:111,1,67.5
30,232,93855,6,0,B|98:252|98:252|116:278|116:278|191:301,1,168.75,0|0,1:2|0:0,0:0:0:0:
194,297,94347,2,0,P|199:278|205:254,1,33.75,0|0,1:2|0:0,0:0:0:0:
276,177,94511,2,0,P|286:199|294:215,1,33.75,8|0,0:0|0:0,0:0:0:0:
389,271,94674,5,0,0:0:0:0:
394,274,94756,1,0,0:0:0:0:
390,278,94838,2,0,P|383:257|377:244,3,33.75,0|0|0|0,1:2|1:2|1:2|1:2,0:0:0:0:
260,368,95166,6,0,P|240:324|254:289,1,67.5,0|0,1:2|0:0,0:0:0:0:
272,235,95412,6,0,P|281:193|253:155,1,67.5,0|0,1:2|0:0,0:0:0:0:
255,99,95658,5,0,1:2:0:0:
170,239,95822,5,8,0:0:0:0:
363,164,95986,2,0,P|429:185|500:208,1,135,0|0,1:2|0:0,0:0:0:0:
503,217,96396,1,0,0:0:0:0:
506,233,96478,5,0,1:2:0:0:
396,262,96642,1,0,0:0:0:0:
350,167,96806,2,0,P|358:143|365:119,1,33.75
474,321,96970,2,0,P|467:343|459:363,2,33.75,0|0|8,0:0|0:0|0:0,0:0:0:0:
465,91,97461,5,0,0:0:0:0:
401,30,97625,1,0,1:2:0:0:
314,46,97789,2,0,P|324:86|336:122,1,67.5,0|0,1:2|0:0,0:0:0:0:
212,20,98117,1,0,1:2:0:0:
90,115,98281,1,0,1:2:0:0:
16,68,98445,6,0,P|59:83|171:86,1,135,8|0,0:0|0:0,0:0:0:0:
244,149,98937,1,0,0:0:0:0:
251,160,99019,1,0,0:0:0:0:
251,173,99101,5,0,1:2:0:0:
178,233,99265,1,0,1:2:0:0:
88,203,99429,2,0,P|99:178|103:165,1,33.75
232,43,99592,2,0,P|221:18|217:5,2,33.75,0|0|8,1:2|0:0|0:0,0:0:0:0:
356,183,100084,5,0,0:0:0:0:
298,228,100248,1,0,1:0:0:0:
354,308,100412,6,0,B|340:229|340:229|308:192|308:192|296:115,1,202.5,0|0,1:2|0:0,0:0:0:0:
390,41,101068,2,0,P|454:54|486:110,1,135,8|0,0:0|0:0,0:0:0:0:
392,207,101560,1,0,0:0:0:0:
374,203,101642,1,0,0:0:0:0:
362,190,101724,5,0,1:2:0:0:
404,121,101888,1,0,0:0:0:0:
512,206,102052,2,0,P|471:221|460:224,1,33.75
312,310,102215,2,0,P|353:325|364:328,2,33.75,0|0|8,0:0|0:0|0:0,0:0:0:0:
307,112,102707,5,0,0:0:0:0:
230,138,102871,1,0,1:2:0:0:
154,167,103035,2,0,P|114:177|78:189,1,67.5,0|0,1:2|0:0,0:0:0:0:
254,225,103363,5,0,1:2:0:0:
316,108,103527,1,0,1:2:0:0:
198,8,103691,6,0,P|183:51|180:96,1,67.5,8|0,0:0|1:2,0:0:0:0:
121,119,104019,1,0,0:0:0:0:
213,243,104183,1,0,0:0:0:0:
148,311,104347,6,0,P|167:262|177:158,1,135,0|0,1:2|0:0,0:0:0:0:
177,160,104756,1,0,0:0:0:0:
167,142,104838,1,0,1:2:0:0:
151,129,104920,1,0,0:0:0:0:
132,121,105002,6,0,P|76:136|44:188,1,101.25,8|0,0:0|0:0,0:0:0:0:
42,189,105330,2,0,P|59:192|83:200,1,33.75,0|0,1:2|1:2,0:0:0:0:
149,285,105494,2,0,P|165:280|181:277,1,33.75,0|0,1:2|1:2,0:0:0:0:
300,210,105658,5,0,1:2:0:0:
293,223,105822,2,0,P|300:245|306:262,2,33.75,0|0|0,0:0|1:2|0:0,0:0:0:0:
307,97,106150,5,0,1:2:0:0:
204,173,106314,2,0,P|184:140|198:100,1,67.5,8|0,0:0|1:2,0:0:0:0:
129,49,106642,2,0,P|155:20|197:23,1,67.5
195,22,106888,1,0,0:0:0:0:
205,30,106970,5,0,1:2:0:0:
299,88,107133,1,0,0:0:0:0:
394,42,107297,2,0,P|388:25|383:9,1,33.75
511,164,107461,1,0,0:0:0:0:
511,164,107543,1,0,0:0:0:0:
511,164,107625,6,0,P|481:146|365:174,1,135,8|0,0:0|0:0,0:0:0:0:
385,257,108117,2,0,P|389:293|373:334,1,67.5,0|0,1:2|1:2,0:0:0:0:
207,231,108445,1,0,0:0:0:0:
280,176,108609,2,0,P|279:218|298:255,1,67.5,0|0,1:2|1:2,0:0:0:0:
448,110,108937,2,0,P|419:88|369:102,1,67.5,8|0,0:0|0:0,0:0:0:0:
394,266,109265,2,0,P|444:280|480:291,1,67.5,0|0,1:2|0:0,0:0:0:0:
476,284,109511,5,0,0:0:0:0:
491,277,109592,1,0,1:2:0:0:
408,180,109755,1,0,0:0:0:0:
290,235,109919,2,0,P|298:261|305:282,1,33.75
380,347,110083,1,0,1:2:0:0:
380,347,110165,1,0,0:0:0:0:
380,347,110247,6,8,P|350:365|234:337,1,135,8|0,0:0|1:2,0:0:0:0:
240,339,110658,1,0,1:2:0:0:
230,320,110740,1,0,1:2:0:0:
228,299,110822,1,0,1:2:0:0:
236,280,110904,1,0,1:2:0:0:
316,214,111068,2,0,P|306:186|301:169,2,33.75,0|0|0,0:0|1:2|0:0,0:0:0:0:
239,117,111396,1,0,1:2:0:0:
377,73,111560,2,0,P|340:93|308:99,1,67.5,8|0,0:0|1:2,0:0:0:0:
173,63,111888,2,0,P|128:55|96:56,1,67.5
87,62,112133,1,0,0:0:0:0:
72,75,112215,5,0,1:2:0:0:
26,165,112378,1,0,0:0:0:0:
82,249,112542,2,0,P|108:241|129:234,1,33.75
229,135,112707,1,0,0:0:0:0:
229,135,112789,1,0,0:0:0:0:
229,135,112871,6,0,P|209:187|185:285,1,135,8|0,0:0|0:0,0:0:0:0:
17,322,113363,1,0,1:2:0:0:
114,381,113527,2,0,P|102:326|100:289,1,67.5,0|0,1:2|0:0,0:0:0:0:
195,343,113855,1,0,1:2:0:0:
100,314,114019,1,0,1:2:0:0:
99,293,114101,1,0,0:0:0:0:
104,273,114183,5,8,0:0:0:0:
177,195,114347,1,0,1:2:0:0:
235,295,114511,1,0,0:0:0:0:
64,183,114674,1,0,0:0:0:0:
267,104,114838,6,0,P|296:135|274:247,1,135,0|0,1:0|0:0,0:0:0:0:
278,235,115248,1,0,0:0:0:0:
257,235,115330,1,0,1:2:0:0:
239,224,115412,1,0,0:0:0:0:
228,206,115494,6,0,P|275:201|385:240,1,135,8|0,0:0|1:2,0:0:0:0:
373,237,115904,1,0,1:2:0:0:
390,246,115986,1,0,1:2:0:0:
409,250,116068,1,0,1:2:0:0:
429,248,116150,5,0,1:2:0:0:
349,135,116396,5,0,1:2:0:0:
276,280,116642,5,0,1:2:0:0:
458,120,116806,5,8,0:0:0:0:
229,187,116970,1,0,1:2:0:0:
449,302,117133,1,0,0:0:0:0:
463,296,117461,6,0,P|455:331|448:370,1,67.5,2|0,0:0|0:0,0:0:0:0:
372,195,117789,1,2,0:1:0:0:
362,190,118117,6,0,P|355:156|348:123,1,67.5,2|0,3:0|0:0,0:0:0:0:
253,311,118445,1,2,0:1:0:0:
243,303,118773,6,0,P|298:273|387:313,1,135,2|0,0:0|0:0,0:0:0:0:
310,350,119265,1,0,0:0:0:0:
156,326,119429,2,0,P|166:283|169:252,1,67.5,2|0,3:0|0:0,0:0:0:0:
156,326,119756,1,0,0:0:0:0:
307,208,120084,6,0,P|297:165|294:134,1,67.5,2|0,0:0|0:0,0:0:0:0:
294,117,120330,1,0,0:0:0:0:
294,117,120412,1,0,0:0:0:0:
221,172,120576,1,0,0:0:0:0:
375,264,120740,2,0,P|383:231|388:198,1,67.5,2|0,0:3|0:0,0:0:0:0:
418,47,121068,2,0,P|413:80|405:113,1,67.5
333,147,121314,5,0,0:0:0:0:
333,147,121396,2,0,B|258:163|279:193|180:194,1,135,2|0,0:0|0:0,0:0:0:0:
132,160,121888,1,0,0:0:0:0:
206,110,122052,2,0,P|196:73|197:37,1,67.5,2|0,0:3|0:0,0:0:0:0:
100,11,122379,2,0,P|109:54|110:88,1,67.5
0,147,122707,6,0,P|55:156|146:176,1,135,2|0,0:0|0:0,0:0:0:0:
176,237,123199,1,0,0:0:0:0:
120,304,123363,2,0,P|89:254|98:226,1,67.5,2|0,0:3|0:0,0:0:0:0:
131,152,123691,2,0,P|170:108|199:109,1,67.5
307,190,124019,6,0,B|269:205|269:205|264:212|264:212|198:236,1,101.25,2|0,0:0|0:0,0:0:0:0:
201,234,124347,1,0,0:0:0:0:
332,281,124511,1,0,0:0:0:0:
400,214,124674,2,0,P|411:164|421:130,1,67.5,2|0,0:3|0:0,0:0:0:0:
244,310,125002,2,0,P|195:325|160:333,1,67.5
430,346,125330,6,0,P|483:362|498:392,1,67.5,2|0,0:0|0:0,0:0:0:0:
329,364,125658,1,0,0:0:0:0:
432,246,125822,1,0,0:0:0:0:
268,166,125986,2,0,P|281:196|293:228,1,67.5,2|0,0:3|0:0,0:0:0:0:
476,67,126314,2,0,P|462:97|450:129,1,67.5
392,270,126642,6,0,P|440:292|522:251,2,135,2|0|8,0:0|0:0|0:0,0:0:0:0:
323,144,127543,5,8,0:0:0:0:
323,144,127625,2,0,P|318:126|311:102,1,33.75,8|0,0:0|0:0,0:0:0:0:
380,77,127789,2,0,P|384:93|389:109,1,33.75,8|0,0:0|0:0,0:0:0:0:
258,267,127953,6,0,P|264:289|270:306,3,33.75,0|0|0|0,1:2|0:0|0:0|0:0,0:0:0:0:
231,173,128281,5,0,0:0:0:0:
291,384,128445,1,0,1:2:0:0:
231,173,128609,1,8,0:1:0:0:
80,310,129101,5,0,0:0:0:0:
80,310,129183,1,0,0:0:0:0:
80,310,129265,2,0,P|74:332|68:349,3,33.75,0|0|0|0,1:2|0:0|1:2|0:0,0:0:0:0:
9,190,129592,5,0,0:0:0:0:
211,295,129756,1,0,1:2:0:0:
135,211,130084,5,0,1:2:0:0:
90,276,130248,1,0,0:0:0:0:
235,69,130576,6,0,P|229:52|225:36,3,33.75,0|0|0|0,1:2|0:0|0:0|0:0,0:0:0:0:
134,97,130904,5,8,0:1:0:0:
342,21,131068,1,0,0:0:0:0:
134,97,131232,1,8,0:1:0:0:
353,188,131724,5,0,0:0:0:0:
353,188,131806,1,0,0:0:0:0:
353,188,131888,2,0,P|384:200|396:203,4,33.75,0|0|0|0|0,1:2|0:0|1:2|0:0|0:0,0:0:0:0:
321,272,132379,1,0,1:2:0:0:
386,96,132543,5,8,0:1:0:0:
304,100,132707,1,0,0:0:0:0:
257,166,132871,2,0,P|275:206|286:272,1,101.25,0|0,1:2|0:0,0:0:0:0:
250,327,133199,6,0,P|192:330|160:260,1,135,0|0,1:2|0:0,0:0:0:0:
159,258,133609,1,0,0:0:0:0:
163,249,133691,2,0,P|181:234|207:227,1,33.75,0|0,1:2|0:0,0:0:0:0:
277,156,133855,2,0,B|352:172|331:202|430:203,1,135,8|0,0:0|0:0,0:0:0:0:
387,91,134347,1,0,1:2:0:0:
387,91,134429,1,0,1:2:0:0:
387,91,134511,6,0,P|447:82|469:60,1,67.5,0|0,1:2|0:0,0:0:0:0:
309,3,134838,2,0,P|287:41|287:84,1,67.5,0|0,1:2|1:2,0:0:0:0:
219,113,135166,1,8,0:0:0:0:
291,160,135330,1,0,1:2:0:0:
259,304,135494,2,0,P|242:258|215:206,1,101.25
209,202,135822,6,0,P|171:183|91:249,1,135,0|0,1:2|0:0,0:0:0:0:
94,238,136232,1,0,0:0:0:0:
96,251,136314,1,0,1:2:0:0:
102,262,136396,1,0,0:0:0:0:
111,271,136478,6,0,P|125:217|146:148,1,101.25,8|0,0:0|0:0,0:0:0:0:
142,158,136806,2,0,P|137:131|126:115,3,33.75,0|0|0|0,1:2|1:2|1:2|1:2,0:0:0:0:
195,81,137133,6,0,P|161:53|125:54,1,67.5,10|0,1:2|0:0,0:0:0:0:
81,7,137379,6,0,P|44:31|35:66,1,67.5,10|0,1:2|0:0,0:0:0:0:
5,120,137625,5,10,1:2:0:0:
108,213,137789,5,10,0:0:0:0:
225,169,137953,1,0,0:0:0:0:
329,221,138117,5,0,0:0:0:0:
406,243,138281,1,0,0:0:0:0:
241,320,138445,6,0,P|219:272|233:233,1,67.5,2|0,1:2|0:0,0:0:0:0:
307,132,138773,2,0,P|308:71|275:26,1,101.25
273,29,139101,5,8,0:0:0:0:
207,136,139265,1,0,0:0:0:0:
327,218,139429,1,0,1:2:0:0:
410,103,139592,1,0,1:2:0:0:
273,29,139756,6,0,P|233:45|153:59,1,101.25,2|0,1:2|0:0,0:0:0:0:
159,54,140084,2,0,P|194:68|222:95,1,67.5,0|0,0:0|1:2,0:0:0:0:
224,98,140330,1,0,0:0:0:0:
223,111,140412,5,8,0:0:0:0:
141,147,140576,1,0,1:2:0:0:
0,25,140740,1,0,0:0:0:0:
44,111,140904,1,0,0:0:0:0:
7,215,141068,6,0,P|44:230|73:245,1,67.5,2|0,1:2|0:0,0:0:0:0:
179,309,141396,1,0,0:0:0:0:
115,354,141560,2,0,P|163:338|272:323,1,135
400,271,142052,1,0,1:2:0:0:
348,341,142215,1,0,1:2:0:0:
201,223,142379,5,2,1:2:0:0:
201,223,142543,1,0,0:0:0:0:
267,172,142707,2,0,P|314:187|352:196,1,67.5,0|0,1:2|1:2,0:0:0:0:
417,30,143035,1,0,1:2:0:0:
417,30,143117,1,0,1:2:0:0:
417,30,143199,2,0,P|377:40|357:43,1,33.75,0|0,1:2|1:2,0:0:0:0:
277,63,143363,2,0,P|260:59|244:54,1,33.75
153,19,143527,1,0,1:2:0:0:
264,187,143691,6,0,P|276:120|286:54,1,135,2|0,1:2|0:0,0:0:0:0:
281,37,144101,1,0,0:0:0:0:
266,23,144183,2,0,P|262:49|258:62,1,33.75
348,205,144347,1,8,0:0:0:0:
300,266,144674,5,0,0:0:0:0:
245,219,144838,1,0,1:2:0:0:
305,124,145002,6,0,P|358:142|374:232,1,135,2|0,1:2|0:0,0:0:0:0:
299,293,145494,1,0,0:0:0:0:
289,279,145576,1,0,0:0:0:0:
287,263,145658,6,0,P|286:245|292:220,1,33.75,10|0,0:0|0:0,0:0:0:0:
305,124,145822,2,0,P|321:132|339:149,1,33.75,10|0,0:0|0:0,0:0:0:0:
446,215,145986,2,0,P|395:225|358:207,1,67.5
298,350,146314,6,0,P|339:356|443:385,1,135,2|0,1:2|0:0,0:0:0:0:
447,379,146724,1,0,0:0:0:0:
458,365,146806,1,0,1:2:0:0:
460,348,146888,1,0,0:0:0:0:
452,333,146970,1,8,0:0:0:0:
329,262,147133,1,0,0:0:0:0:
487,166,147297,6,0,P|492:199|503:231,1,67.5,0|0,0:0|1:2,0:0:0:0:
339,160,147625,2,0,P|325:113|322:86,1,67.5,2|0,1:2|0:0,0:0:0:0:
322,94,147953,1,2,0:0:0:0:
420,117,148117,1,0,0:0:0:0:
242,53,148281,1,10,0:0:0:0:
387,10,148445,1,0,1:2:0:0:
254,183,148609,1,2,0:0:0:0:
393,0,148773,1,0,0:0:0:0:
474,209,148937,1,2,1:2:0:0:
489,227,149265,6,0,P|479:186|453:88,1,135,0|10,0:0|0:0,0:0:0:0:
455,96,149756,1,0,0:0:0:0:
435,313,149920,1,0,0:0:0:0:
376,260,150084,1,0,1:2:0:0:
369,244,150166,1,0,1:2:0:0:
373,227,150248,6,0,P|426:207|507:243,1,135,2|0,1:2|1:2,0:0:0:0:
355,113,150740,2,0,B|297:134|297:134|282:149|282:149|212:172,1,135,0|0,1:2|1:2,0:0:0:0:
280,240,151232,1,0,0:0:0:0:
141,163,151396,1,0,0:0:0:0:
236,83,151560,2,0,P|248:42|252:10,1,67.5,2|0,1:2|1:2,0:0:0:0:
149,59,151888,1,0,0:0:0:0:
222,171,152052,1,0,1:2:0:0:
328,113,152215,2,0,P|376:124|395:145,1,67.5,8|0,0:0|0:0,0:0:0:0:
399,148,152461,1,0,0:0:0:0:
401,164,152543,1,0,0:0:0:0:
311,210,152707,1,0,1:2:0:0:
233,91,152871,6,0,P|220:52|213:19,1,67.5,2|0,1:2|0:0,0:0:0:0:
62,132,153199,2,0,B|124:143|102:160|178:167,1,101.25,2|0,1:2|0:0,0:0:0:0:
175,161,153527,1,8,0:0:0:0:
298,274,153691,1,0,1:2:0:0:
366,246,153855,2,0,P|326:257|292:263,1,67.5
475,94,154183,6,0,P|410:125|333:97,1,135,2|0,1:2|0:0,0:0:0:0:
340,98,154592,1,0,0:0:0:0:
335,81,154674,1,0,0:0:0:0:
339,64,154756,1,0,0:0:0:0:
348,49,154838,2,0,P|370:99|376:137,2,67.5,8|0|0,0:0|0:0|0:0,0:0:0:0:
160,323,155494,6,0,P|137:266|134:167,2,135,2|0|8,1:2|1:2|0:0,0:0:0:0:
154,120,156314,1,0,1:2:0:0:
27,249,156642,1,0,0:0:0:0:
27,249,156724,1,0,0:0:0:0:
27,249,156806,6,0,P|78:245|232:295,1,202.5,2|0,1:2|0:0,0:0:0:0:
233,299,157379,1,0,0:0:0:0:
242,312,157461,1,8,0:0:0:0:
142,363,157625,1,0,0:0:0:0:
336,260,157789,2,0,P|320:223|311:189,1,67.5,0|0,1:2|0:0,0:0:0:0:
365,49,158117,5,0,1:2:0:0:
395,125,158281,1,0,1:2:0:0:
267,10,158445,5,0,1:2:0:0:
233,149,158609,1,0,1:2:0:0:
79,4,158773,5,8,0:0:0:0:
131,214,158937,1,0,1:2:0:0:
46,136,159101,5,0,1:2:0:0:
69,112,159183,1,0,1:2:0:0:
100,100,159265,1,0,1:2:0:0:
133,100,159347,1,0,1:2:0:0:
164,109,159429,6,0,B|218:197|219:276|162:298|125:289|87:248|125:206,1,283.499991348267,4|0,0:0|0:0,0:0:0:0:
127,207,160740,6,0,P|155:204|271:262,1,162,0|0,0:0|1:2,0:0:0:0:
496,279,162052,6,0,B|376:275|428:337|315:343|315:343|367:323|376:281,1,283.499991348267
439,384,163363,6,0,P|402:305|388:185,1,202.5,2|0,0:0|0:0,0:0:0:0:
487,159,164511,5,0,0:0:0:0:
487,159,164674,2,0,P|444:180|328:93,1,202.5,2|0,0:0|0:0,0:0:0:0:
162,27,165986,6,0,B|181:102|197:178|197:178|184:148|168:131,1,202.5,2|0,0:0|0:0,0:0:0:0:
283,82,167297,6,0,B|162:94|210:124|90:138,1,202.5,2|0,0:0|0:0,0:0:0:0:
90,137,168445,5,0,0:0:0:0:
29,89,168609,2,0,P|25:78|21:67,4,16.875,2|0|0|0|0,0:0|0:0|0:0|0:0|0:0,0:0:0:0:
95,31,169265,1,0,0:0:0:0:
127,288,169756,5,0,0:0:0:0:
136,281,169920,2,0,P|95:273|7:242,1,135,4|0,0:0|0:0,0:0:0:0:
0,229,170904,1,2,0:0:0:0:
81,175,171232,5,2,0:0:0:0:
200,236,171560,5,2,0:0:0:0:
326,166,171888,5,2,0:0:0:0:
433,220,172215,5,2,0:0:0:0:
465,115,172543,6,0,P|426:132|329:148,1,135,2|0,0:0|0:0,0:0:0:0:
325,145,173527,1,0,0:0:0:0:
410,0,173855,5,0,1:2:0:0:
400,6,173937,2,0,P|404:20|406:32,2,16.875
491,49,174265,2,0,P|485:74|471:139,1,84.375
449,346,175166,6,0,B|413:335|369:333|369:333|341:306|341:306|298:303|254:291,1,202.5,4|0,0:0|0:0,0:0:0:0:
235,305,176478,1,2,0:0:0:0:
195,229,176806,1,2,0:0:0:0:
225,198,177133,1,2,0:0:0:0:
186,117,177461,1,2,0:0:0:0:
236,45,177789,6,0,P|270:63|299:219,1,202.5,2|0,0:0|0:0,0:0:0:0:
303,210,178937,1,0,0:0:0:0:
221,145,179101,5,8,0:3:0:0:
374,68,179592,5,8,0:3:0:0:
425,232,180084,5,0,1:2:0:0:
301,338,180412,6,0,P|307:285|323:150,1,185.625
322,153,182707,1,0,0:0:0:0:
394,314,183035,5,0,1:2:0:0:
467,233,183691,5,0,1:2:0:0:
407,143,184347,5,0,1:2:0:0:
402,138,185003,5,0,1:2:0:0:
365,155,185166,1,0,0:0:0:0:
348,192,185330,1,0,0:0:0:0:
356,231,185494,1,0,0:0:0:0:
442,306,185658,6,0,P|361:314|344:337,1,91.1249972190858,0|0,1:2|0:0,0:0:0:0:
350,328,185986,2,0,P|352:350|359:363,3,30.3749990730286
475,294,186314,2,0,P|462:259|462:233,1,60.7499981460572,8|0,0:0|0:0,0:0:0:0:
372,207,186642,2,0,P|378:170|391:147,1,60.7499981460572,0|0,0:0|1:2,0:0:0:0:
474,65,186970,6,0,P|417:70|357:39,2,121.499996292114,0|0|8,1:2|1:2|0:0,0:0:0:0:
472,40,187789,1,0,1:2:0:0:
450,28,187953,1,0,0:0:0:0:
425,24,188117,1,0,0:0:0:0:
400,26,188281,6,0,P|412:65|416:92,1,60.7499981460572,0|0,1:2|1:2,0:0:0:0:
331,155,188609,2,0,P|333:177|340:190,3,30.3749990730286,0|0|0|0,0:0|0:0|1:2|0:0,0:0:0:0:
247,83,188937,2,0,P|284:70|316:62,2,60.7499981460572,8|0|0,0:0|0:0|0:0,0:0:0:0:
122,78,189429,1,0,1:2:0:0:
131,67,189592,6,0,P|146:102|164:163,1,91.1249972190858,0|0,1:2|0:0,0:0:0:0:
183,163,189920,2,0,P|173:198|169:260,1,91.1249972190858,0|0,1:2|0:0,0:0:0:0:
166,270,190248,1,8,0:0:0:0:
106,311,190412,1,0,1:2:0:0:
38,282,190576,2,0,P|20:238|0:204,1,60.7499981460572
200,346,190904,6,0,P|263:353|335:377,1,121.499996292114,0|0,1:2|0:0,0:0:0:0:
395,314,191396,2,0,P|400:335|409:353,2,30.3749990730286,0|0|8,0:0|0:0|0:0,0:0:0:0:
301,109,191888,6,0,P|327:131|397:138,1,91.1249972190858
397,137,192215,2,0,P|402:97|411:71,1,60.7499981460572,0|0,1:2|0:0,0:0:0:0:
478,122,192543,1,0,1:2:0:0:
394,266,192707,1,0,1:2:0:0:
331,220,192871,2,0,P|301:228|271:231,1,60.7499981460572,8|0,0:0|1:2,0:0:0:0:
176,308,193199,2,0,P|141:305|83:272,1,91.1249972190858
81,267,193527,5,0,1:2:0:0:
107,199,193691,1,0,0:0:0:0:
66,138,193855,2,0,P|41:145|22:151,3,30.3749990730286,0|0|0|0,0:0|0:0|1:2|0:0,0:0:0:0:
141,110,194183,6,0,P|152:77|143:49,1,60.7499981460572,8|0,0:0|0:0,0:0:0:0:
51,22,194511,1,0,1:2:0:0:
37,33,194592,1,0,1:2:0:0:
34,51,194674,2,0,P|53:57|67:63,1,30.3749990730286,0|0,1:2|1:2,0:0:0:0:
213,149,194838,6,0,P|242:136|318:110,2,91.1249972190858,0|0|0,1:2|1:2|1:2,0:0:0:0:
137,104,195494,1,8,0:0:0:0:
137,104,195658,1,0,1:2:0:0:
49,226,195822,1,0,0:0:0:0:
61,230,196150,6,0,P|70:263|78:295,1,60.7499981460572,0|0,1:2|0:0,0:0:0:0:
213,363,196478,2,0,P|222:312|166:254,2,121.499996292114,0|8|0,0:0|0:0|0:0,0:0:0:0:
181,259,197297,1,0,0:0:0:0:
131,152,197461,2,0,B|181:165|181:165|193:174|193:174|260:189,1,121.499996292114,0|0,1:2|0:0,0:0:0:0:
327,177,197953,5,0,0:0:0:0:
349,166,198117,1,8,0:0:0:0:
353,142,198281,1,0,0:0:0:0:
344,119,198445,1,0,0:0:0:0:
258,86,198609,6,0,P|263:100|271:118,2,30.3749990730286,0|0|0,0:0|0:0|1:2,0:0:0:0:
331,34,198937,1,0,0:0:0:0:
331,34,199101,2,0,B|453:57|391:82|502:97,1,182.249994438172
508,88,199756,2,0,P|515:53|502:27,1,60.7499981460572
488,199,200084,6,0,P|436:209|351:231,1,121.499996292114,0|0,1:2|0:0,0:0:0:0:
369,225,200576,1,0,0:0:0:0:
477,338,200740,2,0,P|492:285|503:260,1,60.7499981460572,8|0,0:0|0:0,0:0:0:0:
341,367,201068,1,0,0:0:0:0:
330,370,201396,6,0,P|270:367|232:322,1,121.499996292114,0|0,1:2|0:0,0:0:0:0:
141,244,201888,1,0,0:0:0:0:
134,230,201970,1,0,0:0:0:0:
140,216,202052,2,0,B|190:193|241:217|222:235|278:265|324:235,1,182.249994438172,8|0,0:0|1:2,0:0:0:0:
389,368,202707,6,0,P|405:324|412:303,1,60.7499981460572,0|0,1:2|0:0,0:0:0:0:
352,149,203035,1,0,1:2:0:0:
405,99,203199,1,0,1:2:0:0:
491,187,203363,2,0,P|500:215|510:244,1,60.7499981460572,8|0,0:0|1:2,0:0:0:0:
401,92,203691,1,0,1:2:0:0:
233,159,203855,6,0,P|241:133|252:98,1,60.7499981460572,0|0,0:0|1:2,0:0:0:0:
21,165,204183,2,0,P|43:171|57:184,1,30.3749990730286,0|0,1:2|0:0,0:0:0:0:
118,220,204347,2,0,P|118:242|109:259,3,30.3749990730286,0|0|0|0,0:0|0:0|1:2|0:0,0:0:0:0:
46,321,204674,6,0,P|29:291|12:254,1,60.7499981460572,8|0,0:0|0:0,0:0:0:0:
154,353,205002,1,0,0:0:0:0:
226,243,205166,1,0,1:2:0:0:
75,170,205330,6,0,P|123:163|222:120,2,148.50000453186,2|0|10,1:2|1:2|0:0,0:0:0:0:
126,58,206150,5,2,1:2:0:0:
214,124,206314,1,0,0:0:0:0:
171,234,206478,1,0,0:0:0:0:
60,196,206642,6,0,P|41:149|61:115,1,74.2500022659302,2|0,1:2|0:0,0:0:0:0:
0,69,206860,6,0,P|40:38|81:38,1,74.2500022659302,0|0,1:2|0:0,0:0:0:0:
135,8,207079,5,0,1:2:0:0:
197,71,207297,5,10,0:0:0:0:
181,96,207379,1,0,0:0:0:0:
157,113,207461,1,0,1:2:0:0:
130,2,207625,5,8,0:0:0:0:
257,136,207789,1,0,1:2:0:0:
254,1,207953,5,12,0:0:0:0:
65,202,208116,1,6,1:2:0:0:
54,213,208444,5,0,1:2:0:0:
153,166,208609,2,0,P|144:144|136:121,1,33.75,10|0,0:0|0:0,0:0:0:0:
253,192,208772,5,0,1:2:0:0:
352,239,208936,2,0,P|343:261|335:284,1,33.75,10|0,0:0|0:0,0:0:0:0:
244,188,209100,2,0,P|253:210|261:233,2,33.75,8|8|8,0:0|0:0|0:0,0:0:0:0:
348,153,209425,5,8,0:3:0:0:
362,130,209585,1,8,0:3:0:0:
354,103,209745,1,8,0:3:0:0:
286,58,209906,5,10,0:0:0:0:
221,176,210066,1,8,0:3:0:0:
332,254,210226,1,4,0:3:0:0:
439,162,210386,1,4,0:3:0:0:
324,0,210547,6,0,P|307:85|330:169,1,175.499991966248,6|2,1:2|0:0,0:0:0:0:
454,287,211047,1,0,1:2:0:0:
483,280,211130,1,0,1:2:0:0:
495,252,211213,1,10,0:0:0:0:
443,169,211375,1,2,0:0:0:0:
292,296,211538,1,2,0:0:0:0:
350,343,211701,2,0,P|415:359|449:369,1,87.749995983124,2|0,1:2|1:2,0:0:0:0:
270,126,212027,1,2,0:0:0:0:
339,83,212189,2,0,B|360:147|331:135|356:212,1,131.624993974686,2|0,1:2|0:0,0:0:0:0:
346,67,212515,6,0,P|389:56|426:81,1,87.749995983124,10|2,0:0|1:2,0:0:0:0:
435,292,212841,1,2,0:0:0:0:
247,166,213004,1,2,1:2:0:0:
446,181,213166,2,0,B|379:198|379:198|354:229|354:229|252:255,1,175.499991966248,2|2,1:2|0:0,0:0:0:0:
463,193,213655,1,2,1:2:0:0:
476,219,213736,1,0,1:2:0:0:
466,245,213818,1,10,0:0:0:0:
211,122,213981,1,2,1:2:0:0:
275,58,214144,2,0,P|290:101|308:148,1,87.749995983124,2|0,0:0|0:0,0:0:0:0:
331,315,214470,5,2,1:2:0:0:
384,263,214633,1,2,1:2:0:0:
359,193,214796,1,2,0:0:0:0:
272,117,214959,5,0,1:2:0:0:
259,93,215041,1,0,1:2:0:0:
267,67,215122,1,10,0:0:0:0:
378,114,215285,5,0,1:2:0:0:
244,205,215448,1,10,0:0:0:0:
161,175,215611,1,10,0:0:0:0:
89,222,215774,2,0,P|96:254|111:311,1,87.749995983124,0|8,1:2|0:0,0:0:0:0:
266,129,216100,2,0,P|256:86|247:43,1,87.749995983124,2|0,0:0|1:2,0:0:0:0:
240,22,216345,5,0,1:2:0:0:
223,16,216426,1,10,0:0:0:0:
360,88,216589,1,2,0:0:0:0:
220,199,216752,1,2,1:2:0:0:
390,264,216916,1,2,1:2:0:0:
376,273,216997,1,0,1:2:0:0:
366,287,217079,6,0,P|319:292|183:346,1,175.499991966248,2|2,1:2|0:0,0:0:0:0:
60,236,217568,1,0,1:2:0:0:
47,212,217649,1,0,1:2:0:0:
55,186,217731,1,10,0:0:0:0:
184,112,217894,1,0,1:2:0:0:
251,244,218057,1,2,0:0:0:0:
65,263,218220,5,2,1:2:0:0:
33,215,218301,1,0,1:2:0:0:
52,160,218383,6,0,P|106:165|201:226,1,131.624993974686,2|0,1:2|0:0,0:0:0:0:
196,320,218709,2,0,P|150:345|77:346,1,87.749995983124,2|0,1:2|1:2,0:0:0:0:
99,347,218954,1,0,1:2:0:0:
87,335,219035,2,0,P|85:309|91:288,1,33.75,14|0,0:0|0:0,0:0:0:0:
21,205,219198,2,0,P|32:181|47:166,1,33.75,0|0,1:2|0:0,0:0:0:0:
149,86,219361,6,0,P|228:102|246:172,1,151.875005793572,2|8,1:2|0:0,0:0:0:0:
241,171,219687,1,10,0:0:0:0:
391,77,219850,1,10,0:0:0:0:
223,257,220013,1,6,1:2:0:0:
102,14,220176,1,0,1:2:0:0:
344,183,220339,5,10,0:0:0:0:
280,143,220502,1,8,0:3:0:0:
210,168,220666,1,4,0:3:0:0:
143,134,220829,1,4,0:3:0:0:
328,19,220992,6,0,P|373:11|435:-8,1,87.749995983124,6|0,1:2|0:0,0:0:0:0:
269,236,221318,2,0,P|191:247|104:277,1,131.624993974686,2|0,0:0|0:0,0:0:0:0:
120,269,221644,5,10,0:0:0:0:
177,380,221807,1,2,0:0:0:0:
251,142,221970,1,2,0:0:0:0:
335,305,222133,1,2,1:2:0:0:
492,137,222296,6,0,P|415:131|347:229,1,175.499991966248,2|2,1:2|1:2,0:0:0:0:
435,209,222785,1,2,0:0:0:0:
264,120,222948,5,10,0:0:0:0:
248,151,223111,1,2,1:2:0:0:
325,277,223274,1,2,0:0:0:0:
336,310,223437,1,2,0:0:0:0:
225,241,223600,5,2,1:2:0:0:
358,172,223763,1,2,1:2:0:0:
277,96,223926,1,0,0:0:0:0:
360,51,224089,1,2,1:2:0:0:
161,174,224252,5,10,0:0:0:0:
131,100,224416,1,2,1:2:0:0:
107,24,224579,1,10,0:0:0:0:
65,129,224742,5,10,0:0:0:0:
131,100,224823,1,8,0:0:0:0:
198,78,224905,1,2,1:2:0:0:
168,187,225068,5,8,0:0:0:0:
18,40,225232,1,10,0:0:0:0:
227,0,225396,1,0,1:2:0:0:
171,195,225560,6,0,P|186:241|203:286,1,87.749995983124,10|0,0:0|1:2,0:0:0:0:
64,188,225888,1,2,0:0:0:0:
226,125,226052,1,2,1:2:0:0:
51,189,226216,6,0,P|79:231|111:380,1,175.499991966248,6|0,1:2|1:2,0:0:0:0:
388,56,226707,5,0,1:2:0:0:
388,56,226789,1,0,1:2:0:0:
388,56,226871,2,0,P|360:98|328:253,1,188.999994232178,10|0,0:0|1:2,0:0:0:0:
236,232,227363,5,0,0:0:0:0:
200,154,227527,1,0,1:2:0:0:
373,314,227691,1,10,0:0:0:0:
427,254,227855,1,8,0:0:0:0:
197,358,228019,5,0,1:2:0:0:
357,135,228183,1,10,0:0:0:0:
294,86,228429,5,8,0:0:0:0:
287,64,228511,1,10,0:0:0:0:
390,18,228756,5,8,0:0:0:0:
396,38,228838,1,0,1:2:0:0:
319,176,229000,5,8,0:0:0:0:
253,129,229162,1,8,0:0:0:0:
371,11,229324,5,0,1:2:0:0:
425,273,229486,1,10,0:0:0:0:
488,325,229729,5,8,0:0:0:0:
494,306,229810,1,14,0:0:0:0:
411,251,229973,1,8,0:3:0:0:
339,322,230135,1,0,1:2:0:0:
502,298,230297,5,10,0:0:0:0:
239,196,230459,1,8,0:3:0:0:
159,248,230702,5,8,0:3:0:0:
166,227,230783,1,4,0:3:0:0:
92,164,230946,1,4,0:3:0:0:
166,99,231108,1,8,0:3:0:0:
112,50,231270,1,4,0:3:0:0:
132,29,231432,5,6,1:2:0:0:
346,16,231756,6,0,P|333:52|313:127,1,101.25,0|0,1:2|0:0,0:0:0:0:
302,122,232081,2,0,P|344:142|366:169,1,67.5,10|0,0:0|0:0,0:0:0:0:
388,220,232324,1,8,0:0:0:0:
340,277,232405,1,0,1:2:0:0:
268,259,232567,5,8,0:3:0:0:
268,259,232729,1,0,1:2:0:0:
452,105,233054,6,0,P|404:130|351:131,1,101.25,2|0,1:2|0:0,0:0:0:0:
334,128,233378,2,0,P|311:95|318:65,1,67.5,10|4,0:0|0:3,0:0:0:0:
366,20,233621,1,4,0:3:0:0:
435,32,233702,2,0,P|456:71|450:142,1,101.25,0|0,1:2|0:0,0:0:0:0:
404,184,234027,6,0,P|354:196|247:221,1,135,2|2,1:2|1:2,0:0:0:0:
377,328,234516,2,0,P|339:299|314:297,1,67.5,0|10,0:0|0:0,0:0:0:0:
243,294,234842,1,2,0:0:0:0:
188,347,235005,1,2,1:2:0:0:
188,347,235168,1,8,0:3:0:0:
379,327,235331,6,0,P|387:284|399:260,1,67.5,0|0,1:2|1:2,0:0:0:0:
372,149,235657,1,0,1:2:0:0:
479,198,235820,1,0,1:2:0:0:
359,146,235983,6,0,P|318:157|283:162,1,67.5,10|0,0:0|0:0,0:0:0:0:
225,143,236228,1,8,0:0:0:0:
203,74,236309,1,0,1:2:0:0:
267,17,236472,5,4,0:3:0:0:
285,41,236554,1,4,0:3:0:0:
283,69,236635,1,6,1:2:0:0:
106,24,236799,5,0,1:2:0:0:
106,24,236964,2,0,P|68:36|32:76,1,67.5,0|0,1:2|0:0,0:0:0:0:
26,120,237211,1,0,1:2:0:0:
80,166,237294,1,10,0:0:0:0:
138,121,237459,5,0,0:0:0:0:
138,121,237624,1,2,1:2:0:0:
46,53,237788,1,8,0:3:0:0:
0,198,237953,2,0,P|54:205|144:235,1,135,0|8,1:2|0:3,0:0:0:0:
142,347,238448,5,0,1:2:0:0:
127,356,238530,1,0,1:2:0:0:
112,361,238613,2,0,P|76:353|26:317,1,67.5,10|0,0:0|0:0,0:0:0:0:
43,330,238832,2,0,P|48:309|52:296,2,22.5,8|8|8,0:3|0:3|0:3,0:0:0:0:
235,337,239107,6,0,L|240:360,3,22.5,0|0|0|0,1:2|1:2|1:2|1:2,0:0:0:0:
275,277,239435,1,8,0:0:0:0:
190,147,239599,1,0,1:2:0:0:
247,86,239763,1,0,1:2:0:0:
177,40,239927,6,0,P|128:57|30:76,1,135,14|0,0:0|1:2,0:0:0:0:
170,152,240400,2,0,P|218:160|254:181,1,67.5,0|0,1:2|0:0,0:0:0:0:
95,206,240718,2,0,P|85:183|77:158,2,33.75,0|8|0,1:2|1:2|1:2,0:0:0:0:
82,282,241039,5,8,0:0:0:0:
122,285,241119,1,8,0:0:0:0:
152,261,241199,1,10,0:0:0:0:
204,202,241365,5,0,1:2:0:0:
140,353,241532,1,6,1:2:0:0:
11,256,241699,1,0,1:2:0:0:
99,168,241865,6,0,P|94:122|71:4,1,161.999995056153,2|0,1:2|1:2,0:0:0:0:
72,8,242356,1,0,1:2:0:0:
183,91,242520,2,0,P|226:103|273:121,1,80.9999975280763,14|0,0:0|0:0,0:0:0:0:
274,123,242766,1,2,1:2:0:0:
286,133,242848,1,0,1:2:0:0:
356,86,243012,1,8,0:0:0:0:
291,20,243176,5,0,1:2:0:0:
217,198,243340,1,8,0:0:0:0:
416,161,243504,1,0,1:2:0:0:
281,10,243668,1,0,1:2:0:0:
202,205,243832,2,0,P|220:249|239:292,1,80.9999975280763,10|0,0:0|1:2,0:0:0:0:
303,116,244151,1,0,1:2:0:0:
12,84,244310,5,2,1:2:0:0:
0,118,244390,1,0,1:2:0:0:
15,150,244470,2,0,B|76:164|208:208,1,202.500007724762,6|0,1:2|1:2,0:0:0:0:
291,182,244964,5,0,1:2:0:0:
225,7,245129,2,0,P|189:57|195:95,1,87.749995983124,10|0,0:0|1:2,0:0:0:0:
316,270,245459,2,0,P|360:260|413:248,1,87.749995983124,10|0,0:0|0:0,0:0:0:0:
427,244,245706,1,8,0:0:0:0:
452,236,245788,1,0,1:2:0:0:
323,143,245948,1,0,1:2:0:0:
188,277,246108,1,10,0:0:0:0:
107,193,246269,1,10,0:0:0:0:
42,253,246429,6,0,P|36:293|68:334,1,87.749995983124,6|8,1:2|0:3,0:0:0:0:
183,148,246750,1,0,1:2:0:0:
258,318,246910,1,10,0:0:0:0:
251,292,246991,1,0,1:2:0:0:
229,276,247071,6,0,B|158:292|158:292|126:319|126:319|28:337,1,175.499991966248,6|0,1:2|1:2,0:0:0:0:
218,359,247562,1,0,1:2:0:0:
76,242,247726,6,0,B|54:214|33:195|33:195|108:79,1,175.499991966248,10|0,0:0|1:2,0:0:0:0:
163,19,248218,1,0,1:2:0:0:
183,39,248300,1,0,1:2:0:0:
185,64,248382,1,2,1:2:0:0:
66,5,248546,5,10,0:0:0:0:
172,152,248710,1,10,0:0:0:0:
300,33,248874,1,0,1:2:0:0:
162,161,249038,2,0,P|212:173|269:197,1,87.749995983124,14|0,0:0|0:0,0:0:0:0:
324,220,249362,1,8,0:3:0:0:
81,138,249524,5,12,0:3:0:0:
44,153,249605,1,8,0:0:0:0:
30,191,249686,6,0,P|51:255|70:319,1,135,14|0,0:0|1:2,0:0:0:0:
416,185,250012,2,0,P|396:120|375:56,1,135,14|0,0:0|1:2,0:0:0:0:
296,344,250338,5,14,0:0:0:0:
171,21,250501,1,0,1:2:0:0:
70,319,250664,6,0,P|112:303|152:288,1,67.5,14|0,0:0|1:2,0:0:0:0:
375,56,250827,2,0,P|343:67|311:79,1,67.5,14|0,0:0|1:2,0:0:0:0:
135,241,251638,6,0,P|145:207|153:172,1,70.8749978370667,2|0,0:1|0:0,0:0:0:0:
51,187,252287,6,0,B|158:198|112:227|244:241,1,175.499991966248,6|0,1:2|0:0,0:0:0:0:
383,206,252781,1,0,1:2:0:0:
334,134,252946,2,0,P|279:152|236:157,1,87.749995983124,10|0,0:0|0:0,0:0:0:0:
249,156,253276,1,0,1:2:0:0:
326,370,253440,6,0,P|348:273|391:196,1,175.499991966248,10|0,0:0|0:0,0:0:0:0:
396,302,253852,1,0,1:2:0:0:
383,308,253935,2,0,P|336:279|278:269,1,87.749995983124,0|0,1:2|0:0,0:0:0:0:
467,184,254265,5,10,0:0:0:0:
287,71,254429,2,0,P|306:113|318:159,1,87.749995983124,2|0,1:2|0:0,0:0:0:0:
494,47,254759,1,2,1:2:0:0:
494,73,254841,1,2,1:2:0:0:
486,98,254924,5,2,1:2:0:0:
373,230,255084,1,10,0:0:0:0:
287,71,255244,1,8,0:0:0:0:
478,195,255404,1,0,1:2:0:0:
220,267,255564,6,0,P|234:226|251:171,1,87.749995983124,10|0,0:0|0:0,0:0:0:0:
258,159,255804,1,8,0:0:0:0:
267,134,255884,1,6,1:2:0:0:
49,51,256124,5,8,0:0:0:0:
40,32,256204,1,8,0:0:0:0:
7,167,256368,5,0,1:2:0:0:
86,129,256533,1,10,0:0:0:0:
163,87,256698,1,10,0:0:0:0:
183,230,256863,5,10,0:0:0:0:
75,120,257028,1,8,0:3:0:0:
210,19,257193,1,4,0:3:0:0:
296,117,257357,1,10,0:0:0:0:
193,238,257522,6,0,P|175:187|135:50,1,175.499991966248,6|0,1:2|0:0,0:0:0:0:
334,174,258011,1,0,1:2:0:0:
334,174,258092,1,0,1:2:0:0:
334,174,258174,2,0,P|373:179|420:244,1,116.999994644165,10|0,0:0|0:0,0:0:0:0:
399,310,258500,5,6,1:2:0:0:
359,334,258608,5,8,0:0:0:0:
318,310,258717,5,8,0:0:0:0:
232,350,258826,6,0,P|243:301|253:245,1,87.749995983124,8|6,0:0|1:2,0:0:0:0:
290,147,259152,2,0,B|196:166|226:188|126:205,1,175.499991966248,10|0,0:0|1:2,0:0:0:0:
152,75,259641,1,8,0:0:0:0:
297,157,259804,1,2,0:0:0:0:
370,108,259967,1,0,1:2:0:0:
382,84,260049,1,0,1:2:0:0:
368,61,260130,5,14,0:0:0:0:
264,269,260293,1,0,1:2:0:0:
271,283,260456,1,0,1:2:0:0:
288,22,260619,5,14,0:0:0:0:
378,213,260782,1,0,1:2:0:0:
371,227,260945,1,0,1:2:0:0:
284,137,261108,6,0,P|229:152|162:172,1,87.749995983124,14|0,0:0|0:0,0:0:0:0:
184,169,261353,1,8,0:0:0:0:
166,173,261435,1,8,0:0:0:0:
135,84,261598,1,8,0:0:0:0:
305,139,261761,1,4,0:3:0:0:
284,224,261924,1,4,0:3:0:0:
164,280,262087,5,8,0:3:0:0:
191,196,262251,1,8,0:3:0:0:
218,112,262416,1,0,1:2:0:0:
245,28,262581,1,0,1:2:0:0:
443,130,262746,6,0,P|393:142|260:185,1,175.499991966248,6|0,1:2|1:2,0:0:0:0:
134,264,263237,1,0,1:2:0:0:
113,242,263319,1,0,1:2:0:0:
116,213,263401,1,10,0:0:0:0:
226,244,263565,1,0,0:0:0:0:
99,113,263729,1,0,1:2:0:0:
140,1,263893,6,0,B|159:95|181:65|198:165,1,175.499991966248,0|0,1:2|0:0,0:0:0:0:
291,336,264381,2,0,P|299:274|319:231,1,87.749995983124,0|0,1:2|0:0,0:0:0:0:
212,253,264705,1,10,0:0:0:0:
276,181,264867,1,0,1:2:0:0:
235,93,265029,1,0,0:0:0:0:
189,173,265192,1,8,0:0:0:0:
189,173,265273,1,10,0:0:0:0:
189,173,265354,5,10,0:0:0:0:
333,84,265516,1,8,0:0:0:0:
163,0,265678,1,8,0:0:0:0:
313,199,265840,5,0,1:2:0:0:
146,91,266002,1,14,0:0:0:0:
330,0,266164,1,0,1:2:0:0:
353,11,266245,1,0,1:2:0:0:
377,21,266326,1,2,1:2:0:0:
332,210,266489,5,8,0:0:0:0:
331,237,266570,1,8,0:0:0:0:
356,261,266651,1,8,0:0:0:0:
399,264,266732,1,8,0:0:0:0:
434,245,266813,5,0,1:2:0:0:
447,242,266894,5,8,0:0:0:0:
464,216,266975,5,8,0:0:0:0:
446,185,267058,5,8,0:0:0:0:
468,157,267141,5,8,0:0:0:0:
449,120,267225,5,8,0:0:0:0:
482,87,267308,6,0,P|428:93|287:114,1,175.499991966248,6|0,1:2|1:2,0:0:0:0:
188,309,267781,5,0,1:2:0:0:
222,323,267860,1,0,1:2:0:0:
248,299,267939,6,0,P|237:248|234:155,1,131.624993974686,6|0,1:2|0:0,0:0:0:0:
223,151,268268,2,0,P|248:198|281:200,1,87.749995983124,2|0,1:2|0:0,0:0:0:0:
422,342,268598,1,10,0:0:0:0:
490,317,268763,2,0,P|486:263|492:212,1,87.749995983124,2|2,1:2|0:0,0:0:0:0:
383,126,269092,1,4,1:2:0:0:
318,268,269257,6,0,P|274:281|189:250,1,131.624993974686,4|0,1:2|0:0,0:0:0:0:
124,280,269587,2,0,P|95:240|100:193,1,87.749995983124,0|2,1:2|0:0,0:0:0:0:
107,179,269834,1,0,1:2:0:0:
104,152,269917,1,10,0:0:0:0:
50,54,270078,1,0,1:2:0:0:
200,75,270239,1,10,0:0:0:0:
0,185,270400,1,0,1:2:0:0:
204,237,270562,6,0,P|247:248|310:267,1,87.749995983124,14|0,0:0|0:0,0:0:0:0:
314,266,270805,1,8,0:0:0:0:
339,273,270886,1,0,1:2:0:0:
274,345,271048,1,10,0:0:0:0:
469,134,271210,6,0,P|426:145|363:164,1,87.749995983124,0|0,1:2|0:0,0:0:0:0:
359,163,271453,1,8,0:0:0:0:
334,170,271534,1,10,1:2:0:0:
257,92,271697,1,0,1:2:0:0:
353,53,271859,5,2,1:2:0:0:
251,193,272021,1,10,0:0:0:0:
322,260,272183,2,0,P|335:255|371:247,1,43.874997991562,0|0,1:2|0:0,0:0:0:0:
481,211,272345,2,0,P|459:215|438:223,1,43.874997991562,8|8,0:0|0:0,0:0:0:0:
330,373,272507,5,8,0:0:0:0:
301,363,272589,1,8,0:0:0:0:
270,356,272670,1,4,0:3:0:0:
240,349,272751,1,0,0:0:0:0:
209,342,272832,1,4,0:3:0:0:
318,246,272994,1,8,0:3:0:0:
493,358,273156,5,14,0:0:0:0:
411,354,273322,1,0,1:2:0:0:
395,327,273406,1,0,1:2:0:0:
396,289,273489,1,6,1:2:0:0:
419,260,273572,1,0,1:2:0:0:
456,249,273656,2,0,P|458:265|462:282,1,33.75,8|8,0:0|0:0,0:0:0:0:
486,137,273822,5,8,0:0:0:0:
473,144,273906,1,8,0:0:0:0:
456,149,273989,2,0,P|430:144|418:143,1,33.75,8|8,0:0|0:0,0:0:0:0:
362,71,274156,2,0,P|345:73|328:76,1,33.75,8|8,0:0|0:0,0:0:0:0:
217,134,274322,1,10,0:0:0:0:
249,153,274406,1,0,1:2:0:0:
255,179,274489,6,0,P|249:221|240:286,1,87.749995983124,14|0,1:2|0:0,0:0:0:0:
238,282,274734,1,8,0:0:0:0:
228,296,274816,1,8,0:0:0:0:
87,234,274980,1,4,0:3:0:0:
136,373,275144,1,4,0:3:0:0:
124,344,275226,1,8,0:3:0:0:
137,316,275308,1,8,0:0:0:0:
175,209,275472,1,0,1:2:0:0:
116,118,275636,1,8,0:0:0:0:
86,110,275718,1,8,0:0:0:0:
60,119,275800,6,0,P|46:166|53:223,1,87.749995983124,10|0,0:0|0:0,0:0:0:0:
220,67,276127,1,0,1:2:0:0:
266,122,276291,2,0,B|311:136|378:152,1,87.749995983124,10|0,0:0|0:0,0:0:0:0:
170,14,276619,2,0,B|125:28|58:44,1,87.749995983124,8|8,0:0|0:3,0:0:0:0:
55,40,276865,1,8,0:0:0:0:
25,31,276947,1,4,0:3:0:0:
79,144,277111,6,0,P|87:169|95:200,1,43.874997991562,0|0,1:2|0:0,0:0:0:0:
149,117,277271,2,0,P|157:142|165:173,1,43.874997991562,8|0,0:3|0:0,0:0:0:0:
215,234,277432,5,8,0:3:0:0:
208,246,277513,2,0,P|160:263|61:299,1,131.624993974686,8|0,0:3|1:2,0:0:0:0:
286,326,277915,5,8,0:0:0:0:
320,306,277995,1,8,0:3:0:0:
320,266,278076,2,0,P|313:245|309:223,1,43.874997991562,4|4,0:3|0:3,0:0:0:0:
457,341,278237,5,4,0:3:0:0:
441,304,278317,1,0,1:2:0:0:
452,266,278397,2,0,P|447:219|462:157,1,87.749995983124,6|0,1:2|0:0,0:0:0:0:
400,12,278723,5,0,1:2:0:0:
474,89,278886,2,0,P|421:100|379:111,1,87.749995983124,8|0,0:3|1:2,0:0:0:0:
371,111,279130,1,8,0:0:0:0:
355,119,279212,1,8,0:0:0:0:
250,200,279375,1,8,0:3:0:0:
158,118,279538,5,8,0:0:0:0:
189,111,279619,1,8,0:0:0:0:
218,95,279701,1,8,0:0:0:0:
241,73,279782,1,0,1:2:0:0:
256,44,279864,1,8,0:0:0:0:
335,202,280027,2,0,P|331:257|319:312,1,87.749995983124,10|0,0:0|0:0,0:0:0:0:
85,239,280353,5,8,0:3:0:0:
75,227,280435,1,8,0:0:0:0:
79,213,280516,2,0,P|101:205|121:198,1,43.874997991562,8|0,0:0|0:0,0:0:0:0:
213,103,280679,2,0,P|205:81|198:61,1,43.874997991562,8|0,0:0|0:0,0:0:0:0:
83,13,280842,5,8,0:3:0:0:
60,21,280924,1,8,0:0:0:0:
56,40,281005,1,8,0:0:0:0:
68,59,281084,1,8,0:0:0:0:
87,73,281164,1,8,0:0:0:0:
114,97,281244,1,8,0:0:0:0:
127,137,281324,5,0,1:2:0:0:
108,182,281403,1,8,0:0:0:0:
69,210,281483,1,8,0:0:0:0:
45,264,281563,1,8,0:0:0:0:
61,323,281643,1,8,1:2:0:0:
113,353,281724,1,8,0:0:0:0:
172,337,281805,5,8,0:0:0:0:
216,281,281886,5,8,0:0:0:0:
209,211,281967,5,8,0:0:0:0:
163,153,282048,5,8,0:0:0:0:
91,148,282129,5,8,0:0:0:0:
29,185,282210,5,8,0:0:0:0:
4,251,282291,5,8,0:0:0:0:
25,318,282372,5,8,0:0:0:0:
85,355,282453,5,8,0:0:0:0:
143,316,282534,5,8,0:0:0:0:
118,267,282615,5,8,0:0:0:0:
135,228,282697,5,8,0:0:0:0:
125,207,282778,5,8,0:0:0:0:
129,189,282859,5,8,0:0:0:0:
122,180,282940,5,8,0:0:0:0:
183,216,283021,5,8,0:0:0:0:
251,198,283102,5,8,0:0:0:0:
293,141,283183,5,8,0:0:0:0:
347,101,283264,5,8,0:0:0:0:
417,92,283345,5,8,0:0:0:0:
478,127,283426,5,8,0:3:0:0:
489,196,283507,5,8,0:3:0:0:
426,262,283588,6,0,P|412:213|395:165,1,101.250003862381,14|0,0:0|0:0,0:0:0:0:
114,176,283917,2,0,P|130:222|145:279,1,101.250003862381,10|0,0:0|0:0,0:0:0:0:
223,365,284247,5,10,0:0:0:0:
363,54,284412,1,0,1:2:0:0:
318,248,284577,5,10,0:0:0:0:
260,168,284741,1,0,1:2:0:0:
500,337,284906,6,0,P|451:350|403:366,1,101.250003862381,10|0,0:0|0:0,0:0:0:0:
287,67,285236,2,0,P|315:9|358:0,1,101.250003862381,10|0,0:0|0:0,0:0:0:0:
427,269,285566,5,10,0:0:0:0:
110,125,285730,1,0,1:2:0:0:
304,162,285895,5,10,0:0:0:0:
232,220,286060,1,0,1:2:0:0:
14,73,286225,5,10,0:0:0:0:
29,97,286549,6,0,P|40:40|58:-7,1,101.250003862381,10|0,0:0|0:0,0:0:0:0:
283,108,286873,5,10,0:0:0:0:
42,321,287035,1,0,1:2:0:0:
142,183,287197,5,10,0:0:0:0:
201,247,287360,1,0,1:2:0:0:
201,262,287441,1,0,1:2:0:0:
196,276,287522,5,10,0:0:0:0:
260,97,287684,1,0,1:2:0:0:
412,261,287846,5,10,0:0:0:0:
339,83,288008,1,0,1:2:0:0:
258,353,288170,5,10,0:0:0:0:
174,45,288333,1,0,1:2:0:0:
368,357,288495,5,10,0:0:0:0:
440,55,288657,1,0,1:2:0:0:
473,85,288738,1,0,1:2:0:0:
478,130,288819,6,0,P|413:156|373:162,1,101.250003862381,10|0,0:0|0:0,0:0:0:0:
56,263,289145,2,0,P|121:237|161:231,1,101.250003862381,10|0,0:0|0:0,0:0:0:0:
331,280,289472,5,10,0:0:0:0:
192,113,289636,1,0,1:2:0:0:
341,64,289799,5,10,0:0:0:0:
176,325,289963,1,0,1:2:0:0:
24,53,290126,5,10,0:0:0:0:
11,44,290453,6,0,P|29:97|43:158,1,101.250003862381,10|0,0:0|0:0,0:0:0:0:
46,170,290699,1,0,1:2:0:0:
26,193,290780,5,10,0:0:0:0:
145,89,290944,1,0,1:2:0:0:
142,301,291107,5,10,0:0:0:0:
6,39,291271,1,0,1:2:0:0:
153,320,291434,6,0,P|207:331|271:349,1,101.250003862381,10|0,0:0|0:0,0:0:0:0:
310,62,291759,2,0,P|256:51|192:33,1,101.250003862381,10|0,0:0|0:0,0:0:0:0:
417,212,292084,6,0,P|450:165|447:114,1,101.250003862381,10|0,0:0|1:2,0:0:0:0:
87,206,292409,2,0,P|81:263|110:305,1,101.250003862381,10|0,0:0|1:2,0:0:0:0:
321,359,292734,5,10,0:0:0:0:
213,82,292897,1,0,1:2:0:0:
206,66,293060,1,0,1:2:0:0:
211,319,293222,5,10,0:0:0:0:
341,30,293385,1,0,1:2:0:0:
348,14,293547,1,0,1:2:0:0:
109,124,293710,6,0,P|159:141|216:167,1,87.749995983124,0|0,1:2|0:0,0:0:0:0:
211,163,293954,1,0,1:2:0:0:
211,163,294035,5,2,1:2:0:0:
258,111,294361,1,0,0:0:0:0:
56,13,294687,5,8,0:0:0:0:
6,66,295013,1,0,0:0:0:0:
60,357,295339,5,0,1:2:0:0:
133,335,295665,1,0,1:2:0:0:
332,255,295991,5,8,0:0:0:0:
258,236,296317,1,0,0:0:0:0:
179,127,296643,5,0,1:2:0:0:
172,107,296969,1,0,1:2:0:0:
55,145,297295,5,0,1:2:0:0:
55,153,297458,1,0,1:2:0:0:
54,161,297621,1,0,1:2:0:0:
54,169,297785,1,0,1:2:0:0:
152,167,297948,5,0,1:2:0:0:
154,158,298111,1,0,1:2:0:0:
157,149,298274,1,0,1:2:0:0:
162,142,298437,1,0,1:2:0:0:
104,243,298600,5,0,1:2:0:0:
90,248,298763,1,0,1:2:0:0:
104,66,298926,5,0,1:2:0:0:
118,61,299089,1,0,1:2:0:0:
