osu file format v14

[General]
AudioFilename: audio.mp3
AudioLeadIn: 0
PreviewTime: 209842
Countdown: 0
SampleSet: Soft
StackLeniency: 0.7
Mode: 0
LetterboxInBreaks: 0
WidescreenStoryboard: 1

[Editor]
DistanceSpacing: 1.2
BeatDivisor: 6
GridSize: 8
TimelineZoom: 2.1

[Metadata]
Title:DROP
TitleUnicode:DROP
Artist:Minami
ArtistUnicode:美波
Creator:Spy_RO
Version:HINAE'S INSANE
Source:
Tags:Japanese jpop j-pop pop 10GAUGE rock jrock j-rock 373 female vocal hinae
BeatmapID:4128398
BeatmapSetID:1966817

[Difficulty]
HPDrainRate:4
CircleSize:4
OverallDifficulty:8
ApproachRate:9
SliderMultiplier:3
SliderTickRate:1

[Events]
//Background and Video events
0,0,"176cdd65f3e5ad2296e7e60159600453.jpg",0,0
//Break Periods
2,159629,169320
//Storyboard Layer 0 (Background)
//Storyboard Layer 1 (Fail)
//Storyboard Layer 2 (Pass)
//Storyboard Layer 3 (Foreground)
//Storyboard Layer 4 (Overlay)
//Storyboard Sound Samples

[TimingPoints]
2052,655.737704918033,4,2,1,45,1,0
9917,-100,4,2,1,40,0,0
12540,-100,4,2,1,50,0,0
20327,-100,4,2,1,5,0,0
20409,-100,4,2,1,50,0,0
21721,-166.666666666667,4,2,1,50,0,0
23032,-100,4,2,1,50,0,0
25327,-142.857142857143,4,2,1,50,0,0
25573,-142.857142857143,4,2,1,5,0,0
25655,-100,4,2,1,50,0,0
30901,-83.3333333333333,4,2,1,50,0,0
31147,-83.3333333333333,4,2,1,5,0,0
31229,-100,4,2,1,50,0,0
31557,-125,4,2,1,50,0,0
33524,-125,4,2,1,55,0,0
43934,-125,4,2,1,5,0,0
44016,-125,4,2,1,55,0,0
46557,-125,4,2,1,5,0,0
46639,-125,4,2,1,55,0,0
53114,-125,4,2,1,5,0,0
53196,-125,4,2,1,55,0,0
54508,-74.0740740740741,4,2,1,55,0,0
54835,-100,4,2,1,55,0,0
55163,-125,4,2,1,55,0,0
58442,-100,4,2,1,55,0,0
58770,-125,4,2,1,55,0,0
59262,-200,4,2,1,55,0,0
59753,-111.111111111111,4,2,1,55,0,0
60081,-111.111111111111,4,2,1,55,0,0
60983,-111.111111111111,4,2,1,5,0,0
61065,-111.111111111111,4,2,1,55,0,0
62950,-111.111111111111,4,2,1,5,0,0
63032,-111.111111111111,4,2,1,55,0,0
64999,-83.3333333333333,4,2,1,55,0,0
65327,-100,4,2,1,55,0,0
66311,-125,4,2,1,55,0,0
72868,-166.666666666667,4,2,1,55,0,0
74180,-90.9090909090909,4,2,1,55,0,0
74344,-90.9090909090909,4,2,1,55,0,0
74426,-90.9090909090909,4,2,1,55,0,0
74589,-90.9090909090909,4,2,1,55,0,0
74671,-90.9090909090909,4,2,1,55,0,0
75409,-90.9090909090909,4,2,1,5,0,0
75491,-90.9090909090909,4,2,1,55,0,0
78114,-83.3333333333333,4,2,1,55,0,0
78442,-90.9090909090909,4,2,1,55,0,0
80655,-90.9090909090909,4,2,1,5,0,0
80737,-90.9090909090909,4,2,1,55,0,0
99098,-90.9090909090909,4,2,1,55,0,0
109589,-76.9230769230769,4,2,1,55,0,0
109917,-83.3333333333333,4,2,1,55,0,0
117376,-83.3333333333333,4,2,1,5,0,0
117458,-166.666666666667,4,2,1,40,0,0
127294,-166.666666666667,4,2,1,45,0,0
127950,-133.333333333333,4,2,1,50,0,0
131283,-133.333333333333,4,2,1,5,0,0
131721,-133.333333333333,4,2,1,50,0,0
133196,-111.111111111111,4,2,1,50,0,0
135819,-125,4,2,1,50,0,0
135901,-125,4,2,1,5,0,0
135983,-125,4,2,1,50,0,0
136065,-125,4,2,1,5,0,0
136147,-125,4,2,1,50,0,0
136229,-125,4,2,1,5,0,0
136311,-125,4,2,1,50,0,0
136393,-125,4,2,1,5,0,0
136475,-125,4,2,1,50,0,0
137130,-90.9090909090909,4,2,1,50,0,0
137786,-100,4,2,1,50,0,0
138442,-90.9090909090909,4,2,1,65,0,0
148934,-111.111111111111,4,2,1,65,0,0
156803,-111.111111111111,4,2,1,60,0,0
159426,-111.111111111111,4,2,1,35,0,0
169917,-250,4,2,1,35,0,0
172540,-181.818181818182,4,2,1,35,0,0
179098,-250,4,2,1,35,0,0
180409,-666.666666666667,4,2,1,35,0,0
184999,-142.857142857143,4,2,1,35,0,0
185655,-90.9090909090909,4,2,1,45,0,0
185983,-100,4,2,1,45,0,0
190819,-100,4,2,1,5,0,0
190901,-83.3333333333333,4,2,1,50,0,0
191229,-100,4,2,1,50,0,0
193524,-86.9565217391304,4,2,1,50,0,0
193852,-100,4,2,1,50,0,0
201311,-100,4,2,1,5,0,0
201393,-100,4,2,1,60,0,0
201721,-86.9565217391304,4,2,1,60,0,0
202049,-100,4,2,1,60,0,0
209265,641.025641025641,4,2,1,45,1,0
209906,-200,4,2,1,45,0,0
210547,666.666666666667,4,2,5,60,1,0
210547,-76.9230769230769,4,2,5,65,0,0
210880,-86.9565217391304,4,2,5,65,0,1
211127,-86.9565217391304,4,2,5,5,0,1
211213,651.289009497965,4,2,5,60,1,1
211698,-86.9565217391304,4,2,5,65,0,1
213166,652.173913043478,4,2,5,60,1,1
213166,-76.9230769230769,4,2,5,60,0,1
214470,-86.9565217391304,4,2,5,60,0,1
214793,-76.9230769230769,4,2,5,60,0,1
215609,-86.9565217391304,4,2,5,60,0,1
216100,-100,4,2,5,60,0,1
216908,-86.9565217391304,4,2,5,60,0,1
218043,-86.9565217391304,4,2,5,65,0,1
219035,-71.4285714285714,4,2,5,75,0,1
219537,-86.9565217391304,4,2,5,75,0,1
221318,-71.4285714285714,4,2,5,75,0,1
221644,-86.9565217391304,4,2,5,65,0,1
222290,-86.9565217391304,4,2,5,60,0,1
224249,-86.9565217391304,4,2,5,60,0,1
224905,655.737704918033,4,2,5,60,1,1
224905,-86.9565217391304,4,2,5,60,0,1
225232,-71.4285714285714,4,2,5,60,0,1
225560,-90.9090909090909,4,2,5,60,0,1
225567,-90.9090909090909,4,2,5,60,0,1
226215,-100,4,2,5,65,0,1
226216,655.737704918033,4,2,5,60,1,1
226707,-86.9565217391304,4,2,5,65,0,1
226864,-86.9565217391304,4,2,5,75,0,1
227841,-100,4,2,5,75,0,1
228183,-71.4285714285714,4,2,5,75,0,1
228722,-86.9565217391304,4,2,5,75,0,1
228838,648.648648648649,4,2,5,75,1,1
231432,-100,4,2,5,65,0,0
234027,652.173913043478,4,2,5,60,1,0
236635,659.340659340659,4,2,5,60,1,0
239272,655.737704918033,4,2,5,60,1,0
239598,-166.666666666667,4,2,5,65,0,0
239927,631.578947368421,4,2,5,60,1,0
239927,-83.3333333333333,4,2,5,60,0,0
240558,641.711229946524,4,2,5,60,1,0
241199,666.666666666667,4,2,5,60,1,0
241865,655.737704918033,4,2,5,60,1,0
243832,638.297872340426,4,2,5,60,1,0
244470,659.340659340659,4,2,5,60,1,0
244470,-66.6666666666667,4,2,5,75,0,0
245129,-90.9090909090909,4,2,5,75,0,1
245788,641.711229946524,4,2,5,75,1,1
247071,655.737704918033,4,2,5,75,1,1
249038,648.648648648649,4,2,5,75,1,1
249686,652.173913043478,4,2,5,75,1,1
249686,-86.9565217391304,4,2,5,85,0,1
250827,-86.9565217391304,4,2,5,60,0,0
250990,648.648648648649,4,2,5,60,1,0
251638,-666.666666666667,4,2,5,65,0,0
252287,659.340659340659,4,2,5,60,1,0
252287,-66.6666666666667,4,2,5,70,0,1
253434,-76.9230769230769,4,2,5,70,0,1
253923,-86.9565217391304,4,2,5,70,0,1
254924,640,4,2,5,70,1,1
255241,-86.9565217391304,4,2,5,70,0,1
256204,659.340659340659,4,2,5,70,1,1
256863,-86.9565217391304,4,2,5,70,0,1
257522,652.173913043478,4,2,5,70,1,1
257522,-86.9565217391304,4,2,5,70,0,1
258174,-86.9565217391304,4,2,5,70,0,1
258811,-86.9565217391304,4,2,5,70,0,1
259152,-76.9230769230769,4,2,5,70,0,1
259484,-86.9565217391304,4,2,5,70,0,1
260126,-86.9565217391304,4,2,5,70,0,1
261760,-86.9565217391304,4,2,5,70,0,1
262087,659.340659340659,4,2,5,70,1,1
262746,655.737704918033,4,2,5,70,1,1
262746,-66.6666666666667,4,2,5,70,0,1
263074,-86.9565217391304,4,2,5,70,0,1
263405,-86.9565217391304,4,2,5,70,0,1
263893,-76.9230769230769,4,2,5,70,0,1
264057,648.648648648649,4,2,5,70,1,1
264702,-86.9565217391304,4,2,5,70,0,1
265029,-76.9230769230769,4,2,5,70,0,1
265354,648.648648648649,4,2,5,70,1,1
265357,-86.9565217391304,4,2,5,70,0,1
265995,-86.9565217391304,4,2,5,70,0,1
266481,-86.9565217391304,4,2,5,70,0,1
266975,666.666666666667,4,2,5,70,1,1
267308,631.578947368421,4,2,5,70,1,1
267308,-66.6666666666667,4,2,5,70,0,1
267939,659.340659340659,4,2,5,70,1,1
267939,-86.9565217391304,4,2,5,75,0,1
269279,-86.9565217391304,4,2,5,75,0,1
269917,645.161290322581,4,2,5,75,1,1
269917,-86.9565217391304,4,2,5,80,0,1
270562,648.648648648649,4,2,5,80,1,1
271852,-86.9565217391304,4,2,5,80,0,1
273156,666.666666666667,4,2,5,80,1,1
273156,-86.9565217391304,4,2,5,65,0,1
273846,-86.9565217391304,4,2,5,60,0,1
274489,655.737704918033,4,2,5,60,1,1
274489,-100,4,2,5,60,0,1
275800,655.737704918033,4,2,5,60,1,1
277111,643.43163538874,4,2,5,60,1,1
278397,652.173913043478,4,2,5,60,1,1
280346,-80,4,2,5,80,0,1
281005,638.297872340426,4,2,5,80,1,1
281324,-80,4,2,5,80,0,1
281633,-80,4,2,5,80,0,1
281643,648.648648648649,4,2,5,80,1,1
281643,-80,4,2,5,80,0,1
283264,-100,4,2,5,80,0,1
283588,659.340659340659,4,2,5,80,1,1
283588,-83.3333333333333,4,2,5,85,0,1
286225,648.648648648649,4,2,5,85,1,1
286546,-83.3333333333333,4,2,5,85,0,1
287514,-83.3333333333333,4,2,5,85,0,1
288173,-83.3333333333333,4,2,5,85,0,1
288506,-83.3333333333333,4,2,5,85,0,1
288819,653.950953678474,4,2,5,85,1,1
288819,-83.3333333333333,4,2,5,85,0,1
289487,-83.3333333333333,4,2,5,85,0,1
289799,-83.3333333333333,4,2,5,85,0,1
290794,-83.3333333333333,4,2,5,85,0,1
291434,650.406504065041,4,2,5,85,1,1
291434,-83.3333333333333,4,2,5,85,0,1
294035,652.173913043478,4,2,5,85,1,1
294035,-400,4,2,5,60,0,0
296561,-400,4,2,1,5,0,0
296643,-400,4,2,1,40,0,0

[Colours]
Combo1 : 32,141,240
Combo2 : 192,192,192
Combo3 : 142,245,251
Combo4 : 61,158,160

[HitObjects]
40,49,9920,5,0,1:2:0:0:
52,52,10576,1,0,1:2:0:0:
64,55,11232,1,0,1:2:0:0:
76,58,11888,1,0,1:2:0:0:
143,15,12215,1,0,0:0:0:0:
238,92,12543,6,0,P|302:79|355:158,1,150,0|0,1:2|0:0,0:0:0:0:
314,204,12953,1,0,0:0:0:0:
303,213,13035,2,0,L|316:272,1,37.5
274,363,13199,2,0,B|318:341|318:341|361:371|425:356,1,150,8|0,0:0|0:0,0:0:0:0:
499,274,13691,1,0,1:2:0:0:
428,185,13855,6,0,P|418:228|408:272,1,75,0|0,1:2|0:0,0:0:0:0:
501,129,14183,1,0,1:2:0:0:
409,52,14347,2,0,B|320:67|365:104|261:123,1,150,0|0,1:2|1:2,0:0:0:0:
198,0,14838,2,0,P|238:19|282:27,1,75
124,132,15166,6,0,P|78:128|5:199,1,150,0|0,1:2|0:0,0:0:0:0:
52,251,15576,1,0,0:0:0:0:
66,254,15658,1,0,1:2:0:0:
80,257,15740,1,0,0:0:0:0:
94,260,15822,2,0,P|144:270|245:301,1,150,8|0,0:0|0:0,0:0:0:0:
196,202,16314,1,0,1:2:0:0:
305,364,16478,6,0,B|384:330|384:330|425:344|418:380,1,150,0|0,1:2|1:2,0:0:0:0:
325,242,16970,2,0,P|314:200|301:163,1,75,0|8,0:0|0:0,0:0:0:0:
383,71,17297,1,0,1:2:0:0:
463,180,17461,2,0,P|425:168|382:157,1,75
251,32,17789,6,0,B|198:53|198:53|179:105|117:127,1,150,0|0,1:2|0:0,0:0:0:0:
69,87,18199,1,0,0:0:0:0:
57,75,18281,2,0,L|65:33,1,37.5
14,157,18445,2,0,P|25:200|54:317,1,150,8|0,0:0|0:0,0:0:0:0:
10,381,18937,1,0,1:2:0:0:
138,288,19101,6,0,P|177:292|213:323,1,75,0|0,1:2|0:0,0:0:0:0:
332,383,19429,1,0,1:2:0:0:
391,332,19592,2,0,P|378:287|366:241,2,75,0|8|0,1:2|0:0|1:2,0:0:0:0:
429,200,20084,1,0,0:0:0:0:
287,277,20248,1,0,0:0:0:0:
429,200,20412,6,0,B|439:116|476:151|486:52,1,150,0|0,1:2|0:0,0:0:0:0:
428,13,20822,1,0,0:0:0:0:
413,10,20904,1,0,1:2:0:0:
399,16,20986,1,0,0:0:0:0:
390,28,21068,2,0,P|336:49|264:91,1,112.5,8|0,0:0|0:0,0:0:0:0:
269,88,21396,2,0,L|287:135,1,37.5,0|0,1:2|1:2,0:0:0:0:
188,175,21560,2,0,L|195:129,1,37.5,0|0,1:2|1:2,0:0:0:0:
91,22,21724,6,0,P|56:31|7:45,2,67.4999979400635,0|0|0,1:2|1:2|1:2,0:0:0:0:
193,137,22379,5,8,0:0:0:0:
142,199,22543,1,0,1:2:0:0:
67,178,22707,1,0,0:0:0:0:
120,117,22871,1,0,0:0:0:0:
17,242,23035,6,0,B|37:331|59:285|71:396,1,150,0|0,1:2|0:0,0:0:0:0:
174,309,23445,1,0,0:0:0:0:
164,295,23527,2,0,P|143:290|116:279,1,37.5
253,375,23691,2,0,P|302:330|379:353,1,150,8|0,0:0|0:0,0:0:0:0:
273,241,24183,1,0,1:2:0:0:
393,176,24347,6,0,P|382:217|373:256,1,75,0|0,1:2|0:0,0:0:0:0:
312,127,24674,1,0,1:2:0:0:
450,19,24838,2,0,B|469:111|511:66|515:184,1,150,0|0,1:2|1:2,0:0:0:0:
374,248,25330,2,0,P|424:260|462:288,1,78.7499975967408
512,314,25658,6,0,P|457:307|389:390,1,150,0|0,1:2|0:0,0:0:0:0:
322,338,26068,1,0,0:0:0:0:
311,327,26150,1,0,1:2:0:0:
296,324,26232,1,0,0:0:0:0:
281,326,26314,2,0,B|226:342|226:342|201:374|201:374|134:389,1,150,8|0,0:0|0:0,0:0:0:0:
59,314,26806,1,0,1:2:0:0:
142,275,26970,6,0,P|101:229|5:239,1,150,0|0,1:2|1:2,0:0:0:0:
145,122,27461,2,0,P|191:108|244:89,1,75,0|8,0:0|0:0,0:0:0:0:
57,13,27789,1,0,1:2:0:0:
11,76,27953,2,0,P|29:124|41:166,1,75
142,275,28281,6,0,B|223:260|190:222|280:211,1,150,0|0,1:2|0:0,0:0:0:0:
342,174,28691,1,0,0:0:0:0:
353,167,28773,2,0,L|344:120,1,37.5
285,9,28937,2,0,P|332:47|433:31,1,150,8|0,0:0|0:0,0:0:0:0:
512,93,29429,1,0,1:2:0:0:
446,197,29592,6,0,P|436:145|427:107,1,75,0|0,1:2|0:0,0:0:0:0:
373,294,29920,1,0,1:2:0:0:
432,343,30084,2,0,P|474:359|504:372,1,75,0|8,1:2|0:0,0:0:0:0:
368,211,30412,1,0,1:2:0:0:
266,349,30576,1,0,0:0:0:0:
179,284,30740,5,0,0:0:0:0:
179,284,30822,1,0,0:0:0:0:
179,284,30904,2,0,P|128:276|55:346,1,134.999995880127,0|0,1:2|0:0,0:0:0:0:
59,338,31232,2,0,P|68:358|79:395,3,37.5,0|0|0|0,1:2|0:0|0:0|0:0,0:0:0:0:
19,217,31560,6,0,P|28:179|62:160,1,60,8|0,0:0|0:0,0:0:0:0:
49,86,31888,2,0,P|82:65|119:76,1,60,0|0,1:2|1:2,0:0:0:0:
262,148,32215,5,0,1:2:0:0:
309,86,32379,1,0,1:2:0:0:
342,177,32543,5,0,1:2:0:0:
237,49,32707,1,0,1:2:0:0:
247,226,32871,5,8,0:0:0:0:
389,111,33035,1,0,0:0:0:0:
487,312,33199,5,0,1:2:0:0:
472,306,33281,1,0,1:2:0:0:
457,308,33363,1,0,1:2:0:0:
443,315,33445,1,0,1:2:0:0:
432,326,33527,6,0,P|367:341|331:354,1,90,0|0,1:2|0:0,0:0:0:0:
318,353,33855,2,0,L|311:395,3,30
213,338,34183,2,0,P|199:277|234:228,1,120,8|0,0:0|0:0,0:0:0:0:
295,148,34674,1,0,1:2:0:0:
345,256,34838,2,0,P|298:244|224:231,1,120,0|0,1:2|1:2,0:0:0:0:
19,157,35494,1,8,0:0:0:0:
87,97,35658,2,0,P|110:159|132:215,1,120,0|0,1:2|0:0,0:0:0:0:
19,309,36150,6,0,P|63:312|105:363,1,90,0|0,1:2|0:0,0:0:0:0:
99,355,36478,2,0,L|81:404,3,30,0|0|0|0,0:0|0:0|1:2|0:0,0:0:0:0:
188,384,36806,2,0,P|221:371|257:358,1,60,8|0,0:0|0:0,0:0:0:0:
254,240,37133,2,0,P|230:265|221:304,1,60,0|0,0:0|1:2,0:0:0:0:
369,384,37461,2,0,B|363:351|332:339|332:339|325:307|345:282,1,120,0|0,1:2|1:2,0:0:0:0:
343,283,38117,5,8,0:0:0:0:
502,226,38281,1,0,1:2:0:0:
403,148,38445,2,0,L|419:241,1,60
457,384,38773,2,0,P|465:339|471:295,1,90,0|0,1:2|0:0,0:0:0:0:
462,281,39101,2,0,L|433:288,3,30
329,210,39429,2,0,P|270:207|229:249,1,120,8|0,0:0|0:0,0:0:0:0:
229,247,39920,1,0,1:2:0:0:
253,378,40084,6,0,B|321:356|321:356|342:366|372:391,1,120,0|0,1:2|1:2,0:0:0:0:
289,257,40576,1,0,1:2:0:0:
92,319,40740,1,8,0:0:0:0:
168,383,40904,2,0,P|175:353|183:325,1,60,0|0,1:2|1:2,0:0:0:0:
0,195,41396,6,0,P|44:230|85:228,1,90,0|0,1:2|0:0,0:0:0:0:
94,227,41724,2,0,L|86:193,3,30,0|0|0|0,0:0|0:0|1:2|0:0,0:0:0:0:
125,101,42052,2,0,P|81:66|40:68,1,90,8|0,0:0|0:0,0:0:0:0:
34,83,42379,1,0,1:2:0:0:
25,99,42460,1,0,1:2:0:0:
18,116,42542,1,0,1:2:0:0:
10,132,42624,1,0,1:2:0:0:
1,151,42707,2,0,L|64:139,1,60,0|0,1:2|0:0,0:0:0:0:
167,172,43035,5,0,0:0:0:0:
245,212,43199,1,0,1:2:0:0:
174,381,43363,1,8,0:0:0:0:
103,263,43527,2,0,P|175:282|259:319,1,150,0|0,1:2|0:0,0:0:0:0:
276,320,44019,6,0,P|307:308|332:254,1,90,0|0,1:2|0:0,0:0:0:0:
332,242,44347,2,0,L|316:201,3,30
420,365,44674,2,0,P|430:305|440:246,1,120,8|0,0:0|0:0,0:0:0:0:
332,242,45166,1,0,1:2:0:0:
276,320,45330,2,0,P|212:333|147:342,1,120,0|0,1:2|1:2,0:0:0:0:
96,256,45822,1,0,1:2:0:0:
186,104,45986,1,8,0:0:0:0:
91,161,46150,1,0,1:2:0:0:
91,161,46314,6,0,P|182:196|227:217,1,120,0|0,0:0|1:2,0:0:0:0:
318,144,46806,1,0,1:2:0:0:
217,48,46970,2,0,L|227:86,3,30,0|0|0|0,0:0|0:0|1:2|0:0,0:0:0:0:
385,214,47297,2,0,P|417:167|401:103,1,120,8|0,0:0|0:0,0:0:0:0:
294,0,47789,5,0,1:2:0:0:
221,47,47953,2,0,B|150:50|183:69|91:85,1,120,0|0,1:0|1:2,0:0:0:0:
107,81,48445,1,0,0:0:0:0:
194,252,48609,2,0,P|201:209|227:111,1,120,8|0,0:0|0:0,0:0:0:0:
219,134,49101,1,0,0:0:0:0:
42,213,49265,6,0,P|72:238|76:286,1,90,0|0,1:2|0:0,0:0:0:0:
33,352,49592,2,0,L|-3:345,3,30
139,373,49920,2,0,P|150:313|164:255,1,120,8|0,0:0|0:0,0:0:0:0:
103,191,50412,1,0,1:2:0:0:
263,239,50576,6,0,P|265:272|245:306,1,60,0|0,1:2|0:0,0:0:0:0:
163,255,50904,1,0,1:2:0:0:
243,160,51068,1,0,1:2:0:0:
103,106,51232,1,8,0:0:0:0:
196,37,51396,2,0,P|179:108|168:165,1,120,0|0,1:2|0:0,0:0:0:0:
274,257,51888,6,0,P|316:263|363:217,1,90,0|0,1:2|0:0,0:0:0:0:
367,219,52215,2,0,L|360:183,3,30,0|0|0|0,1:2|0:0|0:0|0:0,0:0:0:0:
443,345,52543,2,0,P|394:303|331:310,1,120,8|0,0:0|1:2,0:0:0:0:
341,306,53035,1,0,0:0:0:0:
206,376,53199,2,0,L|216:293,1,60,0|0,1:2|1:2,0:0:0:0:
290,370,53527,1,0,1:2:0:0:
290,370,53691,1,0,1:2:0:0:
135,296,53855,5,8,0:0:0:0:
221,215,54019,1,0,1:2:0:0:
64,87,54183,1,0,1:2:0:0:
67,107,54265,1,0,1:2:0:0:
70,127,54347,1,0,1:2:0:0:
74,147,54429,1,0,1:2:0:0:
78,167,54511,6,0,B|166:173|140:210|248:218,1,151.875000579357,0|0,1:2|0:0,0:0:0:0:
253,145,54838,2,0,P|250:125|242:93,3,37.5
335,229,55166,2,0,P|385:218|446:271,1,120,8|0,0:0|1:0,0:0:0:0:
337,132,55658,1,0,0:0:0:0:
459,28,55822,5,0,0:0:0:0:
510,93,55986,2,0,P|462:76|372:50,1,120,0|0,1:2|1:2,0:0:0:0:
278,146,56478,2,0,P|324:134|364:126,1,60,8|0,0:0|1:2,0:0:0:0:
439,254,56806,1,0,0:0:0:0:
439,254,56970,1,0,0:0:0:0:
339,369,57133,6,0,B|323:304|355:309|329:226,1,120,0|0,1:2|0:0,0:0:0:0:
292,185,57543,1,0,0:0:0:0:
274,173,57625,1,0,0:0:0:0:
252,173,57707,1,0,0:0:0:0:
232,181,57789,2,0,P|184:199|116:230,1,120,8|0,0:0|1:2,0:0:0:0:
19,177,58281,1,0,1:2:0:0:
63,272,58445,6,0,P|111:261|163:317,1,112.5,0|0,1:2|0:0,0:0:0:0:
161,309,58773,1,0,1:2:0:0:
21,384,58937,2,0,P|7:336|-3:308,1,60,0|8,0:0|0:0,0:0:0:0:
138,182,59265,2,0,P|146:149|158:104,1,75,0|0,1:2|0:0,0:0:0:0:
5,7,59756,6,0,P|15:39|30:88,1,67.4999979400635,0|0,1:2|0:0,0:0:0:0:
28,84,60002,1,0,0:0:0:0:
31,96,60084,1,0,1:2:0:0:
101,45,60248,1,0,0:0:0:0:
183,101,60412,6,0,P|167:130|143:175,1,67.4999979400635,0|0,1:0|0:0,0:0:0:0:
144,171,60658,1,0,0:0:0:0:
138,182,60740,1,0,1:2:0:0:
224,195,60904,1,0,0:0:0:0:
209,285,61068,6,0,P|177:295|128:310,1,67.4999979400635,0|0,1:2|0:0,0:0:0:0:
132,307,61314,1,0,0:0:0:0:
120,311,61396,1,0,1:2:0:0:
171,381,61560,1,0,0:0:0:0:
50,355,61724,6,0,P|40:323|25:274,1,67.4999979400635,0|0,1:2|0:0,0:0:0:0:
28,278,61970,1,0,0:0:0:0:
24,266,62052,1,0,1:2:0:0:
70,194,62216,1,0,0:0:0:0:
258,110,62379,5,0,1:2:0:0:
328,160,62543,1,0,0:0:0:0:
340,152,62625,1,0,0:0:0:0:
352,144,62707,2,0,P|340:100|328:52,1,67.4999979400635,0|0,1:2|0:0,0:0:0:0:
392,240,63035,5,0,1:2:0:0:
462,190,63199,1,0,0:0:0:0:
474,198,63281,1,0,0:0:0:0:
486,206,63363,2,0,P|474:250|462:298,1,67.4999979400635,0|0,1:2|0:0,0:0:0:0:
400,356,63691,6,0,L|364:348,3,33.7499989700318
312,296,64019,2,0,L|276:304,3,33.7499989700318,0|0|0|0,1:2|0:0|1:2|0:0,0:0:0:0:
217,356,64347,2,0,L|169:344,1,33.7499989700318,8|0,0:0|0:0,0:0:0:0:
139,274,64511,2,0,L|171:265,1,33.7499989700318,0|0,1:2|0:0,0:0:0:0:
245,207,64674,1,0,1:2:0:0:
277,188,64756,1,0,1:2:0:0:
291,153,64838,1,0,1:2:0:0:
286,116,64920,1,0,1:2:0:0:
259,90,65002,6,0,P|188:69|115:57,1,134.999995880127,0|0,1:2|0:0,0:0:0:0:
41,31,65330,1,0,0:0:0:0:
30,41,65412,1,0,0:0:0:0:
26,55,65494,1,0,0:0:0:0:
32,68,65576,1,0,0:0:0:0:
38,81,65658,2,0,P|74:120|81:238,1,150,8|0,0:0|0:0,0:0:0:0:
5,171,66150,1,0,1:2:0:0:
70,293,66314,6,0,B|137:281|127:319|205:306,1,120,0|0,1:2|1:2,0:0:0:0:
319,259,66806,1,0,1:2:0:0:
282,375,66970,2,0,P|269:339|260:311,1,60,8|0,0:0|1:2,0:0:0:0:
414,249,67297,2,0,P|401:285|392:313,1,60
280,178,67625,6,0,L|239:166,2,30,0|0|0,1:2|0:0|1:2,0:0:0:0:
411,120,67953,1,0,0:0:0:0:
426,111,68035,1,0,0:0:0:0:
435,95,68117,1,0,1:2:0:0:
435,76,68199,1,0,0:0:0:0:
426,60,68281,2,0,P|371:43|308:22,1,120,8|0,0:0|0:0,0:0:0:0:
191,126,68773,6,0,L|150:138,1,30,0|0,1:2|0:0,0:0:0:0:
46,33,68937,2,0,P|101:19|150:58,2,120,0|0|8,1:2|1:2|0:0,0:0:0:0:
56,216,69756,2,0,P|65:178|74:140,1,60,0|0,1:2|0:0,0:0:0:0:
8,104,70084,1,0,0:0:0:0:
119,294,70248,6,0,B|188:280|188:280|210:303|232:318,1,120,0|0,1:2|0:0,0:0:0:0:
279,365,70658,1,0,0:0:0:0:
296,366,70740,1,0,0:0:0:0:
311,357,70822,1,0,0:0:0:0:
323,343,70904,1,8,0:0:0:0:
372,270,71068,2,0,P|405:280|439:289,1,60
486,362,71396,1,0,1:2:0:0:
472,205,71560,6,0,P|483:166|494:137,1,60,0|0,1:2|0:0,0:0:0:0:
401,27,71888,1,0,1:2:0:0:
354,111,72052,1,0,1:2:0:0:
257,47,72215,1,8,0:0:0:0:
194,161,72379,1,0,1:2:0:0:
91,46,72543,1,0,0:0:0:0:
36,206,72707,1,0,0:0:0:0:
107,136,72871,6,0,P|153:149|207:164,2,89.9999972534181,4|0|8,1:2|0:0|0:0,0:0:0:0:
5,311,73855,5,0,1:2:0:0:
7,326,73937,1,0,1:2:0:0:
18,336,74019,1,0,1:2:0:0:
32,341,74101,1,0,1:2:0:0:
51,338,74183,6,0,P|90:324|142:315,1,82.5000025177003,0|0,1:2|0:0,0:0:0:0:
157,283,74429,2,0,P|197:290|247:308,1,82.5000025177003,0|0,1:2|0:0,0:0:0:0:
262,337,74674,1,0,1:2:0:0:
415,378,74838,5,8,0:0:0:0:
437,307,75002,1,0,1:2:0:0:
367,218,75166,5,0,0:0:0:0:
347,146,75330,1,0,0:0:0:0:
421,65,75494,6,0,P|465:52|516:32,1,82.5000025177003,2|0,1:2|0:0,0:0:0:0:
296,23,75822,1,0,0:0:0:0:
279,20,75904,1,0,0:0:0:0:
262,18,75986,1,0,0:0:0:0:
245,16,76068,1,0,0:0:0:0:
228,14,76150,2,0,P|209:58|207:99,1,82.5000025177003,8|0,0:0|0:0,0:0:0:0:
127,204,76478,1,0,1:2:0:0:
51,108,76642,1,0,1:2:0:0:
127,204,76806,6,0,P|172:193|227:185,1,82.5000025177003,0|0,1:2|0:0,0:0:0:0:
126,344,77133,2,0,P|81:355|30:359,1,82.5000025177003,0|0,0:0|1:2,0:0:0:0:
201,276,77461,1,8,0:0:0:0:
274,353,77625,1,0,1:2:0:0:
199,266,77789,1,0,0:0:0:0:
285,360,77953,1,0,0:0:0:0:
427,252,78117,6,0,P|365:249|285:181,1,134.999995880127,2|0,1:2|0:0,0:0:0:0:
265,149,78445,1,0,0:0:0:0:
254,135,78527,1,0,0:0:0:0:
256,118,78609,1,0,0:0:0:0:
264,103,78691,1,0,0:0:0:0:
279,97,78773,2,0,P|330:85|385:68,1,82.5000025177003,8|0,0:0|0:0,0:0:0:0:
443,153,79101,1,0,1:2:0:0:
296,11,79265,1,0,1:2:0:0:
443,153,79429,6,0,P|446:204|438:242,1,82.5000025177003,2|0,1:2|0:0,0:0:0:0:
491,381,79756,2,0,P|449:344|345:337,1,123.75000377655,0|0,1:2|0:0,0:0:0:0:
370,328,80084,1,8,0:0:0:0:
277,363,80248,1,0,1:2:0:0:
164,300,80412,1,0,0:0:0:0:
37,363,80576,1,0,0:0:0:0:
164,300,80740,6,0,P|177:252|191:209,1,82.5000025177003,2|0,1:2|0:0,0:0:0:0:
193,205,80986,1,0,0:0:0:0:
199,189,81068,1,0,1:2:0:0:
130,131,81232,1,0,0:0:0:0:
186,53,81396,6,0,P|234:40|277:26,1,82.5000025177003,0|0,1:2|0:0,0:0:0:0:
281,24,81642,1,0,0:0:0:0:
297,18,81724,1,0,1:2:0:0:
355,87,81888,1,0,0:0:0:0:
440,156,82052,6,0,P|427:204|413:247,1,82.5000025177003,0|0,1:2|0:0,0:0:0:0:
411,251,82298,1,0,0:0:0:0:
405,267,82380,1,0,1:2:0:0:
474,325,82544,1,0,0:0:0:0:
337,338,82707,6,0,P|289:351|246:365,1,82.5000025177003,0|0,1:2|0:0,0:0:0:0:
242,367,82953,1,0,0:0:0:0:
226,373,83035,1,0,1:2:0:0:
168,304,83199,1,0,0:0:0:0:
23,366,83363,5,0,1:2:0:0:
69,276,83527,1,0,0:0:0:0:
74,260,83609,1,0,0:0:0:0:
79,244,83691,2,0,P|92:189|101:153,1,82.5000025177003,0|0,1:2|0:0,0:0:0:0:
24,18,84019,5,0,1:2:0:0:
114,64,84183,1,0,0:0:0:0:
130,69,84265,1,0,0:0:0:0:
146,74,84347,2,0,P|201:87|237:96,1,82.5000025177003,0|0,1:2|0:0,0:0:0:0:
354,36,84674,5,0,1:2:0:0:
375,47,84756,1,0,0:0:0:0:
390,66,84838,1,0,0:0:0:0:
397,89,84920,1,0,0:0:0:0:
398,113,85002,1,0,1:2:0:0:
393,137,85084,1,0,0:0:0:0:
384,160,85166,1,0,1:2:0:0:
372,181,85248,1,0,0:0:0:0:
354,198,85330,2,0,P|310:184|262:171,1,82.5000025177003,8|0,0:0|1:2,0:0:0:0:
171,327,85658,5,0,1:2:0:0:
194,356,85740,1,0,1:2:0:0:
229,367,85822,1,0,1:2:0:0:
266,368,85904,1,0,1:2:0:0:
299,352,85986,6,0,P|285:301|268:243,1,82.5000025177003,0|0,1:2|0:0,0:0:0:0:
384,160,86314,1,0,0:0:0:0:
397,169,86396,1,0,0:0:0:0:
405,182,86478,1,0,0:0:0:0:
409,197,86560,1,0,0:0:0:0:
407,213,86642,2,0,P|394:254|400:298,1,82.5000025177003,8|0,0:0|0:0,0:0:0:0:
464,364,86970,1,0,0:0:0:0:
309,271,87133,1,0,1:2:0:0:
492,165,87297,6,0,P|503:116|499:74,1,82.5000025177003,0|0,1:2|0:0,0:0:0:0:
385,15,87625,1,0,1:2:0:0:
298,108,87789,2,0,P|250:91|186:76,1,82.5000025177003,0|8,1:2|0:0,0:0:0:0:
125,176,88117,1,0,1:2:0:0:
36,32,88281,1,0,0:0:0:0:
120,87,88445,1,0,0:0:0:0:
52,239,88609,6,0,P|59:287|74:334,1,82.5000025177003,0|0,1:2|1:2,0:0:0:0:
224,367,88937,2,0,P|230:342|232:301,3,41.2500012588501
234,309,89265,2,0,P|193:298|143:290,1,82.5000025177003,8|0,0:0|0:0,0:0:0:0:
308,229,89592,1,0,0:0:0:0:
365,353,89755,1,0,1:2:0:0:
474,250,89920,2,0,P|503:184|489:97,1,123.75000377655,0|0,1:2|0:0,0:0:0:0:
492,124,90248,2,0,P|444:111|386:95,1,82.5000025177003,0|0,1:2|0:0,0:0:0:0:
230,17,90576,1,8,0:0:0:0:
181,80,90740,2,0,B|195:157|214:116|227:224,1,123.75000377655,0|0,1:2|0:0,0:0:0:0:
228,206,91068,1,0,0:0:0:0:
277,342,91232,6,0,P|247:309|141:323,1,123.75000377655,0|0,1:2|0:0,0:0:0:0:
112,348,91560,1,0,0:0:0:0:
100,359,91642,1,0,0:0:0:0:
84,363,91724,1,0,0:0:0:0:
67,363,91806,1,0,0:0:0:0:
50,358,91888,2,0,P|26:311|26:269,1,82.5000025177003,8|0,0:0|0:0,0:0:0:0:
111,175,92215,1,0,0:0:0:0:
18,73,92379,1,0,1:2:0:0:
111,175,92543,5,0,1:2:0:0:
172,120,92707,2,0,P|157:72|149:28,1,82.5000025177003,0|0,0:0|1:2,0:0:0:0:
28,152,93035,1,0,1:2:0:0:
162,251,93199,2,0,B|246:234|228:268|324:254,1,123.75000377655,8|0,0:0|0:0,0:0:0:0:
298,259,93527,2,0,P|288:209|279:164,1,82.5000025177003
343,34,93855,6,0,P|399:31|470:85,1,123.75000377655,0|0,1:2|0:0,0:0:0:0:
494,131,94183,1,0,0:0:0:0:
480,141,94265,1,0,0:0:0:0:
472,155,94347,1,0,1:2:0:0:
471,171,94429,1,0,0:0:0:0:
476,186,94511,2,0,P|494:233|494:280,1,82.5000025177003,8|0,0:0|0:0,0:0:0:0:
433,371,94838,1,0,1:2:0:0:
416,367,94920,1,0,1:2:0:0:
399,364,95002,1,0,1:2:0:0:
382,361,95084,1,0,1:2:0:0:
365,357,95166,6,0,P|318:344|263:333,1,82.5000025177003,0|0,1:2|0:0,0:0:0:0:
235,276,95412,2,0,P|188:289|133:300,1,82.5000025177003,0|0,1:2|0:0,0:0:0:0:
103,352,95658,1,0,1:2:0:0:
15,199,95822,1,8,0:0:0:0:
77,154,95986,2,0,P|99:102|108:59,1,82.5000025177003,0|0,1:2|0:0,0:0:0:0:
232,9,96314,1,0,0:0:0:0:
232,9,96396,1,0,0:0:0:0:
232,9,96478,6,0,P|286:43|274:147,1,165.000005035401,0|0,1:2|0:0,0:0:0:0:
227,189,96888,2,0,P|212:177|185:166,2,41.2500012588501
317,264,97133,2,0,P|370:242|485:213,1,165.000005035401,8|0,0:0|0:0,0:0:0:0:
382,153,97625,1,0,1:2:0:0:
454,303,97789,6,0,P|451:346|438:385,1,82.5000025177003,0|0,1:2|0:0,0:0:0:0:
317,264,98117,2,0,P|304:224|301:183,1,82.5000025177003,0|0,1:2|1:2,0:0:0:0:
402,49,98445,1,8,0:0:0:0:
464,98,98609,1,0,1:2:0:0:
480,27,98773,1,0,0:0:0:0:
387,130,98937,1,0,0:0:0:0:
387,130,99019,1,0,0:0:0:0:
387,130,99101,6,0,P|320:125|234:94,1,123.75000377655,0|0,1:2|0:0,0:0:0:0:
203,62,99429,2,0,P|183:71|153:82,3,41.2500012588501,0|0|0|0,0:0|0:0|1:2|0:0,0:0:0:0:
52,32,99756,2,0,P|19:88|14:190,1,165.000005035401,8|0,0:0|0:0,0:0:0:0:
97,127,100248,1,0,1:0:0:0:
174,231,100412,6,0,P|127:245|88:266,1,82.5000025177003,0|0,1:2|0:0,0:0:0:0:
20,345,100740,2,0,P|57:363|96:374,1,82.5000025177003,0|0,1:2|0:0,0:0:0:0:
198,318,101068,1,8,0:0:0:0:
297,372,101232,2,0,P|316:322|330:279,1,82.5000025177003,0|0,1:2|0:0,0:0:0:0:
186,328,101560,1,0,0:0:0:0:
255,225,101724,6,0,P|252:166|214:84,1,123.75000377655,0|0,1:2|0:0,0:0:0:0:
181,43,102052,1,0,0:0:0:0:
189,29,102133,1,0,0:0:0:0:
205,25,102215,1,0,0:0:0:0:
221,25,102297,1,0,0:0:0:0:
237,27,102379,2,0,P|291:40|335:37,1,82.5000025177003,8|0,0:0|0:0,0:0:0:0:
414,102,102707,1,0,0:0:0:0:
492,31,102871,1,0,1:2:0:0:
414,102,103035,6,0,P|410:142|415:195,1,82.5000025177003,0|0,1:2|0:0,0:0:0:0:
490,256,103363,2,0,P|494:296|489:349,1,82.5000025177003,0|0,1:2|1:2,0:0:0:0:
390,372,103691,1,8,0:0:0:0:
307,348,103855,1,0,1:2:0:0:
224,324,104019,1,0,0:0:0:0:
143,300,104183,1,0,0:0:0:0:
32,371,104347,6,0,P|11:313|24:236,1,123.75000377655,0|0,1:2|0:0,0:0:0:0:
77,198,104674,2,0,P|69:171|64:145,3,41.2500012588501,0|0|0|0,0:0|0:0|1:2|0:0,0:0:0:0:
6,27,105002,2,0,P|55:57|152:44,1,123.75000377655,8|0,0:0|0:0,0:0:0:0:
187,17,105330,1,0,1:2:0:0:
199,27,105412,1,0,1:2:0:0:
208,40,105494,1,0,1:2:0:0:
212,55,105576,1,0,1:2:0:0:
212,71,105658,6,0,P|193:108|198:156,1,82.5000025177003,0|0,1:2|0:0,0:0:0:0:
145,201,105904,2,0,P|157:240|195:271,1,82.5000025177003,0|0,1:2|0:0,0:0:0:0:
243,318,106150,1,0,1:2:0:0:
381,365,106314,2,0,P|398:305|411:272,1,82.5000025177003,8|0,0:0|1:2,0:0:0:0:
285,175,106642,2,0,P|298:213|309:253,1,82.5000025177003
475,89,106970,6,0,P|430:40|330:40,1,165.000005035401,0|0,1:2|0:0,0:0:0:0:
260,90,107379,1,0,0:0:0:0:
245,106,107461,2,0,P|221:93|193:88,1,41.2500012588501
72,51,107625,2,0,P|108:107|110:190,1,123.75000377655,8|0,0:0|0:0,0:0:0:0:
106,180,107953,1,0,0:0:0:0:
38,247,108117,1,0,1:2:0:0:
118,321,108281,6,0,P|180:296|278:281,1,165.000005035401,0|0,1:2|1:2,0:0:0:0:
376,370,108773,1,0,1:2:0:0:
447,289,108937,2,0,P|463:240|463:198,1,82.5000025177003,8|0,0:0|0:0,0:0:0:0:
377,152,109265,2,0,P|361:103|361:61,1,82.5000025177003,0|0,1:2|0:0,0:0:0:0:
164,22,109592,6,0,P|212:60|214:175,1,146.249993305207,0|0,1:2|0:0,0:0:0:0:
170,191,109920,2,0,P|166:216|157:242,3,44.999998626709,0|0|0|0,0:0|0:0|1:2|0:0,0:0:0:0:
210,361,110248,2,8,P|157:328|70:323,1,134.999995880127,8|0,0:0|0:0,0:0:0:0:
20,355,110576,1,0,1:2:0:0:
11,338,110658,1,0,1:2:0:0:
9,320,110740,1,0,1:2:0:0:
12,302,110822,1,0,1:2:0:0:
19,285,110904,6,0,P|32:240|32:184,1,89.9999972534181,0|0,1:2|0:0,0:0:0:0:
21,164,111150,1,0,1:2:0:0:
21,164,111232,1,0,0:0:0:0:
109,122,111396,1,0,1:2:0:0:
27,1,111560,2,0,P|75:26|214:43,1,179.999994506836,8|0,0:0|0:0,0:0:0:0:
471,20,112215,6,0,P|429:57|437:174,1,179.999994506836,0|0,1:2|0:0,0:0:0:0:
497,220,112625,1,0,0:0:0:0:
512,230,112707,2,0,P|502:259|495:279,1,44.999998626709
464,371,112871,2,0,B|399:338|425:324|335:292,1,134.999995880127,8|0,0:0|0:0,0:0:0:0:
333,294,113199,1,0,0:0:0:0:
258,363,113363,1,0,1:2:0:0:
185,306,113527,2,0,P|134:346|13:354,1,179.999994506836,0|0,1:2|1:2,0:0:0:0:
93,256,114019,1,0,1:2:0:0:
14,144,114183,6,0,P|71:124|112:105,1,89.9999972534181,8|0,0:0|1:2,0:0:0:0:
35,34,114511,1,0,0:0:0:0:
35,34,114674,1,0,0:0:0:0:
176,173,114838,2,0,P|221:182|271:204,1,89.9999972534181,0|0,1:0|0:0,0:0:0:0:
337,283,115166,2,0,P|363:271|396:267,3,44.999998626709,0|0|0|0,0:0|0:0|1:2|0:0,0:0:0:0:
495,318,115494,2,0,P|455:258|451:173,1,134.999995880127,8|0,0:0|0:0,0:0:0:0:
490,129,115822,1,0,1:2:0:0:
498,112,115904,1,0,1:2:0:0:
497,94,115986,1,0,1:2:0:0:
489,77,116068,1,0,1:2:0:0:
475,65,116150,6,0,P|423:63|375:86,1,89.9999972534181,0|0,1:2|0:0,0:0:0:0:
335,131,116396,1,0,1:2:0:0:
335,131,116478,2,0,P|293:136|241:122,1,89.9999972534181,0|0,0:0|1:2,0:0:0:0:
45,37,116806,1,8,0:0:0:0:
74,128,116970,1,0,1:2:0:0:
43,216,117133,1,0,0:0:0:0:
258,369,117461,5,2,0:0:0:0:
258,369,117789,2,0,P|288:362|319:357,1,44.999998626709,2|0,0:1|0:0,0:0:0:0:
437,353,118117,5,2,3:0:0:0:
437,353,118445,2,0,P|430:323|425:292,1,44.999998626709,2|0,0:1|0:0,0:0:0:0:
410,191,118773,5,2,0:0:0:0:
410,191,119101,2,0,P|380:198|349:203,1,44.999998626709
254,227,119429,6,0,P|231:189|233:129,1,89.9999972534181,2|0,3:0|0:0,0:0:0:0:
163,85,119920,1,0,0:0:0:0:
224,21,120084,1,2,0:0:0:0:
224,21,120412,5,0,0:0:0:0:
291,62,120576,1,0,0:0:0:0:
361,21,120740,1,2,0:3:0:0:
297,75,120904,5,0,0:0:0:0:
260,146,121068,1,0,0:0:0:0:
310,211,121232,1,0,0:0:0:0:
404,169,121396,6,0,P|428:204|432:262,1,89.9999972534181,2|0,0:0|0:0,0:0:0:0:
434,250,121888,1,0,0:0:0:0:
388,329,122052,2,0,P|358:319|328:314,1,44.999998626709,2|0,0:3|0:0,0:0:0:0:
248,278,122379,2,0,P|218:288|188:293,1,44.999998626709
122,357,122707,1,2,0:0:0:0:
122,357,123035,1,0,0:0:0:0:
55,304,123199,5,0,0:0:0:0:
120,229,123363,2,0,P|130:200|146:172,1,44.999998626709,2|0,0:3|0:0,0:0:0:0:
54,147,123691,2,0,P|44:118|28:90,1,44.999998626709
107,29,124019,1,2,0:0:0:0:
107,29,124347,1,0,0:0:0:0:
107,29,124674,6,0,P|141:35|168:36,1,44.999998626709,2|0,0:3|0:0,0:0:0:0:
222,95,125002,2,0,P|256:89|283:88,1,44.999998626709
341,25,125330,1,2,0:0:0:0:
341,25,125658,1,0,0:0:0:0:
397,83,125822,1,0,0:0:0:0:
496,24,125986,6,0,P|484:51|479:75,1,44.999998626709,2|0,0:3|0:0,0:0:0:0:
352,195,126314,2,0,P|346:173|336:153,1,44.999998626709
504,257,126642,2,0,P|472:264|415:308,2,89.9999972534181,2|0|8,0:0|0:0|0:0,0:0:0:0:
386,370,127461,1,0,0:0:0:0:
372,375,127543,2,0,P|341:364|301:351,1,67.4999979400635,8|8,0:0|0:0,0:0:0:0:
100,375,127953,5,0,1:2:0:0:
60,307,128117,1,0,0:0:0:0:
98,237,128281,1,0,0:0:0:0:
66,165,128445,2,0,P|60:129|50:99,1,56.2500021457673,0|8,1:2|0:1,0:0:0:0:
54,110,129101,1,0,0:0:0:0:
119,62,129265,5,0,1:2:0:0:
197,110,129429,1,0,1:2:0:0:
279,48,129592,1,0,0:0:0:0:
365,115,129756,1,0,1:2:0:0:
365,115,130084,1,0,1:2:0:0:
432,58,130248,2,0,P|448:98|470:138,1,84.3750032186509
474,145,130576,5,0,1:2:0:0:
417,217,130740,1,0,0:0:0:0:
479,288,130904,1,8,0:1:0:0:
415,349,131068,1,0,0:0:0:0:
308,292,131232,6,0,P|291:285|275:277,1,28.1250010728836,8|0,0:1|0:0,0:0:0:0:
282,280,131724,5,0,0:0:0:0:
219,354,131888,5,0,1:2:0:0:
79,277,132052,1,0,1:2:0:0:
183,250,132215,1,0,0:0:0:0:
112,380,132379,1,0,1:2:0:0:
183,250,132543,6,0,P|197:215|203:182,1,56.2500021457673,8|0,0:1|0:0,0:0:0:0:
16,123,132871,2,0,P|22:150|34:176,1,56.2500021457673,0|0,1:2|0:0,0:0:0:0:
163,58,133199,6,0,P|208:35|305:21,1,134.999995880127,0|0,1:2|0:0,0:0:0:0:
359,77,133609,1,0,0:0:0:0:
374,88,133691,2,0,P|370:108|363:135,1,33.7499989700318,0|0,1:2|0:0,0:0:0:0:
299,195,133855,2,0,P|350:210|415:247,1,101.249996910095,8|0,0:0|0:0,0:0:0:0:
404,237,134183,1,0,0:0:0:0:
481,194,134347,1,0,1:2:0:0:
457,313,134511,2,0,B|387:330|410:353|324:377,2,134.999995880127,0|0|8,1:2|1:2|0:0,0:0:0:0:
299,195,135330,1,0,1:2:0:0:
432,83,135494,2,0,P|417:118|406:156,1,67.4999979400635
323,293,135822,6,0,P|302:288|287:280,1,30,0|0,1:2|0:0,0:0:0:0:
222,308,135986,2,0,P|210:289|205:273,1,30
134,254,136150,2,0,P|138:233|146:218,1,30
93,167,136314,2,0,P|111:155|127:150,1,30,0|0,1:2|0:0,0:0:0:0:
227,101,136478,5,8,0:0:0:0:
227,101,136806,1,0,1:2:0:0:
243,87,136888,1,0,1:2:0:0:
249,67,136970,1,0,1:2:0:0:
244,46,137052,1,0,1:2:0:0:
230,29,137133,6,0,P|186:17|139:8,1,82.5000025177003,10|0,1:2|0:0,0:0:0:0:
30,112,137379,2,0,P|70:103|110:92,1,82.5000025177003,10|0,1:2|0:0,0:0:0:0:
165,153,137625,1,10,1:2:0:0:
45,331,137789,6,0,P|27:290|30:247,1,75,10|0,0:0|0:0,0:0:0:0:
99,214,138117,2,0,P|117:255|114:298,1,75
255,367,138445,6,0,P|324:348|431:333,1,165.000005035401,2|0,1:2|0:0,0:0:0:0:
477,277,138855,1,0,0:0:0:0:
486,266,138937,2,0,P|493:240|501:205,1,41.2500012588501
449,158,139101,2,0,P|433:114|428:69,1,82.5000025177003,8|0,0:0|0:0,0:0:0:0:
495,18,139429,1,0,1:2:0:0:
341,102,139593,1,0,1:2:0:0:
194,40,139756,6,0,P|155:26|109:14,1,82.5000025177003,2|0,1:2|0:0,0:0:0:0:
95,114,140084,2,0,P|134:128|180:140,1,82.5000025177003,0|0,0:0|1:2,0:0:0:0:
263,194,140412,1,8,0:0:0:0:
304,261,140576,1,0,1:2:0:0:
255,324,140740,1,0,0:0:0:0:
304,383,140904,1,0,0:0:0:0:
197,253,141068,6,0,P|161:242|108:232,1,82.5000025177003,2|0,1:2|0:0,0:0:0:0:
15,358,141396,1,0,0:0:0:0:
28,367,141478,1,0,0:0:0:0:
43,371,141560,1,0,0:0:0:0:
59,371,141642,1,0,0:0:0:0:
75,367,141724,2,0,P|113:357|169:349,1,82.5000025177003,8|0,0:0|0:0,0:0:0:0:
48,268,142052,1,0,1:2:0:0:
48,268,142215,1,0,1:2:0:0:
155,168,142379,6,0,P|171:122|176:77,1,82.5000025177003,2|0,1:2|0:0,0:0:0:0:
28,21,142707,2,0,P|34:61|48:100,1,82.5000025177003,0|0,1:2|1:2,0:0:0:0:
161,171,143035,1,0,1:2:0:0:
161,171,143117,1,0,1:2:0:0:
161,171,143199,1,0,1:2:0:0:
243,116,143363,1,0,0:0:0:0:
338,181,143527,1,0,1:2:0:0:
512,50,143691,6,0,P|460:51|361:21,1,123.75000377655,2|0,1:2|0:0,0:0:0:0:
312,13,144019,1,0,0:0:0:0:
301,25,144101,1,0,0:0:0:0:
298,41,144183,1,0,0:0:0:0:
300,57,144265,1,0,0:0:0:0:
308,71,144347,2,0,P|329:121|331:157,1,82.5000025177003,8|0,0:0|0:0,0:0:0:0:
436,236,144674,2,0,P|415:286|413:322,1,82.5000025177003,0|0,0:0|1:2,0:0:0:0:
304,373,145002,6,0,P|259:335|184:323,1,123.75000377655,2|0,1:2|0:0,0:0:0:0:
196,321,145330,2,0,P|155:338|121:353,1,82.5000025177003
26,293,145658,1,2,0:3:0:0:
103,235,145822,1,2,0:3:0:0:
12,176,145986,1,0,0:0:0:0:
151,95,146150,1,0,0:0:0:0:
63,66,146314,6,0,P|77:125|97:159,1,82.5000025177003,2|0,1:2|0:0,0:0:0:0:
204,186,146642,1,0,0:0:0:0:
218,193,146724,1,0,0:0:0:0:
234,193,146806,1,0,1:2:0:0:
250,190,146888,1,0,0:0:0:0:
263,180,146970,2,0,P|299:162|355:152,1,82.5000025177003,8|0,0:0|0:0,0:0:0:0:
432,82,147297,1,0,0:0:0:0:
336,20,147461,1,0,1:2:0:0:
432,82,147625,6,0,P|450:123|455:170,1,82.5000025177003,2|0,1:2|0:0,0:0:0:0:
368,294,147953,2,0,P|405:266|490:276,1,123.75000377655,2|0,0:0|0:0,0:0:0:0:
479,269,148281,1,10,0:0:0:0:
439,360,148445,1,0,1:2:0:0:
299,239,148609,1,2,0:0:0:0:
188,360,148773,1,0,0:0:0:0:
110,312,148937,6,0,P|83:263|79:156,1,134.999995880127,2|0,1:2|0:0,0:0:0:0:
73,185,149592,1,10,0:0:0:0:
137,137,149756,1,0,0:0:0:0:
139,58,149920,1,0,0:0:0:0:
71,12,150084,1,0,1:2:0:0:
139,58,150248,6,0,P|186:62|291:28,1,134.999995880127,2|0,1:2|1:2,0:0:0:0:
270,40,150904,1,8,0:0:0:0:
339,91,151068,2,0,P|394:54|467:59,1,134.999995880127,0|0,1:2|0:0,0:0:0:0:
500,177,151560,6,0,P|459:168|380:155,1,101.249996910095,2|0,1:2|0:0,0:0:0:0:
343,208,151888,2,0,P|355:231|361:247,3,33.7499989700318,0|0|0|0,0:0|0:0|1:2|0:0,0:0:0:0:
440,308,152215,2,0,B|374:300|386:331|295:323,1,134.999995880127,8|0,0:0|0:0,0:0:0:0:
201,294,152707,1,0,1:2:0:0:
114,360,152871,6,0,P|83:318|77:238,1,134.999995880127,2|2,1:2|1:2,0:0:0:0:
77,237,153527,1,8,0:0:0:0:
148,190,153691,1,0,1:2:0:0:
232,225,153855,1,0,0:0:0:0:
303,172,154019,1,0,0:0:0:0:
226,103,154183,6,0,P|188:89|87:44,2,134.999995880127,2|0|8,1:2|0:0|0:0,0:0:0:0:
303,172,155002,1,0,0:0:0:0:
366,102,155166,2,0,P|374:51|374:17,1,67.4999979400635,0|0,0:0|1:2,0:0:0:0:
465,142,155494,2,0,P|469:188|491:284,2,134.999995880127,0|0|8,1:2|1:2|0:0,0:0:0:0:
375,251,156314,1,0,1:2:0:0:
426,361,156478,2,0,P|395:351|354:339,1,67.4999979400635
256,259,156806,5,0,1:2:0:0:
256,259,157133,1,0,1:2:0:0:
256,259,157461,1,8,0:0:0:0:
199,320,157625,1,0,0:0:0:0:
122,300,157789,1,0,1:2:0:0:
122,300,158117,1,0,1:2:0:0:
86,226,158281,1,0,1:2:0:0:
143,167,158445,1,0,1:2:0:0:
220,186,158609,1,0,1:2:0:0:
273,59,158773,6,0,P|235:64|190:77,1,67.4999979400635,8|0,0:0|1:2,0:0:0:0:
47,29,159101,1,0,1:2:0:0:
29,49,159183,1,0,1:2:0:0:
21,74,159265,1,0,1:2:0:0:
23,100,159347,1,0,1:2:0:0:
30,125,159429,1,4,0:0:0:0:
52,59,169920,6,0,B|145:33|172:80|160:79|192:141|271:106,1,240,4|2,0:0|0:0,0:0:0:0:
269,106,172215,1,0,0:0:0:0:
330,175,172543,6,0,B|347:220|418:279|491:248|487:145|412:162,1,247.500007553101,2|0,0:0|0:0,0:0:0:0:
416,161,173855,2,0,P|404:133|401:90,2,55.0000016784668,0|0|0,1:2|1:2|1:2,0:0:0:0:
503,362,175166,6,0,P|461:340|334:329,3,165.000005035401,4|0|2|0,0:0|0:0|0:0|0:0,0:0:0:0:
254,363,177461,1,0,0:0:0:0:
101,309,177789,6,0,B|82:226|41:249|23:155,1,165.000005035401,2|0,0:0|0:0,0:0:0:0:
25,165,178773,1,0,0:0:0:0:
91,104,178937,1,0,0:0:0:0:
47,31,179101,2,0,P|92:15|153:11,1,90,8|8,0:3|0:3,0:0:0:0:
133,10,180084,1,0,1:2:0:0:
211,58,180412,6,0,P|235:65|259:75,3,44.999998626709
383,29,183035,5,0,1:2:0:0:
383,29,183691,1,0,1:2:0:0:
383,29,184347,1,0,1:2:0:0:
383,29,185002,2,0,P|398:66|406:95,1,52.4999983978272,0|0,1:2|0:0,0:0:0:0:
459,133,185330,2,0,P|444:170|436:199,1,52.4999983978272
485,342,185658,6,0,P|449:315|357:306,1,123.75000377655,0|0,1:2|0:0,0:0:0:0:
311,345,185986,2,0,P|291:350|271:357,3,37.5
145,378,186314,2,0,P|151:337|170:277,1,75,8|0,0:0|0:0,0:0:0:0:
65,264,186642,2,0,P|55:300|50:337,1,75,0|0,0:0|1:2,0:0:0:0:
154,203,186970,6,0,B|124:116|119:157|92:50,1,150,0|0,1:2|1:2,0:0:0:0:
31,119,187461,1,0,1:2:0:0:
169,15,187625,2,0,P|211:16|261:38,1,75,8|0,0:0|1:2,0:0:0:0:
295,128,187953,2,0,P|253:127|203:105,1,75
395,18,188281,5,0,1:2:0:0:
453,71,188445,2,0,P|459:102|469:152,1,75,0|0,1:2|0:0,0:0:0:0:
414,200,188691,1,0,0:0:0:0:
405,213,188773,2,0,P|401:235|394:266,1,37.5,0|0,1:2|0:0,0:0:0:0:
462,354,188937,1,8,0:0:0:0:
390,329,189101,1,0,0:0:0:0:
323,365,189265,1,0,0:0:0:0:
255,337,189429,1,0,1:2:0:0:
117,365,189592,6,0,P|99:315|77:206,2,150,0|0|8,1:2|1:2|0:0,0:0:0:0:
179,262,190412,1,0,1:2:0:0:
17,168,190576,2,0,P|61:193|137:178,1,112.5
120,187,190904,6,0,B|142:102|112:129|143:25,1,134.999995880127,0|0,1:2|0:0,0:0:0:0:
204,15,191232,1,0,0:0:0:0:
220,23,191314,1,0,0:0:0:0:
234,35,191396,1,0,0:0:0:0:
240,52,191478,1,0,0:0:0:0:
240,70,191560,2,0,P|308:49|377:39,1,112.5,8|0,0:0|0:0,0:0:0:0:
354,40,191888,2,0,P|368:78|377:116,1,75,0|0,0:0|1:2,0:0:0:0:
451,202,192215,6,0,P|402:197|324:257,1,150,0|0,1:2|1:2,0:0:0:0:
407,383,192707,1,0,1:2:0:0:
473,341,192871,2,0,P|489:301|498:259,1,75,8|0,0:0|1:2,0:0:0:0:
339,194,193199,2,0,P|300:179|247:156,1,75
190,289,193527,6,0,P|145:300|47:337,1,129.375002467632,0|0,1:2|0:0,0:0:0:0:
4,280,193855,2,0,P|12:251|23:215,3,37.5,0|0|0|0,0:0|0:0|1:2|0:0,0:0:0:0:
81,195,194183,2,0,P|73:150|59:108,1,75,8|0,0:0|0:0,0:0:0:0:
166,24,194511,1,0,1:2:0:0:
153,38,194592,1,0,1:2:0:0:
147,55,194674,1,0,1:2:0:0:
148,73,194756,1,0,1:2:0:0:
160,87,194838,6,0,P|212:98|253:111,1,75,0|0,1:2|0:0,0:0:0:0:
331,49,195166,1,0,0:0:0:0:
397,142,195330,1,0,1:2:0:0:
496,29,195494,2,0,P|451:42|406:51,1,75,8|0,0:0|1:2,0:0:0:0:
310,220,195822,2,0,P|346:228|382:238,1,75
465,372,196150,6,0,P|493:323|489:220,1,150
310,220,196806,2,0,P|274:230|237:238,1,75,8|0,0:0|0:0,0:0:0:0:
237,238,197052,1,0,0:0:0:0:
237,238,197133,2,0,P|248:281|258:323,1,75
85,364,197461,6,0,P|75:313|120:208,1,150
28,160,197953,1,0,0:0:0:0:
28,160,198117,2,0,P|19:112|10:75,1,75,8|0,0:0|0:0,0:0:0:0:
115,36,198445,2,0,P|123:72|129:109,1,75
221,188,198773,5,0,0:0:0:0:
283,233,198937,1,0,0:0:0:0:
352,196,199101,2,0,P|377:140|390:34,1,150,0|8,0:0|0:0,0:0:0:0:
468,237,199756,2,0,P|478:280|486:321,1,75
484,310,200002,1,0,0:0:0:0:
484,310,200084,2,0,P|428:317|343:375,1,150
261,311,200576,1,0,0:0:0:0:
178,363,200740,1,8,0:0:0:0:
178,363,201068,2,0,P|136:346|61:333,1,112.5
54,330,201396,5,0,0:0:0:0:
10,259,201560,1,0,0:0:0:0:
110,200,201724,2,0,P|146:146|142:60,1,129.375002467632
149,83,202052,2,0,P|103:69|67:55,1,75,8|0,0:0|0:0,0:0:0:0:
1,179,202379,1,0,0:0:0:0:
176,262,202543,1,0,1:2:0:0:
297,187,202707,2,0,B|272:113|246:143|222:43,1,150,0|0,1:2|1:2,0:0:0:0:
225,56,203363,2,0,P|263:45|304:31,1,75,8|0,0:0|1:2,0:0:0:0:
410,111,203691,1,0,1:2:0:0:
485,12,203855,1,0,0:0:0:0:
410,111,204019,6,0,P|395:154|395:197,1,75,0|0,1:2|1:2,0:0:0:0:
467,347,204347,2,0,P|463:309|450:274,1,75,0|0,0:0|1:2,0:0:0:0:
298,101,204674,6,0,P|282:146|282:191,1,75,8|0,0:0|0:0,0:0:0:0:
343,381,205002,2,0,P|338:341|325:304,1,75,0|0,0:0|1:2,0:0:0:0:
175,274,205330,6,0,B|127:254|88:278|88:278|69:322|31:321,3,150,2|0|10|0,1:2|1:2|0:0|0:0,0:0:0:0:
38,97,206642,5,2,1:2:0:0:
114,66,206860,1,0,0:0:0:0:
188,100,207079,1,0,0:0:0:0:
241,34,207297,1,10,0:0:0:0:
260,23,207379,1,0,0:0:0:0:
283,29,207461,1,0,1:2:0:0:
360,105,207625,1,8,0:0:0:0:
437,25,207789,1,0,1:2:0:0:
453,173,207953,5,12,0:0:0:0:
346,345,208117,1,6,1:2:0:0:
346,345,208445,1,0,1:2:0:0:
275,290,208609,1,10,0:0:0:0:
493,309,208773,1,0,1:2:0:0:
427,359,208937,1,10,0:0:0:0:
391,255,209101,5,8,0:0:0:0:
382,237,209183,1,8,0:0:0:0:
388,215,209265,1,8,0:0:0:0:
448,151,209425,1,8,0:3:0:0:
477,70,209585,1,8,0:3:0:0:
404,11,209745,1,0,0:0:0:0:
296,65,209906,6,0,P|264:77|246:80,1,37.5,10|8,0:0|0:3,0:0:0:0:
188,28,210226,2,0,P|156:16|138:13,1,37.5,4|4,0:3|0:3,0:0:0:0:
44,129,210547,6,0,P|74:189|92:288,1,146.249993305207,6|0,1:2|0:0,0:0:0:0:
90,265,210880,2,0,B|58:282|58:282|6:272,1,86.2500016450882,2|0,0:0|0:0,0:0:0:0:
165,380,211213,1,10,0:0:0:0:
254,226,211375,1,2,0:0:0:0:
172,288,211538,1,2,0:0:0:0:
342,251,211701,6,0,P|392:263|449:282,1,86.2500016450882,2|0,1:2|1:2,0:0:0:0:
361,350,212027,1,2,0:0:0:0:
497,218,212189,2,0,P|488:171|472:130,1,86.2500016450882,2|2,1:2|0:0,0:0:0:0:
474,135,212434,1,0,0:0:0:0:
474,135,212515,1,10,0:0:0:0:
380,68,212678,1,2,1:2:0:0:
491,22,212841,1,2,0:0:0:0:
376,165,213004,1,2,1:2:0:0:
273,42,213166,6,0,B|221:31|221:31|177:46|177:46|103:32,1,146.249993305207,2|0,1:2|0:0,0:0:0:0:
131,37,213492,1,2,0:0:0:0:
20,128,213655,1,2,1:2:0:0:
129,213,213818,1,10,0:0:0:0:
108,138,213981,1,0,1:2:0:0:
22,244,214144,1,2,0:0:0:0:
75,365,214307,5,2,0:0:0:0:
75,365,214388,1,0,0:0:0:0:
75,365,214470,2,0,P|88:322|100:277,1,86.2500016450882,2|2,1:2|1:2,0:0:0:0:
237,196,214796,2,0,P|241:258|285:340,1,146.249993305207,2|0,0:0|0:0,0:0:0:0:
278,332,215122,1,10,0:0:0:0:
425,287,215285,1,0,1:2:0:0:
370,358,215448,1,10,0:0:0:0:
391,209,215611,6,0,P|382:168|362:119,1,86.2500016450882,10|0,0:0|1:2,0:0:0:0:
448,49,215937,1,8,0:0:0:0:
285,16,216100,2,0,P|270:54|261:100,1,75,2|0,0:0|1:2,0:0:0:0:
262,87,216345,1,0,1:2:0:0:
262,87,216426,1,10,0:0:0:0:
172,168,216589,1,2,0:0:0:0:
266,250,216752,1,2,1:2:0:0:
172,168,216916,6,0,P|123:159|75:149,1,86.2500016450882,2|2,0:0|1:2,0:0:0:0:
157,88,217242,1,2,1:2:0:0:
32,215,217405,1,2,0:0:0:0:
125,320,217568,1,0,1:2:0:0:
141,302,217649,1,0,1:2:0:0:
137,273,217731,1,10,0:0:0:0:
47,293,217894,1,0,1:2:0:0:
196,375,218057,2,0,P|246:362|311:348,1,86.2500016450882,2|2,0:0|1:2,0:0:0:0:
439,290,218383,5,2,1:2:0:0:
390,365,218546,1,8,0:0:0:0:
387,217,218709,1,2,1:2:0:0:
450,306,218872,1,0,1:2:0:0:
511,123,219035,6,0,B|476:64|416:75|416:75|388:117,1,157.499995193482,14|0,0:0|0:0,0:0:0:0:
389,118,219361,1,2,1:2:0:0:
259,215,219524,1,0,0:0:0:0:
259,215,219606,1,8,0:0:0:0:
259,215,219687,2,0,B|247:176|247:176|253:155|253:155|239:110,1,86.2500016450882,10|10,0:0|0:0,0:0:0:0:
299,58,220013,1,6,1:2:0:0:
164,143,220176,1,0,0:0:0:0:
19,1,220339,5,10,0:0:0:0:
86,37,220502,1,8,0:3:0:0:
82,110,220666,1,4,0:3:0:0:
20,154,220829,1,4,0:3:0:0:
86,318,220992,6,0,P|102:266|106:224,1,86.2500016450882,6|0,1:2|0:0,0:0:0:0:
210,372,221318,2,0,P|277:375|394:334,1,157.499995193482,2|0,0:0|0:0,0:0:0:0:
363,351,221644,2,0,P|348:306|344:267,1,86.2500016450882,10|2,0:0|0:0,0:0:0:0:
433,154,221970,1,2,0:0:0:0:
484,263,222133,1,2,1:2:0:0:
331,180,222296,6,0,P|290:168|238:154,1,86.2500016450882,2|0,1:2|0:0,0:0:0:0:
359,46,222622,2,0,P|400:34|442:22,1,86.2500016450882,2|2,1:2|0:0,0:0:0:0:
442,22,222867,1,0,0:0:0:0:
442,22,222948,1,10,0:0:0:0:
503,97,223111,1,2,1:2:0:0:
452,165,223274,1,2,0:0:0:0:
271,64,223437,5,2,0:0:0:0:
271,64,223519,1,0,0:0:0:0:
271,64,223600,1,2,1:2:0:0:
185,33,223763,1,2,1:2:0:0:
106,75,223926,1,0,0:0:0:0:
107,155,224089,1,2,1:2:0:0:
95,63,224252,2,0,P|57:47|3:32,1,86.2500016450882,10|2,0:0|1:2,0:0:0:0:
191,136,224579,1,10,0:0:0:0:
42,217,224742,1,10,0:0:0:0:
131,336,224905,6,0,P|147:288|152:239,1,86.2500016450882,2|8,1:2|0:0,0:0:0:0:
284,372,225232,2,0,B|363:346|339:316|444:296,1,157.499995193482,10|0,0:0|0:0,0:0:0:0:
422,300,225560,2,0,B|455:331|455:331|441:372,1,82.5000025177003,10|0,0:0|1:2,0:0:0:0:
274,258,225888,1,0,0:0:0:0:
430,145,226052,1,2,1:2:0:0:
274,258,226216,6,0,P|255:213|244:86,1,150,6|0,1:2|1:2,0:0:0:0:
483,53,226707,1,0,0:0:0:0:
483,53,226789,1,0,0:0:0:0:
483,53,226871,2,0,P|455:92|323:105,1,172.500003290176,10|0,0:0|1:2,0:0:0:0:
270,21,227363,1,0,0:0:0:0:
132,155,227527,5,0,1:2:0:0:
0,48,227691,1,10,0:0:0:0:
132,155,227855,2,0,P|146:110|148:69,1,75,8|0,0:0|1:2,0:0:0:0:
8,307,228183,2,0,B|56:282|101:313|101:313|101:345|131:371,1,157.499995193482,10|8,0:0|0:0,0:0:0:0:
133,376,228511,1,10,0:0:0:0:
312,310,228756,6,0,P|317:332|327:376,1,43.1250008225441,8|0,0:0|1:2,0:0:0:0:
392,276,229000,1,8,0:0:0:0:
466,322,229162,1,8,0:0:0:0:
388,263,229324,1,0,1:2:0:0:
458,149,229486,2,0,P|475:103|478:68,1,75,10|0,0:0|0:0,0:0:0:0:
477,77,229729,1,8,0:0:0:0:
477,77,229810,1,14,0:0:0:0:
279,13,229973,5,8,0:3:0:0:
237,95,230135,1,0,1:2:0:0:
303,164,230297,1,10,0:0:0:0:
263,245,230459,1,8,0:3:0:0:
90,129,230702,5,8,0:3:0:0:
90,129,230783,1,4,0:3:0:0:
25,71,230946,1,4,0:3:0:0:
77,11,231108,1,8,0:3:0:0:
146,56,231270,1,4,0:3:0:0:
21,196,231432,6,0,P|5:246|14:356,1,150,6|0,1:2|1:2,0:0:0:0:
202,373,232081,2,0,P|200:335|188:288,1,75,10|0,0:0|0:0,0:0:0:0:
191,299,232324,1,8,0:0:0:0:
191,299,232405,1,0,1:2:0:0:
131,241,232567,1,8,0:3:0:0:
273,171,232729,2,0,P|271:209|259:256,1,75,0|0,1:2|1:2,0:0:0:0:
337,368,233054,6,0,P|378:349|492:333,1,150,2|10,1:2|0:0,0:0:0:0:
359,138,233621,1,4,0:3:0:0:
359,138,233702,1,0,1:2:0:0:
414,78,233865,1,0,0:0:0:0:
509,185,234027,6,0,P|472:167|425:154,1,75,2|0,1:2|0:0,0:0:0:0:
324,42,234353,2,0,P|276:37|219:85,1,112.5,2|0,1:2|0:0,0:0:0:0:
225,72,234679,2,0,P|238:116|264:237,1,150,10|2,0:0|1:2,0:0:0:0:
177,304,235168,1,8,0:3:0:0:
40,237,235331,5,0,1:2:0:0:
99,182,235494,2,0,P|118:144|127:106,1,75,0|0,1:2|1:2,0:0:0:0:
44,38,235820,1,0,1:2:0:0:
208,153,235983,2,0,P|243:168|289:186,1,75,10|0,0:0|0:0,0:0:0:0:
277,181,236228,1,8,0:0:0:0:
277,181,236309,1,0,1:2:0:0:
177,304,236472,1,4,0:3:0:0:
177,304,236554,1,4,0:3:0:0:
177,304,236635,6,0,B|103:318|115:351|28:367,1,150,6|0,1:2|1:2,0:0:0:0:
343,373,237294,2,0,P|357:330|378:275,1,75,10|0,0:0|0:0,0:0:0:0:
456,154,237624,1,2,1:2:0:0:
495,238,237788,2,0,P|446:242|357:188,1,150,8|0,0:3|1:2,0:0:0:0:
435,82,238283,2,0,P|445:127|456:155,1,75,8|0,0:3|0:0,0:0:0:0:
260,31,238613,5,10,0:0:0:0:
197,184,238832,1,8,0:0:0:0:
197,184,238942,1,0,1:2:0:0:
269,122,239107,2,0,P|250:114|218:102,1,37.5,0|0,1:2|0:0,0:0:0:0:
97,26,239272,5,0,1:2:0:0:
30,75,239435,1,8,0:0:0:0:
97,126,239599,2,0,P|79:162|75:182,1,44.999998626709,0|0,1:2|0:0,0:0:0:0:
15,344,239927,6,0,B|36:275|118:278|118:278|108:312|123:355,1,179.999994506836,14|0,0:0|1:2,0:0:0:0:
261,370,240400,1,0,1:2:0:0:
261,370,240479,1,0,0:0:0:0:
261,370,240558,2,0,P|251:325|241:284,1,75,10|0,0:0|0:0,0:0:0:0:
239,282,240798,1,8,0:0:0:0:
239,282,240878,1,0,1:2:0:0:
329,169,241039,1,8,0:0:0:0:
500,300,241199,5,10,0:0:0:0:
424,282,241365,1,0,0:0:0:0:
345,272,241532,2,0,P|353:308|361:345,1,75,6|0,1:2|0:0,0:0:0:0:
457,184,241865,6,0,P|483:130|488:23,1,150,2|0,1:2|1:2,0:0:0:0:
261,13,242520,2,0,P|261:60|270:95,1,75,14|0,0:0|0:0,0:0:0:0:
267,87,242766,1,2,0:0:0:0:
267,87,242848,1,0,1:2:0:0:
196,157,243012,1,8,0:0:0:0:
43,80,243176,1,0,1:2:0:0:
117,38,243340,5,8,0:0:0:0:
43,80,243504,2,0,P|30:124|26:174,1,75,0|0,1:2|0:0,0:0:0:0:
117,244,243832,2,0,P|62:242|1:317,1,150,10|0,0:0|0:0,0:0:0:0:
187,357,244310,1,2,1:2:0:0:
187,357,244390,1,0,1:2:0:0:
187,357,244470,6,0,B|228:389|276:366|276:366|280:324|340:304,1,168.750006437302,6|0,1:2|0:0,0:0:0:0:
335,306,244799,1,0,1:2:0:0:
494,364,244964,1,0,1:2:0:0:
439,260,245129,2,0,P|426:213|426:167,1,82.5000025177003,10|0,0:0|1:2,0:0:0:0:
495,29,245459,2,0,P|492:70|480:109,1,82.5000025177003,10|0,0:0|0:0,0:0:0:0:
480,109,245706,1,8,0:0:0:0:
480,109,245788,5,0,1:2:0:0:
407,78,245948,1,0,1:2:0:0:
306,154,246108,1,10,0:0:0:0:
186,86,246269,1,10,0:0:0:0:
148,185,246429,1,6,1:2:0:0:
270,86,246590,2,0,P|282:51|287:9,1,75,8|0,0:3|1:2,0:0:0:0:
62,17,246910,1,10,0:0:0:0:
62,17,246991,1,0,0:0:0:0:
62,17,247071,6,0,P|37:58|33:171,1,150,6|0,1:2|1:2,0:0:0:0:
83,244,247562,1,0,1:2:0:0:
17,358,247726,2,0,P|62:335|183:326,1,150,10|0,0:0|1:2,0:0:0:0:
403,369,248382,5,2,0:0:0:0:
457,305,248546,1,10,0:0:0:0:
331,230,248710,2,0,P|346:272|364:326,1,75,10|0,0:0|1:2,0:0:0:0:
410,166,249038,2,0,P|453:146|490:128,1,75,14|0,0:0|0:0,0:0:0:0:
477,134,249281,1,0,1:2:0:0:
477,134,249362,1,8,0:3:0:0:
395,55,249524,1,4,0:3:0:0:
254,142,249686,6,0,P|209:125|157:106,1,86.2500016450882,14|0,0:0|1:2,0:0:0:0:
45,249,250012,2,0,P|85:233|125:218,1,86.2500016450882,14|0,0:0|1:2,0:0:0:0:
240,44,250338,1,14,0:0:0:0:
70,142,250501,1,0,1:2:0:0:
219,278,250664,1,14,0:0:0:0:
109,364,250827,1,14,0:0:0:0:
109,364,251638,6,0,P|104:345|99:327,1,33.7499989700318,2|0,0:1|0:0,0:0:0:0:
27,244,252287,6,0,B|-4:169|74:95|131:139|131:199|90:216,1,225.000008583069,6|0,1:2|0:0,0:0:0:0:
25,54,252781,1,0,1:2:0:0:
143,166,252946,2,0,B|186:198|234:172|234:172|243:136|292:115,1,168.750006437302,10|0,0:0|0:0,0:0:0:0:
292,118,253276,1,0,1:2:0:0:
367,212,253440,6,0,P|350:260|331:372,1,146.249993305207,10|0,0:0|0:0,0:0:0:0:
332,367,253770,1,0,0:0:0:0:
475,279,253935,1,0,1:2:0:0:
420,123,254100,1,0,0:0:0:0:
420,123,254182,1,0,0:0:0:0:
420,123,254265,2,0,P|344:110|260:178,1,172.500003290176,10|0,0:0|0:0,0:0:0:0:
176,318,254759,5,2,0:0:0:0:
176,318,254841,1,2,0:0:0:0:
176,318,254924,1,2,1:2:0:0:
12,251,255084,1,10,0:0:0:0:
46,377,255244,2,0,P|70:326|81:277,1,86.2500016450882,8|0,0:0|1:2,0:0:0:0:
18,160,255564,5,10,0:0:0:0:
157,47,255804,1,8,0:0:0:0:
157,47,255884,1,6,1:2:0:0:
245,175,256124,1,8,0:0:0:0:
245,175,256204,1,8,0:0:0:0:
179,228,256368,1,0,1:2:0:0:
106,193,256533,1,10,0:0:0:0:
169,138,256698,1,10,0:0:0:0:
310,237,256863,6,0,P|304:274|281:324,1,86.2500016450882,10|8,0:0|0:3,0:0:0:0:
423,190,257193,1,4,0:3:0:0:
501,345,257357,1,10,0:0:0:0:
501,345,257440,1,0,0:0:0:0:
501,345,257522,6,0,P|450:326|347:393,1,172.500003290176,6|0,1:2|0:0,0:0:0:0:
496,246,258011,1,0,1:2:0:0:
496,246,258092,1,0,1:2:0:0:
496,246,258174,2,0,P|511:198|509:153,1,86.2500016450882,10|0,0:0|0:0,0:0:0:0:
312,14,258500,5,6,1:2:0:0:
276,47,258608,5,8,0:0:0:0:
269,93,258717,5,8,0:0:0:0:
301,132,258826,6,0,P|347:143|394:156,1,86.2500016450882,8|6,0:0|1:2,0:0:0:0:
250,267,259152,2,0,B|197:260|153:298|153:298|146:334|101:352,1,146.249993305207,10|0,0:0|0:0,0:0:0:0:
132,333,259478,1,0,1:2:0:0:
3,264,259641,1,8,0:0:0:0:
26,371,259804,1,2,0:0:0:0:
108,215,259967,1,0,1:2:0:0:
108,215,260049,1,0,1:2:0:0:
108,215,260130,6,0,P|88:166|76:127,1,86.2500016450882,14|0,0:0|1:2,0:0:0:0:
7,26,260456,1,0,1:2:0:0:
185,122,260619,6,0,P|236:143|277:154,1,86.2500016450882,14|0,0:0|1:2,0:0:0:0:
128,15,260945,1,0,1:2:0:0:
356,171,261108,6,0,P|403:158|444:136,1,86.2500016450882,14|0,0:0|0:0,0:0:0:0:
436,141,261353,1,8,0:0:0:0:
436,141,261435,1,8,0:0:0:0:
360,62,261598,1,8,0:0:0:0:
471,240,261761,2,0,P|466:286|446:332,1,86.2500016450882,4|4,0:3|0:3,0:0:0:0:
278,368,262087,5,8,0:3:0:0:
216,317,262251,1,8,0:3:0:0:
273,260,262416,1,0,1:2:0:0:
119,192,262581,5,0,1:2:0:0:
119,192,262663,1,0,0:0:0:0:
119,192,262746,2,0,P|119:252|83:365,1,168.750006437302,6|0,1:2|0:0,0:0:0:0:
82,369,263073,1,0,1:2:0:0:
3,243,263237,1,0,1:2:0:0:
234,142,263401,2,0,P|252:96|260:40,1,86.2500016450882,10|0,0:0|0:0,0:0:0:0:
35,11,263729,6,0,P|45:39|52:58,1,43.1250008225441,0|0,1:2|0:0,0:0:0:0:
6,136,263893,2,0,P|77:150|180:184,1,146.249993305207,0|0,1:2|0:0,0:0:0:0:
147,171,264219,1,0,0:0:0:0:
273,260,264381,1,0,1:2:0:0:
170,347,264543,1,0,0:0:0:0:
273,260,264705,2,0,P|320:264|376:275,1,86.2500016450882,10|0,0:0|1:2,0:0:0:0:
471,368,265029,2,0,P|498:310|494:200,1,146.249993305207,0|10,0:0|0:0,0:0:0:0:
501,228,265354,5,10,0:0:0:0:
418,87,265516,1,8,0:0:0:0:
512,12,265678,1,8,0:0:0:0:
454,160,265840,1,0,1:2:0:0:
352,39,266002,2,0,P|308:29|254:21,1,86.2500016450882,14|0,0:0|0:0,0:0:0:0:
267,22,266245,1,0,1:2:0:0:
267,22,266326,1,2,1:2:0:0:
226,204,266489,6,0,P|215:175|209:148,1,43.1250008225441,8|8,0:0|0:0,0:0:0:0:
144,109,266651,1,0,1:2:0:0:
144,109,266732,2,0,P|138:129|129:149,1,43.1250008225441,8|8,0:0|0:0,0:0:0:0:
49,224,266894,5,8,0:0:0:0:
21,266,266975,5,8,0:0:0:0:
39,298,267058,5,8,0:0:0:0:
31,316,267141,5,0,1:2:0:0:
35,328,267225,5,0,1:2:0:0:
33,339,267308,6,0,P|104:308|239:289,1,168.750006437302,6|0,1:2|0:0,0:0:0:0:
256,340,267623,5,0,1:2:0:0:
278,320,267702,1,0,1:2:0:0:
283,287,267781,1,0,1:2:0:0:
271,259,267860,1,0,1:2:0:0:
252,239,267939,6,0,P|235:204|231:153,1,86.2500016450882,6|10,1:2|0:0,0:0:0:0:
388,20,268268,2,0,P|390:60|383:106,1,86.2500016450882,2|0,1:2|0:0,0:0:0:0:
475,266,268598,2,0,P|435:222|346:221,1,129.375002467632,10|0,0:0|0:0,0:0:0:0:
368,212,268928,1,2,0:0:0:0:
508,138,269092,5,4,1:2:0:0:
508,138,269175,1,0,1:2:0:0:
508,138,269257,1,4,1:2:0:0:
386,296,269422,1,0,0:0:0:0:
251,193,269587,2,0,P|205:179|161:165,1,86.2500016450882,0|2,1:2|0:0,0:0:0:0:
15,329,269917,2,0,P|74:344|155:277,1,172.500003290176,10|10,0:0|0:0,0:0:0:0:
52,201,270400,1,0,0:0:0:0:
230,97,270562,5,14,0:0:0:0:
96,13,270805,1,8,0:0:0:0:
96,13,270886,1,0,1:2:0:0:
51,76,271048,1,10,0:0:0:0:
118,138,271210,1,0,1:2:0:0:
118,138,271291,1,0,1:2:0:0:
219,21,271534,1,10,0:0:0:0:
401,124,271697,1,0,0:0:0:0:
335,15,271859,6,0,P|313:64|309:98,1,86.2500016450882,2|10,1:2|0:0,0:0:0:0:
469,57,272183,1,0,1:2:0:0:
383,216,272345,5,8,0:0:0:0:
383,216,272426,1,8,0:0:0:0:
383,216,272507,2,0,P|346:205|317:198,3,43.1250008225441,8|8|4|0,0:0|0:0|0:3|0:0,0:0:0:0:
205,209,272832,1,4,0:3:0:0:
154,198,272913,1,4,0:3:0:0:
102,188,272994,1,8,0:3:0:0:
51,177,273075,1,0,0:0:0:0:
33,188,273156,6,0,P|39:235|57:283,1,86.2500016450882,14|0,0:0|0:0,0:0:0:0:
146,381,273489,1,6,1:2:0:0:
268,301,273656,1,8,0:0:0:0:
283,289,273739,1,8,0:0:0:0:
294,268,273822,1,8,0:0:0:0:
296,248,273906,1,8,0:0:0:0:
294,232,273989,2,0,P|286:206|283:187,1,43.1250008225441,8|8,0:0|0:0,0:0:0:0:
214,133,274156,1,8,0:0:0:0:
204,116,274239,1,8,0:0:0:0:
208,97,274322,1,10,0:0:0:0:
361,9,274489,6,0,P|361:41|345:97,1,75,14|0,1:2|0:0,0:0:0:0:
351,82,274734,1,8,0:0:0:0:
351,82,274816,1,8,0:0:0:0:
454,182,274980,1,4,0:3:0:0:
373,287,275144,5,4,0:3:0:0:
399,272,275226,1,8,0:3:0:0:
428,280,275308,1,8,0:0:0:0:
445,304,275390,1,0,1:2:0:0:
445,334,275472,2,0,P|425:341|404:357,3,37.5,0|0|8|8,1:2|0:0|0:0|0:0,0:0:0:0:
307,340,275800,6,0,P|266:326|220:315,1,75,10|0,0:0|0:0,0:0:0:0:
112,369,276127,1,0,1:2:0:0:
28,291,276291,2,0,P|17:258|14:209,1,75,10|0,0:0|0:0,0:0:0:0:
124,108,276619,1,8,0:0:0:0:
22,19,276783,1,8,0:3:0:0:
10,32,276865,2,0,P|2:72|30:167,1,112.5,8|0,0:0|1:2,0:0:0:0:
118,210,277271,1,8,0:3:0:0:
233,97,277432,5,8,0:3:0:0:
244,77,277513,1,8,0:3:0:0:
265,69,277593,1,4,0:3:0:0:
287,68,277674,1,4,0:3:0:0:
307,77,277754,2,0,P|344:99|390:108,1,75,0|8,1:2|0:0,0:0:0:0:
460,62,277995,5,8,0:3:0:0:
414,87,278076,1,4,0:3:0:0:
389,133,278156,1,4,0:3:0:0:
395,184,278237,1,4,0:3:0:0:
428,225,278317,1,0,1:2:0:0:
441,232,278397,6,0,P|457:267|467:315,1,75,6|0,1:2|0:0,0:0:0:0:
355,373,278723,1,0,1:2:0:0:
227,302,278886,2,0,P|270:288|308:269,1,75,8|0,0:3|1:2,0:0:0:0:
296,275,279130,1,8,0:0:0:0:
296,275,279212,1,8,0:0:0:0:
217,194,279375,1,8,0:3:0:0:
100,319,279538,5,8,0:0:0:0:
100,319,279619,1,8,0:0:0:0:
100,319,279701,1,8,0:0:0:0:
13,188,279864,1,8,0:0:0:0:
82,236,280027,1,10,0:0:0:0:
45,373,280190,1,0,0:0:0:0:
82,236,280353,6,0,P|95:194|98:158,3,46.875,8|8|8|8,0:3|0:0|0:0|0:0,0:0:0:0:
49,112,280679,2,0,P|36:70|33:34,3,46.875,8|4|8|8,0:0|0:3|0:3|0:0,0:0:0:0:
128,17,281005,1,8,0:0:0:0:
152,24,281084,1,8,0:0:0:0:
172,40,281164,1,8,0:0:0:0:
183,63,281244,1,8,0:0:0:0:
183,89,281324,6,0,P|161:95|130:112,3,46.875,0|8|8|8,1:2|0:0|0:0|0:0,0:0:0:0:
204,178,281643,1,8,1:2:0:0:
236,184,281724,1,8,0:0:0:0:
267,190,281805,1,8,0:0:0:0:
298,198,281886,1,8,0:0:0:0:
328,211,281967,2,0,P|317:246|311:273,3,46.875,8|8|8|8,0:0|0:0|0:0|0:0,0:0:0:0:
411,331,282291,2,0,P|400:296|394:269,3,46.875,8|8|8|8,0:0|0:0|0:0|0:0,0:0:0:0:
509,177,282615,5,8,0:0:0:0:
475,192,282697,1,8,0:0:0:0:
437,189,282778,1,8,0:0:0:0:
408,164,282859,1,8,0:0:0:0:
387,133,282940,1,8,0:0:0:0:
362,104,283021,1,8,0:0:0:0:
325,94,283102,1,8,0:0:0:0:
290,107,283183,1,8,0:0:0:0:
276,131,283264,6,0,P|283:149|288:182,3,37.5,8|8|8|8,0:0|0:0|0:3|0:3,0:0:0:0:
220,247,283588,6,0,P|207:288|202:340,1,89.9999972534181,14|0,0:0|0:0,0:0:0:0:
93,367,283917,2,0,P|50:354|-2:340,1,89.9999972534181,10|0,0:0|0:0,0:0:0:0:
6,342,284164,1,0,0:0:0:0:
6,342,284247,1,10,0:0:0:0:
133,208,284412,1,0,1:2:0:0:
12,158,284577,2,0,P|24:208|37:249,1,89.9999972534181,10|0,0:0|1:2,0:0:0:0:
169,64,284906,1,10,0:0:0:0:
169,64,285236,6,0,P|123:53|66:43,1,89.9999972534181,10|0,0:0|0:0,0:0:0:0:
221,193,285566,1,10,0:0:0:0:
361,86,285730,1,0,1:2:0:0:
257,21,285895,2,0,P|272:88|276:121,1,89.9999972534181,10|0,0:0|1:2,0:0:0:0:
381,252,286225,1,10,0:0:0:0:
381,252,286549,6,0,P|432:261|486:273,1,89.9999972534181,10|0,0:0|0:0,0:0:0:0:
392,351,286873,1,10,0:0:0:0:
297,213,287035,1,0,1:2:0:0:
471,102,287197,1,10,0:0:0:0:
344,34,287360,1,0,1:2:0:0:
344,34,287441,1,0,1:2:0:0:
344,34,287522,6,0,B|357:142|388:86|417:215,1,179.999994506836,10|10,0:0|0:0,0:0:0:0:
286,311,288008,1,0,1:2:0:0:
172,217,288170,2,0,P|219:206|282:187,1,89.9999972534181,10|0,0:0|1:2,0:0:0:0:
161,355,288495,2,0,P|117:342|73:332,1,89.9999972534181,10|0,0:0|1:2,0:0:0:0:
73,332,288738,1,0,1:2:0:0:
73,332,288819,6,0,P|37:289|40:164,1,179.999994506836,10|10,0:0|0:0,0:0:0:0:
157,54,289309,1,0,0:0:0:0:
31,5,289472,2,0,P|52:60|70:122,1,89.9999972534181,10|0,0:0|1:2,0:0:0:0:
214,209,289799,2,0,P|227:166|244:124,1,89.9999972534181,10|0,0:0|1:2,0:0:0:0:
378,21,290126,1,10,0:0:0:0:
378,21,290453,1,10,0:0:0:0:
477,176,290617,1,0,0:0:0:0:
505,59,290780,6,0,P|453:81|391:109,1,89.9999972534181,10|0,0:0|1:2,0:0:0:0:
328,176,291107,1,10,0:0:0:0:
431,285,291271,1,0,1:2:0:0:
431,285,291353,1,0,0:0:0:0:
431,285,291434,6,0,P|378:276|290:360,1,179.999994506836,10|10,0:0|0:0,0:0:0:0:
97,280,291921,1,0,0:0:0:0:
182,363,292084,2,0,P|205:318|216:267,1,89.9999972534181,10|0,0:0|1:2,0:0:0:0:
64,196,292409,2,0,P|75:239|96:279,1,89.9999972534181,10|0,0:0|1:2,0:0:0:0:
253,120,292734,5,10,0:0:0:0:
188,33,292897,1,0,1:2:0:0:
84,65,293060,1,0,1:2:0:0:
266,138,293222,5,10,0:0:0:0:
373,125,293385,1,0,1:2:0:0:
398,19,293547,1,0,1:2:0:0:
244,146,293710,5,0,1:2:0:0:
201,245,293873,1,10,0:0:0:0:
281,319,294035,6,0,P|305:325|322:330,3,37.5,2|0|8|0,1:2|0:0|0:0|0:0,0:0:0:0:
196,350,295339,2,0,P|178:355|160:360,3,37.5,0|0|8|0,1:2|1:2|0:0|0:0,0:0:0:0:
63,308,296643,5,0,1:2:0:0:
63,308,296969,1,0,1:2:0:0:
63,308,297295,5,0,1:2:0:0:
12,246,297458,1,0,1:2:0:0:
47,181,297621,1,0,1:2:0:0:
121,194,297785,1,0,1:2:0:0:
39,169,297948,5,0,1:2:0:0:
5,102,298111,1,0,1:2:0:0:
62,46,298274,1,0,1:2:0:0:
133,71,298437,1,0,1:2:0:0:
269,107,298600,5,0,1:2:0:0:
373,64,298763,1,0,1:2:0:0:
413,170,298926,1,0,1:2:0:0:
309,212,299089,1,0,1:2:0:0:
