osu file format v14

[General]
AudioFilename: audio.mp3
AudioLeadIn: 0
PreviewTime: 59215
Countdown: 0
SampleSet: Normal
StackLeniency: 0.3
Mode: 0
LetterboxInBreaks: 0
WidescreenStoryboard: 0

[Editor]
DistanceSpacing: 1.4
BeatDivisor: 4
GridSize: 4
TimelineZoom: 2.1

[Metadata]
Title:Crying for Rain
TitleUnicode:Crying for Rain
Artist:Minami
ArtistUnicode:Minami
Creator:jasontime12345
Version:Lost
Source:
Tags:Minami Crying for Rain edgy
BeatmapID:1960435
BeatmapSetID:938510

[Difficulty]
HPDrainRate:5
CircleSize:4
OverallDifficulty:8
ApproachRate:9.3
SliderMultiplier:1.7
SliderTickRate:1

[Events]
//Background and Video events
0,0,"rain.jpg",0,0
//Break Periods
2,165228,177731
//Storyboard Layer 0 (Background)
//Storyboard Layer 1 (Fail)
//Storyboard Layer 2 (Pass)
//Storyboard Layer 3 (Foreground)
//Storyboard Sound Samples

[TimingPoints]
2055.88171335353,437.956204379562,4,1,0,30,1,0
5565,444.444444444444,4,1,0,30,1,0
7342,437.956204379562,4,1,0,30,1,0
7342,-200,4,1,0,30,0,0
8217,-100,4,1,0,30,0,0
9969,-133.333333333333,4,1,0,30,0,0
10845,465.116279069767,4,1,0,30,1,0
10845,-133.333333333333,4,1,0,30,0,0
12038,437.956204379562,4,1,0,30,1,0
13634,465.116279069767,4,1,0,30,1,0
15494,-66.6666666666667,4,1,0,30,0,0
22703,-133.333333333333,4,1,0,30,0,0
37820,-100,4,1,0,30,0,0
39680,-133.333333333333,4,1,0,30,0,0
41540,-100,4,1,0,30,0,0
52703,-80,4,1,0,30,0,0
59215,-133.333333333333,4,1,0,30,0,0
59680,-100,4,1,0,30,0,0
60145,-66.6666666666667,4,1,0,30,0,0
67587,-80,4,1,0,30,0,0
74099,-133.333333333333,4,1,0,30,0,0
74564,-100,4,1,0,30,0,0
75029,-66.6666666666667,4,1,0,30,0,0
82471,-80,4,1,0,30,0,0
86192,-80,4,1,0,30,0,0
100843,-100,4,1,0,30,0,0
129913,-133.333333333333,4,1,0,30,0,0
130378,-100,4,1,0,30,0,0
130727,-66.6666666666667,4,1,0,30,0,0
136424,-100,4,1,0,30,0,0
137354,-100,4,1,0,30,0,0
144796,-133.333333333333,4,1,0,30,0,0
145261,-100,4,1,0,30,0,0
145727,-66.6666666666667,4,1,0,30,0,0
151308,-80,4,1,0,30,0,0
156424,-100,4,1,0,30,0,0
178285,-133.333333333333,4,1,0,30,0,0
178750,-100,4,1,0,30,0,0
179215,-66.6666666666667,4,1,0,30,0,0
238749,439.56043956044,4,1,0,30,1,0

[Colours]
Combo1 : 145,75,148
Combo2 : 73,120,146
Combo3 : 98,84,160
Combo4 : 45,113,73
Combo5 : 137,111,78

[HitObjects]
122,101,2055,6,0,B|191:61|180:113|252:83|207:55|296:32,1,170,0|0,0:0|0:0,3:0:0:0:
446,183,2931,2,0,B|377:143|388:195|316:165|361:137|272:114,1,170,0|0,0:0|0:0,3:0:0:0:
250,283,3807,2,0,L|271:200,1,85,0|0,0:0|0:0,3:0:0:0:
134,160,4683,2,0,P|193:218|286:179,1,170,0|0,0:0|0:0,3:0:0:0:
271,200,5565,6,0,P|250:281|330:342,1,170,0|0,0:0|0:0,3:0:0:0:
390,95,6453,2,0,L|332:267,1,170,0|0,0:0|0:0,3:0:0:0:
255,149,7342,6,0,L|184:221,1,85,0|0,0:0|0:0,3:0:0:0:
320,201,8217,6,0,P|337:128|326:96,1,85,0|0,0:0|0:0,3:0:0:0:
274,68,8655,1,0,0:0:0:0:
274,68,9093,5,0,0:0:0:0:
274,68,9969,2,0,B|202:108|210:50|139:85|190:113|102:142,1,191.250007295609,0|0,0:0|0:0,3:0:0:0:
82,64,10845,2,0,P|30:134|44:188,2,127.500004863739,0|0|0,0:0|0:0|0:0,3:0:0:0:
256,192,12038,12,0,15029,0:0:0:0:
180,262,15494,6,0,P|193:223|216:187,1,63.7500024318696
326,110,15843,1,0,0:0:0:0:
269,124,16075,1,0,0:0:0:0:
212,139,16308,1,0,0:0:0:0:
156,152,16540,1,0,0:0:0:0:
258,201,16773,5,0,0:0:0:0:
223,61,16889,1,0,0:0:0:0:
180,262,17122,1,0,0:0:0:0:
180,262,17354,6,0,P|209:289|254:309,1,63.7500024318696
381,323,17703,1,0,0:0:0:0:
322,239,17936,1,0,0:0:0:0:
423,228,18168,1,0,0:0:0:0:
363,144,18401,1,0,0:0:0:0:
282,332,18633,5,0,0:0:0:0:
161,182,18750,1,0,0:0:0:0:
378,268,18982,1,0,0:0:0:0:
378,268,19215,6,0,P|401:229|408:198,1,63.7500024318696
219,157,19564,2,0,P|306:174|336:219,1,127.500004863739
254,376,20029,2,0,P|267:315|238:260,1,127.500004863739
145,231,20494,2,0,P|141:263|128:293,1,63.7500024318696
118,135,20843,1,0,0:0:0:0:
118,135,21075,6,0,P|122:103|135:73,1,63.7500024318696
365,294,21657,5,0,0:0:0:0:
283,57,22006,5,0,0:0:0:0:
118,233,22354,5,0,0:0:0:0:
118,233,22703,5,0,0:0:0:0:
124,145,22936,2,0,L|148:105,1,31.8750012159348
256,171,23285,2,0,L|232:211,1,31.8750012159348
356,248,23633,2,0,L|380:208,1,31.8750012159348
249,288,24099,5,0,0:0:0:0:
277,250,24215,1,0,0:0:0:0:
297,221,24331,1,0,0:0:0:0:
311,200,24447,1,0,0:0:0:0:
321,184,24564,1,0,0:0:0:0:
418,48,24796,6,0,L|395:83,1,31.8750012159348
414,201,25145,2,0,L|395:163,1,31.8750012159348
283,118,25494,2,0,L|324:120,1,31.8750012159348
290,35,25959,5,0,0:0:0:0:
248,56,26075,1,0,0:0:0:0:
217,74,26191,1,0,0:0:0:0:
195,86,26307,1,0,0:0:0:0:
179,96,26424,1,0,0:0:0:0:
54,160,26657,6,0,L|86:145,1,31.8750012159348
147,256,27006,2,0,L|115:271,1,31.8750012159348
178,131,27354,2,0,L|210:116,1,31.8750012159348
275,212,27820,5,0,0:0:0:0:
342,206,27936,1,0,0:0:0:0:
355,144,28052,1,0,0:0:0:0:
298,115,28168,1,0,0:0:0:0:
253,156,28285,1,0,0:0:0:0:
238,295,28517,6,0,L|217:255,1,31.8750012159348
165,152,28866,2,0,L|210:153,1,31.8750012159348
324,161,29215,2,0,L|299:199,1,31.8750012159348
410,130,29680,5,0,0:0:0:0:
158,252,29913,1,0,0:0:0:0:
392,216,30145,5,0,0:0:0:0:
299,87,30378,2,0,L|273:125,1,31.8750012159348
347,152,30727,2,0,L|329:178,1,31.8750012159348
254,20,31075,2,0,L|236:46,1,31.8750012159348
239,226,31540,5,0,0:0:0:0:
175,244,31656,1,0,0:0:0:0:
140,190,31772,1,0,0:0:0:0:
179,139,31888,1,0,0:0:0:0:
240,159,32005,1,0,0:0:0:0:
312,273,32238,6,0,L|282:283,1,31.8750012159348
160,323,32587,2,0,L|191:314,1,31.8750012159348
312,273,32936,2,0,L|282:283,1,31.8750012159348
202,181,33401,5,0,0:0:0:0:
247,170,33517,1,0,0:0:0:0:
282,162,33633,1,0,0:0:0:0:
308,157,33749,1,0,0:0:0:0:
325,153,33866,1,0,0:0:0:0:
467,113,34099,6,0,L|436:121,1,31.8750012159348
376,233,34447,2,0,L|406:224,1,31.8750012159348
467,113,34796,2,0,L|436:121,1,31.8750012159348
185,285,35261,5,0,0:0:0:0:
247,269,35378,1,0,0:0:0:0:
209,239,35494,1,0,0:0:0:0:
240,237,35610,1,0,0:0:0:0:
227,226,35727,1,0,0:0:0:0:
246,111,35959,6,0,L|240:142,1,31.8750012159348
239,142,36308,2,0,L|233:173,1,31.8750012159348
232,173,36657,2,0,L|226:204,1,31.8750012159348
225,204,37122,5,0,0:0:0:0:
238,260,37238,1,0,0:0:0:0:
304,295,37354,1,0,0:0:0:0:
381,264,37471,1,0,0:0:0:0:
395,164,37587,1,0,0:0:0:0:
172,77,37820,6,0,L|256:61,1,85
256,61,38168,1,0,0:0:0:0:
256,61,38285,1,0,0:0:0:0:
217,228,38517,2,0,P|230:163|204:127,1,85
80,130,38982,2,0,L|171:192,1,85
150,177,39447,1,0,0:0:0:0:
129,324,39680,6,0,L|144:248,1,63.7500024318696
229,290,40145,2,0,L|214:214,1,63.7500024318696
150,177,40494,2,0,P|186:147|233:141,1,95.6250036478044
293,202,41075,1,0,0:0:0:0:
293,202,41308,1,0,0:0:0:0:
431,151,41540,5,0,0:0:0:0:
431,151,41657,1,0,0:0:0:0:
431,151,41773,1,0,0:0:0:0:
431,151,41889,1,0,0:0:0:0:
415,136,42006,1,0,0:0:0:0:
376,118,42122,1,0,0:0:0:0:
311,130,42238,1,0,0:0:0:0:
279,185,42354,2,0,L|344:198,1,42.5
318,265,42587,2,0,L|383:278,2,42.5
135,117,43168,6,0,L|163:169,1,42.5
155,154,43401,1,0,0:0:0:0:
155,154,43517,1,0,0:0:0:0:
181,256,43750,5,0,0:0:0:0:
261,197,43866,1,0,0:0:0:0:
352,190,43982,1,0,0:0:0:0:
414,247,44099,1,0,0:0:0:0:
418,311,44215,1,0,0:0:0:0:
389,343,44331,5,0,0:0:0:0:
320,316,44447,1,0,0:0:0:0:
310,228,44564,1,0,0:0:0:0:
310,228,45029,5,0,0:0:0:0:
310,75,45261,2,0,P|279:126|279:155,1,85
439,164,45727,1,0,0:0:0:0:
439,164,45959,2,0,L|329:126,1,85
249,242,46424,2,0,L|359:204,1,85
203,171,46889,2,0,P|170:230|183:278,1,85
170,245,47354,5,0,0:0:0:0:
170,245,47587,1,0,0:0:0:0:
121,183,47820,1,0,0:0:0:0:
240,217,48052,2,0,P|238:279|193:315,1,85
199,112,48517,1,0,0:0:0:0:
170,245,48750,2,0,P|115:274|61:253,1,85
94,272,49215,5,0,0:0:0:0:
110,198,49331,1,0,0:0:0:0:
127,124,49447,1,0,0:0:0:0:
124,136,49680,5,0,0:0:0:0:
180,187,49796,1,0,0:0:0:0:
270,209,49913,1,0,0:0:0:0:
375,177,50029,1,0,0:0:0:0:
414,74,50145,1,0,0:0:0:0:
408,88,50378,5,0,0:0:0:0:
270,209,50610,2,0,P|214:214|289:158,1,255
260,345,51773,2,0,L|196:274,1,85
293,207,52238,2,0,L|233:147,1,85
357,281,52703,6,0,P|390:220|380:166,1,106.25
387,184,53052,1,0,0:0:0:0:
387,184,53168,1,0,0:0:0:0:
421,343,53401,1,0,0:0:0:0:
273,280,53633,2,0,L|288:348,2,53.125
143,210,54099,2,0,L|154:158,2,53.125
131,83,54564,6,0,P|211:97|239:145,1,106.25
225,112,54913,1,0,0:0:0:0:
225,112,55029,1,0,0:0:0:0:
267,236,55494,1,0,0:0:0:0:
267,236,55727,5,0,0:0:0:0:
295,103,55959,1,0,0:0:0:0:
328,290,56192,1,0,0:0:0:0:
404,248,56424,5,0,0:0:0:0:
212,178,56657,1,0,0:0:0:0:
477,209,56889,1,0,0:0:0:0:
267,236,57122,5,0,0:0:0:0:
97,58,57354,1,0,0:0:0:0:
250,309,57587,1,0,0:0:0:0:
355,100,57820,5,0,0:0:0:0:
32,298,58052,1,0,0:0:0:0:
256,192,58285,12,0,58982,0:0:0:0:
180,184,59215,6,0,P|222:141|270:136,1,95.6250036478044
256,135,59680,2,0,P|241:89|271:6,1,127.5
264,15,60145,1,0,0:0:0:0:
256,219,60494,5,0,0:0:0:0:
307,272,60610,2,0,L|348:320,2,63.7500024318696
256,219,60959,1,0,0:0:0:0:
209,166,61075,1,0,0:0:0:0:
196,96,61192,1,0,0:0:0:0:
236,38,61308,1,0,0:0:0:0:
303,58,61424,1,0,0:0:0:0:
305,127,61540,1,0,0:0:0:0:
238,149,61657,1,0,0:0:0:0:
140,145,61773,1,0,0:0:0:0:
53,86,61889,1,0,0:0:0:0:
53,86,62006,6,0,L|29:169,1,63.7500024318696
140,145,62238,1,0,0:0:0:0:
140,145,62354,1,0,0:0:0:0:
140,145,62471,2,0,L|164:228,1,63.7500024318696
260,205,62704,1,0,0:0:0:0:
264,209,62820,1,0,0:0:0:0:
264,209,62937,2,0,L|240:292,1,63.7500024318696
131,362,63168,1,0,0:0:0:0:
131,362,63284,1,0,0:0:0:0:
131,362,63401,2,0,L|155:279,1,63.7500024318696
77,237,63633,2,0,L|154:198,1,63.7500024318696
221,165,63866,6,0,L|199:257,1,63.7500024318696
263,342,64099,1,0,0:0:0:0:
263,342,64215,1,0,0:0:0:0:
263,342,64331,2,0,L|285:250,1,63.7500024318696
299,153,64564,2,0,L|360:206,1,63.7500024318696
449,269,64796,2,0,L|372:295,1,63.7500024318696
263,342,65029,2,0,L|278:262,1,63.7500024318696
299,153,65261,2,0,P|219:199|162:172,1,127.500004863739
237,50,65727,6,0,L|221:129,1,63.7500024318696
148,80,65959,1,0,0:0:0:0:
148,80,66075,1,0,0:0:0:0:
148,80,66192,2,0,L|95:141,1,63.7500024318696
133,252,66424,2,0,L|186:191,1,63.7500024318696
235,153,66657,5,0,0:0:0:0:
279,90,66773,1,0,0:0:0:0:
234,28,66889,1,0,0:0:0:0:
161,52,67006,1,0,0:0:0:0:
161,128,67122,1,0,0:0:0:0:
161,116,67354,5,0,0:0:0:0:
314,95,67587,2,0,P|254:130|234:183,1,106.25
316,291,68052,1,0,0:0:0:0:
316,291,68285,2,0,L|311:172,2,106.25
397,179,68982,1,0,0:0:0:0:
358,100,69215,5,0,0:0:0:0:
358,100,69447,2,0,P|324:145|235:147,1,106.25
277,158,69796,1,0,0:0:0:0:
277,158,69913,1,0,0:0:0:0:
207,106,70145,1,0,0:0:0:0:
207,106,70378,2,0,P|188:158|199:222,2,106.25
294,70,71075,1,0,0:0:0:0:
379,110,71308,6,0,P|398:162|387:226,1,106.25
207,106,71773,2,0,P|254:128|288:168,1,106.25
180,314,72238,2,0,P|175:261|193:212,1,106.25
370,229,72703,2,0,P|327:259|275:267,1,106.25
134,152,73168,2,0,B|208:125|208:125|283:132|343:77,1,212.5
332,86,74099,6,0,P|294:31|259:25,1,95.6250036478044
269,24,74564,2,0,P|241:81|267:141,1,127.5
263,137,75029,1,0,0:0:0:0:
118,131,75378,5,0,0:0:0:0:
144,197,75494,2,0,L|173:268,2,63.7500024318696
118,131,75843,5,0,0:0:0:0:
143,65,75959,1,0,0:0:0:0:
210,48,76075,1,0,0:0:0:0:
274,76,76192,1,0,0:0:0:0:
301,140,76308,1,0,0:0:0:0:
257,193,76424,1,0,0:0:0:0:
198,156,76540,1,0,0:0:0:0:
234,83,76657,1,0,0:0:0:0:
340,56,76773,1,0,0:0:0:0:
434,123,76889,6,0,L|447:203,1,63.7500024318696
342,179,77122,1,0,0:0:0:0:
342,179,77238,1,0,0:0:0:0:
342,179,77354,2,0,L|329:259,1,63.7500024318696
212,243,77587,1,0,0:0:0:0:
212,243,77703,1,0,0:0:0:0:
212,243,77820,2,0,L|225:323,1,63.7500024318696
131,374,78052,1,0,0:0:0:0:
131,374,78168,1,0,0:0:0:0:
131,374,78285,2,0,L|120:311,1,63.7500024318696
32,310,78517,2,0,L|58:251,1,63.7500024318696
163,171,78750,6,0,L|137:230,1,63.7500024318696
236,233,78982,1,0,0:0:0:0:
236,233,79099,1,0,0:0:0:0:
236,233,79215,2,0,L|262:292,1,63.7500024318696
315,199,79447,2,0,L|289:140,1,63.7500024318696
185,100,79680,2,0,L|211:159,1,63.7500024318696
165,256,79913,2,0,L|139:197,1,63.7500024318696
49,153,80145,1,0,0:0:0:0:
49,153,80378,5,0,0:0:0:0:
49,153,80610,2,0,P|101:203|185:189,1,127.500004863739
181,89,81075,2,0,L|104:130,1,63.7500024318696
125,119,81308,1,0,0:0:0:0:
115,199,81424,1,0,0:0:0:0:
179,244,81540,5,0,0:0:0:0:
205,261,81773,1,0,0:0:0:0:
238,279,82006,2,0,L|246:147,1,127.500004863739
313,102,82471,2,0,P|417:118|489:23,1,212.5
484,45,83168,2,0,P|418:127|464:236,1,212.5
446,221,83866,5,0,0:0:0:0:
349,198,84021,5,0,0:0:0:0:
313,102,84176,5,0,0:0:0:0:
378,22,84331,5,0,0:0:0:0:
254,180,84796,5,0,0:0:0:0:
254,180,85029,2,0,L|212:67,1,106.25
174,218,85727,2,0,P|232:264|286:263,1,106.25
261,267,86192,5,0,0:0:0:0:
310,160,86424,1,0,0:0:0:0:
310,160,86657,2,0,L|246:173,1,53.125
202,73,87006,1,0,0:0:0:0:
202,73,87122,2,0,L|266:86,1,53.125
104,176,87354,1,0,0:0:0:0:
104,176,87471,2,0,L|168:163,1,53.125
18,45,87703,1,0,0:0:0:0:
18,45,87820,2,0,L|82:58,1,53.125
70,55,88052,5,0,0:0:0:0:
104,176,88285,1,0,0:0:0:0:
104,176,88517,2,0,L|51:184,1,53.125
136,259,88866,1,0,0:0:0:0:
136,259,88982,2,0,L|179:225,1,53.125
266,278,89215,1,0,0:0:0:0:
266,278,89331,2,0,L|286:227,1,53.125
402,250,89564,1,0,0:0:0:0:
402,250,89680,2,0,L|408:195,1,53.125
408,197,89913,5,0,0:0:0:0:
425,77,90145,1,0,0:0:0:0:
425,77,90378,2,0,L|352:103,1,53.125
279,134,90727,1,0,0:0:0:0:
279,133,90843,2,0,L|329:150,1,53.125
237,44,91075,1,0,0:0:0:0:
237,44,91192,2,0,L|306:20,1,53.125
134,109,91424,1,0,0:0:0:0:
134,109,91540,2,0,L|203:133,1,53.125
184,126,91773,5,0,0:0:0:0:
170,237,92006,1,0,0:0:0:0:
170,237,92238,2,0,L|232:218,1,53.125
290,159,92587,1,0,0:0:0:0:
290,159,92703,2,0,L|228:140,1,53.125
352,233,92936,1,0,0:0:0:0:
352,233,93052,2,0,L|291:255,1,53.125
457,260,93285,1,0,0:0:0:0:
457,260,93401,2,0,L|415:309,1,53.125
422,300,93633,5,0,0:0:0:0:
343,377,93866,1,0,0:0:0:0:
343,377,94099,2,0,L|317:305,1,53.125
279,184,94447,1,0,0:0:0:0:
279,184,94564,2,0,L|209:153,1,53.125
351,259,94796,1,0,0:0:0:0:
351,259,94913,2,0,L|281:290,1,53.125
433,178,95145,1,0,0:0:0:0:
433,178,95262,2,0,L|363:147,1,53.125
384,156,95494,5,0,0:0:0:0:
278,107,95727,1,0,0:0:0:0:
278,107,95959,2,0,L|332:72,1,53.125
390,181,96308,1,0,0:0:0:0:
390,181,96424,2,0,L|345:152,1,53.125
339,295,96657,1,0,0:0:0:0:
339,295,96773,2,0,L|314:247,1,53.125
220,371,97006,1,0,0:0:0:0:
220,371,97122,2,0,L|222:317,1,53.125
230,212,97354,6,0,P|180:168|219:231,1,212.5
268,93,98052,2,0,L|299:159,1,53.125
341,274,98285,2,0,L|310:208,1,53.125
246,86,98517,1,0,0:0:0:0:
220,80,98982,2,0,B|225:139|159:155|159:155|154:225|83:241,1,212.5
256,192,99680,12,0,100610,0:0:0:0:
402,99,100843,5,0,0:0:0:0:
309,254,101075,2,0,L|403:187,1,85
201,227,101540,1,0,0:0:0:0:
446,149,102238,6,0,P|466:207|438:257,1,85
317,256,102703,2,0,P|357:209|414:208,1,85
472,316,103168,2,0,P|411:304|382:255,1,85
396,289,103750,1,0,0:0:0:0:
460,227,104099,1,0,0:0:0:0:
317,256,104331,1,0,0:0:0:0:
126,269,104564,5,0,0:0:0:0:
126,269,104796,2,0,L|153:218,1,42.5
204,118,105261,1,0,0:0:0:0:
88,130,105610,1,0,0:0:0:0:
195,315,105959,6,0,P|146:348|90:344,1,85
90,191,106424,2,0,L|127:273,1,85
122,113,106889,2,0,P|55:112|12:206,1,170
9,194,107471,1,0,0:0:0:0:
9,194,107587,1,0,0:0:0:0:
143,240,107820,1,0,0:0:0:0:
259,170,108052,1,0,0:0:0:0:
259,170,108168,1,0,0:0:0:0:
259,170,108285,1,0,0:0:0:0:
261,285,108517,6,0,P|326:284|360:258,1,85
432,285,108866,2,0,L|437:332,1,42.5
396,201,109215,2,0,L|388:109,1,85
227,93,109680,2,0,P|292:92|326:66,1,85
458,46,110145,2,0,P|393:45|359:19,1,85
376,36,110610,5,0,0:0:0:0:
323,156,110843,1,0,0:0:0:0:
246,58,111075,1,0,0:0:0:0:
246,58,111192,1,0,0:0:0:0:
246,58,111308,1,0,0:0:0:0:
277,223,111540,5,0,0:0:0:0:
277,223,111773,2,0,P|330:218|373:252,1,85
293,375,112238,2,0,L|311:290,1,85
166,355,112587,2,0,L|235:302,1,85
145,256,112936,2,0,L|60:267,1,85
47,107,113401,6,0,P|85:163|80:192,1,85
60,267,113866,2,0,P|116:229|292:309,1,255
295,378,114796,1,0,0:0:0:0:
295,378,114913,1,0,0:0:0:0:
295,378,115029,1,0,0:0:0:0:
362,320,115261,1,0,0:0:0:0:
362,320,115494,6,0,P|428:311|464:338,1,85
442,317,115959,2,0,P|401:264|469:106,1,255
465,107,116773,1,0,0:0:0:0:
473,114,116889,1,0,0:0:0:0:
328,150,117122,1,0,0:0:0:0:
366,11,117354,1,0,0:0:0:0:
419,198,117587,6,0,P|396:285|319:326,1,170
331,324,118168,1,0,0:0:0:0:
331,324,118285,1,0,0:0:0:0:
206,245,118517,1,0,0:0:0:0:
206,245,118633,1,0,0:0:0:0:
206,245,118750,2,0,L|255:169,1,85
218,322,119215,2,0,P|153:303|131:267,1,85
139,132,119680,6,0,L|130:247,1,85
132,216,120029,1,0,0:0:0:0:
132,216,120145,1,0,0:0:0:0:
283,246,120378,2,0,P|219:212|180:231,2,85
417,185,121308,6,0,P|481:219|520:200,2,85
336,74,122006,2,0,L|337:158,1,85
337,158,122354,1,0,0:0:0:0:
339,222,122471,5,0,0:0:0:0:
272,298,122626,1,0,0:0:0:0:
240,203,122781,1,0,0:0:0:0:
172,278,122936,1,0,0:0:0:0:
138,182,123091,1,0,0:0:0:0:
65,255,123246,1,0,0:0:0:0:
221,254,123401,6,0,P|216:353|201:255,1,255
342,188,124331,6,0,P|381:143|373:87,1,85
223,85,124796,2,0,L|314:124,1,85
301,118,125145,1,0,0:0:0:0:
301,118,125261,1,0,0:0:0:0:
231,171,125494,2,0,L|140:131,2,85
231,171,126424,5,0,0:0:0:0:
231,171,126657,1,0,0:0:0:0:
231,171,126889,1,0,0:0:0:0:
231,171,127122,5,0,0:0:0:0:
169,233,127354,1,0,0:0:0:0:
191,64,127587,1,0,0:0:0:0:
394,222,127820,1,0,0:0:0:0:
123,319,128052,1,0,0:0:0:0:
289,34,128285,1,0,0:0:0:0:
346,339,128517,1,0,0:0:0:0:
92,25,128750,1,0,0:0:0:0:
224,170,129215,5,0,0:0:0:0:
188,198,129447,1,0,0:0:0:0:
153,224,129680,1,0,0:0:0:0:
287,125,129913,5,0,0:0:0:0:
310,111,130029,1,0,0:0:0:0:
366,110,130145,1,0,0:0:0:0:
422,159,130261,1,0,0:0:0:0:
416,245,130378,1,0,0:0:0:0:
331,289,130494,1,0,0:0:0:0:
245,248,130610,1,0,0:0:0:0:
207,160,130727,5,0,0:0:0:0:
207,160,130843,2,0,L|244:103,1,63.7500024318696
286,52,131075,2,0,L|325:-3,2,63.7500024318696
248,128,131540,5,0,0:0:0:0:
248,128,131657,1,0,0:0:0:0:
248,128,131773,2,0,L|290:196,1,63.7500024318696
363,182,132006,2,0,L|330:248,1,63.7500024318696
282,338,132238,2,0,P|247:270|198:252,1,127.500004863739
202,252,132587,1,0,0:0:0:0:
202,252,132703,1,0,0:0:0:0:
184,384,132936,5,0,0:0:0:0:
184,384,133052,1,0,0:0:0:0:
184,384,133168,2,0,L|211:320,1,63.7500024318696
299,317,133401,1,0,0:0:0:0:
299,317,133517,1,0,0:0:0:0:
299,317,133633,2,0,L|272:258,1,63.7500024318696
339,167,133866,2,0,L|271:140,1,63.7500024318696
138,190,134099,1,0,0:0:0:0:
138,190,134215,1,0,0:0:0:0:
138,190,134331,2,0,L|205:216,1,63.7500024318696
162,57,134564,6,0,L|204:116,1,63.7500024318696
259,174,134796,2,0,L|289:108,1,63.7500024318696
325,35,135029,1,0,0:0:0:0:
325,35,135145,1,0,0:0:0:0:
325,35,135261,2,0,L|252:41,1,63.7500024318696
362,165,135610,5,0,0:0:0:0:
362,165,135727,1,0,0:0:0:0:
362,165,135843,2,0,P|398:112|458:94,1,127.500004863739
460,203,136424,6,0,L|434:256,1,42.5
418,231,136657,2,0,L|436:193,1,42.5
417,185,136889,1,0,0:0:0:0:
367,201,137006,1,0,0:0:0:0:
287,201,137122,1,0,0:0:0:0:
230,132,137238,1,0,0:0:0:0:
177,0,137354,6,0,P|162:77|167:90,1,85
139,235,137820,2,0,P|153:155|148:142,1,85
4,150,138285,2,0,L|85:183,1,85
82,182,138633,1,0,0:0:0:0:
82,182,138750,1,0,0:0:0:0:
269,255,138982,5,0,0:0:0:0:
194,125,139215,2,0,P|197:187|220:217,1,85
208,205,139680,1,0,0:0:0:0:
139,153,139913,5,0,0:0:0:0:
41,50,140145,2,0,P|44:112|67:142,1,85
55,130,140494,1,0,0:0:0:0:
55,130,140610,1,0,0:0:0:0:
219,118,140843,5,0,0:0:0:0:
309,0,141075,2,0,P|306:62|283:92,1,85
277,247,141540,2,0,P|280:185|303:155,1,85
291,166,142006,5,0,0:0:0:0:
291,166,142238,1,0,0:0:0:0:
234,213,142471,1,0,0:0:0:0:
288,67,142703,1,0,0:0:0:0:
414,239,142936,1,0,0:0:0:0:
158,278,143168,1,0,0:0:0:0:
346,21,143401,1,0,0:0:0:0:
390,355,143633,1,0,0:0:0:0:
173,28,143866,1,0,0:0:0:0:
196,200,144099,5,0,0:0:0:0:
196,200,144215,1,0,0:0:0:0:
196,200,144331,1,0,0:0:0:0:
236,85,144680,5,0,0:0:0:0:
236,85,144796,2,0,P|280:67|311:72,1,63.7500024318696
295,67,145144,1,0,0:0:0:0:
295,67,145261,2,0,P|236:51|181:5,1,127.5
184,10,145727,1,0,0:0:0:0:
199,125,146075,5,0,0:0:0:0:
199,125,146192,2,0,L|158:174,2,63.7500024318696
249,77,146540,1,0,0:0:0:0:
319,70,146657,1,0,0:0:0:0:
368,130,146773,1,0,0:0:0:0:
334,220,146889,1,0,0:0:0:0:
225,224,147006,1,0,0:0:0:0:
181,135,147122,5,0,0:0:0:0:
181,135,147238,2,0,L|233:185,1,63.7500024318696
322,264,147471,1,0,0:0:0:0:
322,264,147587,2,0,L|270:214,1,63.7500024318696
255,202,147820,1,0,0:0:0:0:
347,117,148052,5,0,0:0:0:0:
347,117,148168,2,0,L|295:167,1,63.7500024318696
166,287,148401,1,0,0:0:0:0:
166,287,148517,2,0,L|218:237,1,63.7500024318696
255,202,148750,1,0,0:0:0:0:
134,94,148982,5,0,0:0:0:0:
134,94,149099,2,0,L|186:144,1,63.7500024318696
362,314,149332,1,0,0:0:0:0:
362,314,149448,2,0,L|310:264,1,63.7500024318696
255,202,149680,1,0,0:0:0:0:
384,89,150145,5,0,0:0:0:0:
384,89,150261,2,0,L|324:147,1,63.7500024318696
136,308,150494,1,0,0:0:0:0:
136,308,150610,2,0,L|196:250,1,63.7500024318696
255,202,150843,1,0,0:0:0:0:
255,202,151075,5,0,0:0:0:0:
235,36,151308,2,0,P|201:101|211:156,1,106.25
361,193,151773,2,0,P|321:131|269:112,1,106.25
64,284,152238,6,0,B|149:235|138:287|210:257|165:229|265:198,2,212.5,0|0|0,0:0|0:0|3:0,3:0:0:0:
64,284,153866,6,0,L|112:263,1,53.125
231,212,154099,1,0,0:0:0:0:
126,150,154215,1,0,0:0:0:0:
147,63,154331,1,0,0:0:0:0:
226,52,154447,1,0,0:0:0:0:
258,118,154564,1,0,0:0:0:0:
191,114,154680,1,0,0:0:0:0:
212,88,154796,1,0,0:0:0:0:
223,116,154913,1,0,0:0:0:0:
209,104,155029,5,0,0:0:0:0:
209,104,155494,1,0,0:0:0:0:
209,104,155959,1,0,0:0:0:0:
224,219,156192,5,0,0:0:0:0:
224,219,156308,1,0,0:0:0:0:
224,219,156424,2,0,B|282:208|282:208|296:215|296:215|359:201,1,127.5
347,203,156889,6,0,P|400:170|396:59,1,170
405,70,157587,1,0,0:0:0:0:
234,149,157820,2,0,L|337:102,1,85
274,240,158517,2,0,B|210:253|210:253|121:159|121:159|56:171,1,255
61,169,159447,5,0,0:0:0:0:
61,169,159564,1,0,0:0:0:0:
61,169,159680,1,0,0:0:0:0:
231,183,159913,1,0,0:0:0:0:
170,238,160145,1,0,0:0:0:0:
170,238,160610,6,0,B|243:197|345:220|345:220|282:195|271:156,1,255
283,179,161424,1,0,0:0:0:0:
283,179,161540,1,0,0:0:0:0:
443,274,162238,6,0,B|370:315|268:292|268:292|331:317|342:356,1,255
295,212,163168,1,0,0:0:0:0:
295,212,163401,2,0,P|248:206|198:221,1,85
82,279,163866,2,0,P|129:273|179:288,1,85
165,281,164215,1,0,0:0:0:0:
165,281,164331,6,0,B|238:322|340:299|340:299|277:324|266:363,1,255
435,190,178285,6,0,P|416:121|391:98,1,95.6250036478044
400,105,178750,2,0,P|362:164|384:241,1,127.5
369,218,179215,6,0,L|188:129,1,191.250007295609
101,82,179680,2,0,L|110:149,1,63.7500024318696
121,207,179913,1,0,0:0:0:0:
166,260,180029,1,0,0:0:0:0:
235,250,180145,1,0,0:0:0:0:
272,172,180261,1,0,0:0:0:0:
206,112,180378,1,0,0:0:0:0:
171,191,180494,1,0,0:0:0:0:
251,263,180610,1,0,0:0:0:0:
372,248,180727,1,0,0:0:0:0:
437,137,180843,1,0,0:0:0:0:
336,49,180959,1,0,0:0:0:0:
336,49,181075,6,0,L|310:116,1,63.7500024318696
206,112,181308,1,0,0:0:0:0:
206,112,181424,1,0,0:0:0:0:
206,112,181540,2,0,L|232:179,1,63.7500024318696
181,276,181773,1,0,0:0:0:0:
181,276,181889,1,0,0:0:0:0:
181,276,182006,2,0,L|248:302,2,63.7500024318696
80,220,182354,2,0,P|131:184|148:124,1,127.500004863739
377,161,182936,6,0,L|444:187,2,63.7500024318696
311,135,183285,1,0,0:0:0:0:
244,155,183401,1,0,0:0:0:0:
244,239,183517,1,0,0:0:0:0:
321,287,183633,1,0,0:0:0:0:
325,200,183750,1,0,0:0:0:0:
217,142,183866,1,0,0:0:0:0:
149,226,183982,1,0,0:0:0:0:
196,318,184099,1,0,0:0:0:0:
301,332,184215,1,0,0:0:0:0:
376,254,184331,1,0,0:0:0:0:
376,254,184564,6,0,L|388:179,1,63.7500024318696
332,60,184796,1,0,0:0:0:0:
332,60,184913,1,0,0:0:0:0:
332,60,185029,2,0,L|320:135,1,63.7500024318696
224,116,185261,1,0,0:0:0:0:
224,116,185378,1,0,0:0:0:0:
224,116,185494,2,0,L|236:191,1,63.7500024318696
245,248,185727,5,0,0:0:0:0:
230,316,185843,1,0,0:0:0:0:
145,352,185959,1,0,0:0:0:0:
44,306,186075,1,0,0:0:0:0:
28,192,186192,1,0,0:0:0:0:
31,204,186424,5,0,0:0:0:0:
