osu file format v14

[General]
AudioFilename: audio.mp3
AudioLeadIn: 0
PreviewTime: 197494
Countdown: 0
SampleSet: Normal
StackLeniency: 0.7
Mode: 1
LetterboxInBreaks: 0
WidescreenStoryboard: 0

[Editor]
DistanceSpacing: 2.2
BeatDivisor: 4
GridSize: 8
TimelineZoom: 1.3

[Metadata]
Title:Ame o Matsu,
TitleUnicode:アメヲマツ、
Artist:Minami
ArtistUnicode:美波
Creator:yurishe
Version:Viewfinder,
Source:
Tags:japanese pop jpop j-pop rock jrock j-rock female vocals amewomatsu, wo waiting for the rain
BeatmapID:3357775
BeatmapSetID:1644963

[Difficulty]
HPDrainRate:5
CircleSize:5
OverallDifficulty:5.5
ApproachRate:5
SliderMultiplier:1.4
SliderTickRate:1

[Events]
//Background and Video events
0,0,"background002.jpg",0,-140
//Break Periods
2,197494,199894
//Storyboard Layer 0 (Background)
//Storyboard Layer 1 (Fail)
//Storyboard Layer 2 (Pass)
//Storyboard Layer 3 (Foreground)
//Storyboard Layer 4 (Overlay)
//Storyboard Sound Samples

[TimingPoints]
294,400,4,1,0,45,1,0
294,-125,4,1,0,40,0,0
24244,-123.456790123457,4,1,0,60,0,0
24344,-121.951219512195,4,1,0,60,0,0
24444,-120.481927710843,4,1,0,60,0,0
24644,-119.047619047619,4,1,0,60,0,0
24844,-117.647058823529,4,1,0,60,0,0
24944,-116.279069767442,4,1,0,60,0,0
25144,-113.636363636364,4,1,0,60,0,0
25244,-111.111111111111,4,1,0,60,0,0
25344,-108.695652173913,4,1,0,60,0,0
25444,-106.382978723404,4,1,0,60,0,0
25544,-104.166666666667,4,1,0,60,0,0
25644,-102.040816326531,4,1,0,60,0,0
25894,-100,4,1,0,60,0,0
38244,-102.040816326531,4,1,0,60,0,0
38444,-104.166666666667,4,1,0,60,0,0
38544,-106.382978723404,4,1,0,60,0,0
38644,-108.695652173913,4,1,0,60,0,0
39044,-111.111111111111,4,1,0,50,0,0
51044,-109.89010989011,4,1,0,50,0,0
51144,-108.695652173913,4,1,0,50,0,0
51244,-107.52688172043,4,1,0,50,0,0
51344,-106.382978723404,4,1,0,50,0,0
51444,-105.263157894737,4,1,0,50,0,0
62644,-106.382978723404,4,1,0,50,0,0
62744,-107.52688172043,4,1,0,50,0,0
62844,-108.695652173913,4,1,0,50,0,0
63044,-109.89010989011,4,1,0,50,0,0
63244,-111.111111111111,4,1,0,50,0,0
63344,-112.359550561798,4,1,0,50,0,0
63444,-113.636363636364,4,1,0,50,0,0
63644,-114.942528735632,4,1,0,50,0,0
63844,-116.279069767442,4,1,0,50,0,0
64044,-119.047619047619,4,1,0,50,0,0
64144,-121.951219512195,4,1,0,50,0,0
64244,-125,4,1,0,50,0,0
64344,-142.857142857143,4,1,0,30,0,0
70594,-111.111111111111,4,1,0,50,0,0
71866,428.571428571429,4,1,0,45,1,8
71866,-104.166666666667,4,1,0,50,0,0
72294,400,4,1,0,45,1,0
72294,-111.607142857143,4,1,0,50,0,0
72844,-105.263157894737,4,1,0,50,0,0
72944,-104.166666666667,4,1,0,50,0,0
73044,-103.092783505155,4,1,0,50,0,0
73144,-102.040816326531,4,1,0,50,0,0
73244,-101.010101010101,4,1,0,50,0,0
73444,-100,4,1,0,50,0,0
73544,-98.0392156862745,4,1,0,50,0,0
73644,-96.1538461538461,4,1,0,50,0,0
73744,-94.3396226415094,4,1,0,50,0,0
73894,-90.9090909090909,4,1,0,60,0,1
85244,-92.5925925925926,4,1,0,60,0,1
85444,-94.3396226415094,4,1,0,60,0,1
85544,-96.1538461538461,4,1,0,60,0,1
85644,-98.0392156862745,4,1,0,60,0,1
85844,-100,4,1,0,60,0,1
86044,-99.009900990099,4,1,0,60,0,1
86144,-98.0392156862745,4,1,0,60,0,1
86244,-97.0873786407767,4,1,0,60,0,1
86344,-96.1538461538461,4,1,0,60,0,1
86444,-95.2380952380952,4,1,0,60,0,1
86544,-94.3396226415094,4,1,0,60,0,1
86644,-93.4579439252336,4,1,0,60,0,1
86844,-90.9090909090909,4,1,0,60,0,1
97844,-91.743119266055,4,1,0,60,0,1
98044,-92.5925925925926,4,1,0,60,0,1
98144,-93.4579439252336,4,1,0,60,0,1
98244,-94.3396226415094,4,1,0,60,0,1
98444,-95.2380952380952,4,1,0,60,0,1
98644,-96.1538461538461,4,1,0,60,0,1
98744,-97.0873786407767,4,1,0,60,0,1
98844,-98.0392156862745,4,1,0,60,0,1
99044,-99.009900990099,4,1,0,60,0,1
99244,-100,4,1,0,60,0,1
99494,-90.9090909090909,4,1,0,70,0,0
99844,-100,4,1,0,60,0,0
100044,-90.9090909090909,4,1,0,70,0,0
100444,-100,4,1,0,60,0,0
100712,400,4,1,0,45,1,0
100712,-90.9090909090909,4,1,0,70,0,0
101112,400,4,1,0,45,1,8
102644,-90.9090909090909,4,1,0,70,0,0
103044,-100,4,1,0,60,0,0
103244,-90.9090909090909,4,1,0,70,0,0
103678,400,4,1,0,45,1,8
103678,-100,4,1,0,60,0,0
103912,400,4,1,0,45,1,0
103912,-90.9090909090909,4,1,0,70,0,0
104312,400,4,1,0,45,1,8
104312,-100,4,1,0,30,0,0
105894,400,4,1,0,45,1,0
105894,-125,4,1,0,40,0,0
118044,-121.951219512195,4,1,0,50,0,0
118144,-119.047619047619,4,1,0,50,0,0
118244,-116.279069767442,4,1,0,50,0,0
118444,-113.636363636364,4,1,0,50,0,0
118644,-111.111111111111,4,1,0,50,0,0
129644,-105.263157894737,4,1,0,50,0,0
129744,-100,4,1,0,50,0,0
129844,-95.2380952380952,4,1,0,70,0,0
131444,-100,4,1,0,50,0,0
142744,-102.040816326531,4,1,0,50,0,0
142844,-104.166666666667,4,1,0,50,0,0
143044,-100,4,1,0,50,0,0
143144,-102.040816326531,4,1,0,50,0,0
143244,-104.166666666667,4,1,0,50,0,0
143444,-100,4,1,0,50,0,0
143544,-102.040816326531,4,1,0,50,0,0
143644,-104.166666666667,4,1,0,50,0,0
143844,-98.0392156862745,4,1,0,50,0,0
143944,-96.1538461538461,4,1,0,50,0,0
144044,-94.3396226415094,4,1,0,50,0,0
144144,-92.5925925925926,4,1,0,50,0,0
144294,-90.9090909090909,4,1,0,60,0,1
156044,-92.5925925925926,4,1,0,60,0,1
156144,-94.3396226415094,4,1,0,60,0,1
156244,-96.1538461538461,4,1,0,60,0,1
156344,-98.0392156862745,4,1,0,60,0,1
156444,-100,4,1,0,60,0,1
156644,-98.0392156862745,4,1,0,60,0,1
156744,-96.1538461538461,4,1,0,60,0,1
156844,-94.3396226415094,4,1,0,60,0,1
156944,-92.5925925925926,4,1,0,60,0,1
157044,-90.9090909090909,4,1,0,60,0,1
163044,-91.743119266055,4,1,0,60,0,1
163144,-92.5925925925926,4,1,0,60,0,1
163244,-93.4579439252336,4,1,0,60,0,1
163344,-94.3396226415094,4,1,0,60,0,1
163444,-95.2380952380952,4,1,0,60,0,1
168244,-91.743119266055,4,1,0,60,0,1
168344,-92.5925925925926,4,1,0,60,0,1
168544,-93.4579439252336,4,1,0,60,0,1
168644,-94.3396226415094,4,1,0,60,0,1
168844,-95.2380952380952,4,1,0,60,0,1
168944,-96.1538461538461,4,1,0,60,0,1
169044,-97.0873786407767,4,1,0,60,0,1
169244,-98.0392156862745,4,1,0,60,0,1
169444,-100,4,1,0,60,0,1
169544,-102.040816326531,4,1,0,60,0,1
169644,-104.166666666667,4,1,0,60,0,1
169894,-106.382978723404,4,1,0,30,0,0
169994,-142.857142857143,4,1,0,30,0,0
181644,-121.951219512195,4,1,0,40,0,0
181844,-119.047619047619,4,1,0,40,0,0
182144,-116.279069767442,4,1,0,40,0,0
182444,-113.636363636364,4,1,0,40,0,0
182644,-111.111111111111,4,1,0,50,0,0
188244,-113.636363636364,4,1,0,50,0,0
188444,-116.279069767442,4,1,0,50,0,0
188644,-119.047619047619,4,1,0,50,0,0
188844,-121.951219512195,4,1,0,50,0,0
189044,-125,4,1,0,30,0,0
189144,-142.857142857143,4,1,0,30,0,0
194444,-121.951219512195,4,1,0,40,0,0
194644,-119.047619047619,4,1,0,40,0,0
194844,-116.279069767442,4,1,0,40,0,0
195044,-113.636363636364,4,1,0,40,0,0
195444,-111.111111111111,4,1,0,50,0,0
197494,-111.111111111111,4,1,0,5,0,0
201044,-76.9230769230769,4,1,0,5,0,0
201874,-125,4,1,0,60,0,0
202074,-124.271844660194,4,1,0,60,0,0
202174,-123.910939012585,4,1,0,60,0,0
202274,-123.552123552124,4,1,0,60,0,0
202474,-122.840690978887,4,1,0,60,0,0
202674,-122.137404580153,4,1,0,60,0,0
202874,-121.442125237192,4,1,0,60,0,0
202974,-121.097445600757,4,1,0,60,0,0
203074,-120.754716981132,4,1,0,60,0,0
203274,-120.075046904315,4,1,0,60,0,0
203474,-119.402985074627,4,1,0,60,0,0
203574,-119.06976744186,4,1,0,60,0,0
203674,-118.73840445269,4,1,0,60,0,0
203774,-118.40888066605,4,1,0,60,0,0
203874,-118.081180811808,4,1,0,60,0,0
204074,-117.43119266055,4,1,0,60,0,0
204474,-116.152450090744,4,1,0,60,0,0
204574,-115.837104072398,4,1,0,60,0,0
204674,-115.523465703971,4,1,0,60,0,0
204874,-114.901256732496,4,1,0,60,0,0
205074,-114.285714285714,4,1,0,60,0,0
205174,-113.980409617097,4,1,0,60,0,0
205274,-113.676731793961,4,1,0,60,0,0
205474,-113.074204946996,4,1,0,60,0,0
205574,-112.775330396476,4,1,0,60,0,0
205674,-112.478031634446,4,1,0,60,0,0
205874,-111.888111888112,4,1,0,60,0,0
205974,-111.595466434176,4,1,0,60,0,0
206074,-111.304347826087,4,1,0,60,0,0
206274,-110.726643598616,4,1,0,60,0,0
206374,-110.440034512511,4,1,0,60,0,0
206474,-110.154905335628,4,1,0,60,0,0
206674,-109.58904109589,4,1,0,60,0,0
207074,-108.474576271186,4,1,0,60,0,0
207274,-107.925801011804,4,1,0,60,0,0
207374,-107.653490328007,4,1,0,60,0,0
207474,-107.38255033557,4,1,0,60,0,0
207674,-106.844741235392,4,1,0,60,0,0
207874,-106.312292358804,4,1,0,60,0,0
208074,-105.785123966942,4,1,0,60,0,0
208174,-105.523495465787,4,1,0,60,0,0
208274,-105.263157894737,4,1,0,60,0,0
208674,-104.234527687296,4,1,0,60,0,0
208774,-103.980503655565,4,1,0,60,0,0
208874,-103.727714748784,4,1,0,60,0,0
209074,-103.225806451613,4,1,0,60,0,0
209274,-102.728731942215,4,1,0,60,0,0
209474,-102.23642172524,4,1,0,60,0,0
209574,-101.99203187251,4,1,0,60,0,0
209674,-101.748807631161,4,1,0,60,0,0
209874,-101.26582278481,4,1,0,60,0,0
210074,-100.787401574803,4,1,0,60,0,0
210174,-100.549882168107,4,1,0,60,0,0
210274,-100.313479623824,4,1,0,60,0,0
210474,-99.8439937597504,4,1,0,60,0,0
210674,-99.3788819875776,4,1,0,60,0,0
210874,-98.9180834621329,4,1,0,60,0,0
210974,-98.6892829606785,4,1,0,60,0,0
211074,-98.4615384615385,4,1,0,60,0,0
211274,-98.0091883614089,4,1,0,60,0,0
211474,-97.5609756097561,4,1,0,60,0,0
211574,-97.3384030418251,4,1,0,60,0,0
211674,-97.1168437025797,4,1,0,60,0,0
211874,-96.6767371601208,4,1,0,60,0,0
211974,-96.4581763376036,4,1,0,60,0,0
212074,-96.2406015037594,4,1,0,60,0,0
212274,-95.8083832335329,4,1,0,60,0,0
212374,-95.5937266616878,4,1,0,60,0,0
212474,-95.3800298062593,4,1,0,60,0,0
212674,-94.9554896142433,4,1,0,60,0,0
212774,-94.7446336047372,4,1,0,60,0,0
212874,-94.5347119645495,4,1,0,60,0,0
213074,-94.1176470588235,4,1,0,60,0,0
213274,-93.7042459736457,4,1,0,60,0,0
213374,-93.4989043097151,4,1,0,60,0,0
213474,-93.2944606413994,4,1,0,60,0,0
213574,-93.0909090909091,4,1,0,60,0,0
213674,-92.8882438316401,4,1,0,60,0,0
213874,-92.485549132948,4,1,0,60,0,0
214074,-92.0863309352518,4,1,0,60,0,0
214174,-91.8880114860014,4,1,0,60,0,0
214274,-91.6905444126074,4,1,0,60,0,0
214374,-91.493924231594,4,1,0,60,0,0
214474,-91.2981455064194,4,1,0,60,0,0
214694,-91.1032028469751,4,1,0,60,0,1
220694,387.096774193548,4,1,0,45,1,9
220694,-94.3396226415094,4,1,0,60,0,1
221081,400,4,1,0,45,1,1
221081,-90.9090909090909,4,1,0,60,0,1
225731,-92.5925925925926,4,1,0,60,0,1
225844,-94.3396226415094,4,1,0,60,0,1
225944,-96.1538461538461,4,1,0,60,0,1
226044,-98.0392156862745,4,1,0,60,0,1
226244,-100,4,1,0,60,0,1
226444,-100,4,1,0,60,0,1
226544,-99.009900990099,4,1,0,60,0,1
226644,-98.0392156862745,4,1,0,60,0,1
226744,-97.0873786407767,4,1,0,60,0,1
226844,-96.1538461538461,4,1,0,60,0,1
226944,-95.2380952380952,4,1,0,60,0,1
227044,-94.3396226415094,4,1,0,60,0,1
227144,-93.4579439252336,4,1,0,60,0,1
227244,-92.5925925925926,4,1,0,60,0,1
227444,-90.9090909090909,4,1,0,60,0,1
238244,-92.5925925925926,4,1,0,60,0,1
238444,-94.3396226415094,4,1,0,60,0,1
238544,-96.1538461538461,4,1,0,60,0,1
238644,-98.0392156862745,4,1,0,60,0,1
238844,-100,4,1,0,60,0,1
239044,-100,4,1,0,60,0,1
239144,-99.009900990099,4,1,0,60,0,1
239244,-98.0392156862745,4,1,0,60,0,1
239444,-97.0873786407767,4,1,0,60,0,1
239544,-96.1538461538461,4,1,0,60,0,1
239681,-95.2380952380952,4,1,0,60,0,1
239770,-94.3396226415094,4,1,0,60,0,1
239873,-93.4579439252336,4,1,0,60,0,1
239999,-92.5925925925926,4,1,0,60,0,1
240144,-91.743119266055,4,1,0,60,0,1
240281,-90.9090909090909,4,1,0,60,0,1
251244,-91.743119266055,4,1,0,60,0,1
251344,-92.5925925925926,4,1,0,60,0,1
251444,-93.4579439252336,4,1,0,60,0,1
251544,-94.3396226415094,4,1,0,60,0,1
251644,-95.2380952380952,4,1,0,60,0,1
251844,-96.1538461538461,4,1,0,60,0,1
252044,-97.0873786407767,4,1,0,60,0,1
252144,-98.0392156862745,4,1,0,60,0,1
252244,-99.009900990099,4,1,0,60,0,1
252444,-100,4,1,0,60,0,1
252644,-98.0392156862745,4,1,0,60,0,1
252744,-96.1538461538461,4,1,0,60,0,1
252844,-94.3396226415094,4,1,0,60,0,1
252944,-92.5925925925926,4,1,0,60,0,1
253081,-90.9090909090909,4,1,0,70,0,0
253444,-100,4,1,0,60,0,0
253644,-90.9090909090909,4,1,0,70,0,0
254044,-100,4,1,0,60,0,0
254318,400,4,1,0,45,1,0
254318,-90.9090909090909,4,1,0,70,0,0
255284,400,4,1,0,45,1,8
255284,-100,4,1,0,60,0,0
256284,400,4,1,0,45,1,0
256284,-90.9090909090909,4,1,0,70,0,0
256644,-100,4,1,0,60,0,0
256844,-90.9090909090909,4,1,0,70,0,0
257244,-100,4,1,0,60,0,0
257502,392.156862745098,4,1,0,45,1,0
257502,-90.9090909090909,4,1,0,70,0,0
257744,-102.040816326531,4,1,0,60,0,0
258104,400,4,1,0,45,1,8
258286,400,4,1,0,45,1,8
258286,-100,4,1,0,60,0,0
259481,400,4,1,0,45,1,0
259481,-90.9090909090909,4,1,0,70,0,0
259844,-100,4,1,0,60,0,0
260044,-90.9090909090909,4,1,0,70,0,0
260444,-100,4,1,0,60,0,0
260644,-90.9090909090909,4,1,0,70,0,0
260681,400,5,1,0,70,1,0
260744,-100,5,1,0,60,0,0
262644,-90.9090909090909,5,1,0,70,0,0
262681,400,3,1,0,70,1,0
263044,-100,3,1,0,60,0,0
263244,-90.9090909090909,3,1,0,70,0,0
263644,-100,3,1,0,60,0,0
263844,-90.9090909090909,3,1,0,70,0,0
264044,-94.3396226415094,3,1,0,60,0,0
264244,-98.0392156862745,3,1,0,50,0,0
264544,-100,3,1,0,50,0,0
264644,-102.040816326531,3,1,0,50,0,0
264844,-104.166666666667,3,1,0,50,0,0
265044,-106.382978723404,3,1,0,50,0,0
265081,400,4,1,0,50,1,8
265844,-125,4,1,0,30,0,0
265881,400,4,1,0,30,1,0

[HitObjects]
160,96,13094,5,0,0:0:0:0:
352,96,13494,1,8,0:0:0:0:
160,96,13694,1,0,0:0:0:0:
352,96,14294,1,8,0:0:0:0:
160,96,14694,1,0,0:0:0:0:
352,96,15094,1,8,0:0:0:0:
352,96,15294,1,8,0:0:0:0:
160,96,15494,1,0,0:0:0:0:
352,96,15894,1,8,0:0:0:0:
160,96,16294,1,0,0:0:0:0:
352,96,16694,1,8,0:0:0:0:
160,96,16894,1,0,0:0:0:0:
352,96,17494,1,8,0:0:0:0:
352,96,18294,1,8,0:0:0:0:
352,96,18494,1,8,0:0:0:0:
352,96,19094,1,8,0:0:0:0:
160,96,19494,1,0,0:0:0:0:
352,96,19894,1,8,0:0:0:0:
160,96,20094,1,0,0:0:0:0:
352,96,20694,1,8,0:0:0:0:
160,96,21094,1,0,0:0:0:0:
352,96,21494,1,8,0:0:0:0:
352,96,21694,1,8,0:0:0:0:
160,96,21894,1,0,0:0:0:0:
352,96,22294,1,8,0:0:0:0:
160,96,22694,1,0,0:0:0:0:
352,96,23094,1,8,0:0:0:0:
160,96,23294,1,0,0:0:0:0:
352,96,23894,1,8,0:0:0:0:
352,96,24294,1,8,0:0:0:0:
352,96,24394,1,8,0:0:0:0:
160,96,24494,1,0,0:0:0:0:
352,96,24694,1,8,0:0:0:0:
352,96,24894,1,8,0:0:0:0:
160,96,24994,1,0,0:0:0:0:
352,96,25194,1,8,0:0:0:0:
160,96,25294,1,0,0:0:0:0:
160,96,25394,1,0,0:0:0:0:
352,96,25494,1,8,0:0:0:0:
352,96,25594,1,8,0:0:0:0:
160,96,25694,1,0,0:0:0:0:
352,288,25894,1,12,0:0:0:0:
160,96,26094,1,0,0:0:0:0:
352,96,26294,1,8,0:0:0:0:
352,96,26494,1,8,0:0:0:0:
352,96,26594,1,8,0:0:0:0:
160,96,26694,1,0,0:0:0:0:
160,96,26894,1,0,0:0:0:0:
352,96,27094,1,8,0:0:0:0:
160,96,27494,1,0,0:0:0:0:
160,96,27694,1,0,0:0:0:0:
352,96,27894,1,8,0:0:0:0:
160,96,28094,1,0,0:0:0:0:
352,96,28194,1,8,0:0:0:0:
160,96,28294,1,0,0:0:0:0:
160,96,28494,1,0,0:0:0:0:
352,96,28694,1,8,0:0:0:0:
160,96,28894,1,0,0:0:0:0:
160,96,28994,1,0,0:0:0:0:
352,288,29094,1,12,0:0:0:0:
160,96,29294,1,0,0:0:0:0:
352,96,29494,1,8,0:0:0:0:
352,96,29594,1,8,0:0:0:0:
352,96,29694,1,8,0:0:0:0:
160,96,29894,1,0,0:0:0:0:
160,96,30094,1,0,0:0:0:0:
352,96,30294,1,8,0:0:0:0:
352,96,30394,1,8,0:0:0:0:
160,96,30494,1,0,0:0:0:0:
352,96,30694,1,8,0:0:0:0:
160,96,30894,1,0,0:0:0:0:
352,96,31094,1,8,0:0:0:0:
160,96,31494,1,0,0:0:0:0:
352,96,31594,1,8,0:0:0:0:
160,96,31694,1,0,0:0:0:0:
352,96,31894,1,8,0:0:0:0:
160,96,32094,1,0,0:0:0:0:
160,96,32194,1,0,0:0:0:0:
352,288,32294,1,12,0:0:0:0:
160,96,32494,1,0,0:0:0:0:
352,96,32694,1,8,0:0:0:0:
352,96,32894,1,8,0:0:0:0:
352,96,32994,1,8,0:0:0:0:
160,96,33094,1,0,0:0:0:0:
160,96,33294,1,0,0:0:0:0:
352,96,33494,1,8,0:0:0:0:
160,96,33894,1,0,0:0:0:0:
160,96,34094,1,0,0:0:0:0:
352,96,34294,1,8,0:0:0:0:
160,96,34494,1,0,0:0:0:0:
352,96,34594,1,8,0:0:0:0:
160,96,34694,1,0,0:0:0:0:
160,96,34894,1,0,0:0:0:0:
352,96,35094,1,8,0:0:0:0:
160,96,35294,1,0,0:0:0:0:
160,96,35394,1,0,0:0:0:0:
352,288,35494,1,12,0:0:0:0:
160,96,35694,1,0,0:0:0:0:
352,96,35894,1,8,0:0:0:0:
160,96,36094,1,0,0:0:0:0:
160,96,36194,1,0,0:0:0:0:
160,96,36294,1,0,0:0:0:0:
352,96,36494,1,8,0:0:0:0:
160,96,36694,1,0,0:0:0:0:
160,96,36894,1,0,0:0:0:0:
160,96,36994,1,0,0:0:0:0:
352,288,37094,1,12,0:0:0:0:
160,96,37294,1,0,0:0:0:0:
352,96,37494,1,8,0:0:0:0:
352,96,37594,1,8,0:0:0:0:
160,96,37694,1,0,0:0:0:0:
352,96,37794,1,8,0:0:0:0:
160,96,37894,1,0,0:0:0:0:
160,96,37994,1,0,0:0:0:0:
352,96,38094,1,8,0:0:0:0:
160,96,38294,1,0,0:0:0:0:
160,96,38494,1,0,0:0:0:0:
160,96,38594,1,0,0:0:0:0:
352,288,38694,1,12,0:0:0:0:
352,96,39094,1,8,0:0:0:0:
160,96,39494,1,0,0:0:0:0:
160,96,39694,1,0,0:0:0:0:
352,96,39894,1,8,0:0:0:0:
160,96,40294,1,0,0:0:0:0:
352,96,40694,1,8,0:0:0:0:
160,96,41094,1,0,0:0:0:0:
160,96,41294,1,0,0:0:0:0:
352,96,41494,1,8,0:0:0:0:
352,96,41694,1,8,0:0:0:0:
160,96,41894,1,0,0:0:0:0:
352,96,42294,1,8,0:0:0:0:
352,96,42694,1,8,0:0:0:0:
160,96,42894,1,0,0:0:0:0:
352,96,43094,1,8,0:0:0:0:
160,96,43494,1,0,0:0:0:0:
352,96,43894,1,8,0:0:0:0:
160,96,44294,1,0,0:0:0:0:
160,96,44494,1,0,0:0:0:0:
352,96,44694,1,8,0:0:0:0:
160,96,44894,1,0,0:0:0:0:
352,96,45094,1,8,0:0:0:0:
352,96,45494,1,8,0:0:0:0:
160,96,45894,1,0,0:0:0:0:
160,96,46094,1,0,0:0:0:0:
352,96,46294,1,8,0:0:0:0:
160,96,46494,1,0,0:0:0:0:
160,96,46694,1,0,0:0:0:0:
352,96,46894,1,8,0:0:0:0:
352,96,47094,1,8,0:0:0:0:
160,96,47494,1,0,0:0:0:0:
160,96,47694,1,0,0:0:0:0:
352,96,47894,1,8,0:0:0:0:
160,96,48294,1,0,0:0:0:0:
352,96,48694,1,8,0:0:0:0:
352,96,48894,1,8,0:0:0:0:
160,96,49094,1,0,0:0:0:0:
160,96,49294,1,0,0:0:0:0:
352,96,49494,1,8,0:0:0:0:
160,96,49894,1,0,0:0:0:0:
352,96,50094,1,8,0:0:0:0:
160,96,50294,1,0,0:0:0:0:
160,96,50494,1,0,0:0:0:0:
160,96,50594,1,0,0:0:0:0:
352,96,50694,1,8,0:0:0:0:
352,96,50894,1,8,0:0:0:0:
352,96,51094,1,8,0:0:0:0:
160,96,51194,1,0,0:0:0:0:
160,96,51294,1,0,0:0:0:0:
160,96,51394,1,0,0:0:0:0:
352,288,51494,1,12,0:0:0:0:
160,96,51894,1,0,0:0:0:0:
160,96,52294,1,0,0:0:0:0:
352,96,52494,1,8,0:0:0:0:
352,96,52594,1,8,0:0:0:0:
352,96,52694,1,8,0:0:0:0:
352,96,52794,1,8,0:0:0:0:
352,96,52894,1,8,0:0:0:0:
160,288,53094,1,4,0:0:0:0:
160,96,53494,1,0,0:0:0:0:
352,96,53694,1,8,0:0:0:0:
160,96,53894,1,0,0:0:0:0:
352,96,53994,1,8,0:0:0:0:
160,96,54094,1,0,0:0:0:0:
160,96,54294,1,0,0:0:0:0:
160,96,54394,1,0,0:0:0:0:
160,96,54494,1,0,0:0:0:0:
352,288,54694,1,12,0:0:0:0:
160,96,55094,1,0,0:0:0:0:
160,96,55494,1,0,0:0:0:0:
352,96,55694,1,8,0:0:0:0:
160,288,55894,1,4,0:0:0:0:
352,288,56294,1,12,0:0:0:0:
160,96,56694,1,0,0:0:0:0:
352,96,56894,1,8,0:0:0:0:
160,96,57094,1,0,0:0:0:0:
352,96,57294,1,8,0:0:0:0:
352,96,57494,1,8,0:0:0:0:
160,96,57594,1,0,0:0:0:0:
160,96,57694,1,0,0:0:0:0:
160,96,57794,1,0,0:0:0:0:
352,288,57894,1,12,0:0:0:0:
160,96,58294,1,0,0:0:0:0:
160,96,58694,1,0,0:0:0:0:
160,96,59094,1,0,0:0:0:0:
352,288,59294,1,12,0:0:0:0:
160,96,59494,1,0,0:0:0:0:
352,96,59894,1,8,0:0:0:0:
160,96,60094,1,0,0:0:0:0:
352,96,60194,1,8,0:0:0:0:
160,96,60294,1,0,0:0:0:0:
352,96,60494,1,8,0:0:0:0:
352,96,60694,1,8,0:0:0:0:
160,96,60794,1,0,0:0:0:0:
352,96,60894,1,8,0:0:0:0:
352,288,61094,1,12,0:0:0:0:
160,96,61494,1,0,0:0:0:0:
352,288,61694,1,12,0:0:0:0:
160,96,61894,1,0,0:0:0:0:
352,288,62294,1,12,0:0:0:0:
352,96,62694,1,8,0:0:0:0:
352,96,62794,1,8,0:0:0:0:
160,96,62894,1,0,0:0:0:0:
160,96,63094,1,0,0:0:0:0:
160,96,63294,1,0,0:0:0:0:
160,96,63394,1,0,0:0:0:0:
352,96,63494,1,8,0:0:0:0:
352,96,63694,1,8,0:0:0:0:
160,96,63894,1,0,0:0:0:0:
352,96,64094,1,8,0:0:0:0:
160,96,64194,1,0,0:0:0:0:
352,96,64294,1,8,0:0:0:0:
160,96,65894,1,0,0:0:0:0:
352,96,67494,1,8,0:0:0:0:
256,192,69094,12,0,69894,0:0:0:0:
352,96,70694,5,8,0:0:0:0:
352,96,70894,1,8,0:0:0:0:
160,96,70994,1,0,0:0:0:0:
352,96,71094,1,8,0:0:0:0:
160,96,71294,1,0,0:0:0:0:
352,96,71494,1,8,0:0:0:0:
352,96,71594,1,8,0:0:0:0:
160,96,71694,1,0,0:0:0:0:
352,96,71866,1,8,0:0:0:0:
160,96,72151,1,0,0:0:0:0:
160,96,72223,1,0,0:0:0:0:
352,96,72294,1,8,0:0:0:0:
352,96,72894,1,8,0:0:0:0:
352,96,72994,1,8,0:0:0:0:
160,96,73094,1,0,0:0:0:0:
352,96,73194,1,0,0:0:0:0:
352,96,73294,1,8,0:0:0:0:
352,96,73494,1,8,0:0:0:0:
352,96,73594,1,8,0:0:0:0:
160,96,73694,1,0,0:0:0:0:
352,288,73894,1,12,0:0:0:0:
160,96,74094,1,0,0:0:0:0:
160,96,74194,1,0,0:0:0:0:
244,96,74294,1,8,0:0:0:0:
352,96,74494,1,8,0:0:0:0:
160,96,74694,1,0,0:0:0:0:
352,96,74894,1,8,0:0:0:0:
160,96,74994,1,0,0:0:0:0:
352,96,75094,1,8,0:0:0:0:
352,96,75294,1,8,0:0:0:0:
352,96,75494,1,8,0:0:0:0:
352,96,75594,1,8,0:0:0:0:
160,96,75694,1,0,0:0:0:0:
160,96,75794,1,0,0:0:0:0:
352,96,75894,1,8,0:0:0:0:
352,96,76094,1,8,0:0:0:0:
352,96,76494,1,8,0:0:0:0:
160,96,76594,1,0,0:0:0:0:
352,96,76694,1,8,0:0:0:0:
352,96,76894,1,8,0:0:0:0:
352,96,77094,1,8,0:0:0:0:
352,96,77194,1,8,0:0:0:0:
160,96,77294,1,0,0:0:0:0:
160,96,77494,1,0,0:0:0:0:
160,96,77594,1,0,0:0:0:0:
352,96,77694,1,8,0:0:0:0:
352,96,77894,1,8,0:0:0:0:
160,96,77994,1,0,0:0:0:0:
352,96,78094,1,8,0:0:0:0:
352,96,78294,1,8,0:0:0:0:
352,96,78394,1,8,0:0:0:0:
160,96,78494,1,0,0:0:0:0:
352,96,78694,1,8,0:0:0:0:
160,96,78894,1,0,0:0:0:0:
352,96,79094,1,8,0:0:0:0:
352,96,79194,1,8,0:0:0:0:
352,96,79294,1,8,0:0:0:0:
160,96,79494,1,0,0:0:0:0:
352,96,79694,1,8,0:0:0:0:
352,96,79894,1,8,0:0:0:0:
352,96,79994,1,8,0:0:0:0:
160,96,80094,1,0,0:0:0:0:
160,96,80194,1,0,0:0:0:0:
352,288,80294,1,12,0:0:0:0:
352,96,80694,1,8,0:0:0:0:
160,96,80794,1,0,0:0:0:0:
352,96,80894,1,8,0:0:0:0:
160,96,81094,1,0,0:0:0:0:
352,96,81294,1,8,0:0:0:0:
160,96,81494,1,0,0:0:0:0:
160,96,81594,1,0,0:0:0:0:
352,96,81694,1,8,0:0:0:0:
160,96,81894,1,0,0:0:0:0:
352,96,82294,1,8,0:0:0:0:
160,96,82394,1,0,0:0:0:0:
352,96,82494,1,8,0:0:0:0:
160,96,82694,1,0,0:0:0:0:
352,96,82894,1,8,0:0:0:0:
352,96,82994,1,8,0:0:0:0:
160,96,83094,1,0,0:0:0:0:
352,96,83294,1,8,0:0:0:0:
160,96,83494,1,0,0:0:0:0:
352,96,83594,1,8,0:0:0:0:
160,96,83694,1,0,0:0:0:0:
352,96,83894,1,8,0:0:0:0:
352,96,83994,1,8,0:0:0:0:
160,96,84094,1,0,0:0:0:0:
160,96,84294,1,0,0:0:0:0:
160,96,84394,1,0,0:0:0:0:
352,96,84494,1,8,0:0:0:0:
352,96,84694,1,8,0:0:0:0:
352,96,84794,1,8,0:0:0:0:
160,96,84894,1,0,0:0:0:0:
160,96,84994,1,0,0:0:0:0:
352,96,85094,1,8,0:0:0:0:
160,96,85294,1,0,0:0:0:0:
352,96,85494,1,8,0:0:0:0:
352,96,85594,1,8,0:0:0:0:
352,96,85694,1,8,0:0:0:0:
160,96,85894,1,0,0:0:0:0:
352,96,86094,1,8,0:0:0:0:
352,96,86194,1,8,0:0:0:0:
352,96,86294,1,8,0:0:0:0:
352,96,86394,1,8,0:0:0:0:
160,96,86494,1,0,0:0:0:0:
160,96,86594,1,0,0:0:0:0:
352,288,86694,1,12,0:0:0:0:
160,96,86894,1,0,0:0:0:0:
352,96,87094,1,8,0:0:0:0:
352,96,87494,1,8,0:0:0:0:
160,96,87594,1,0,0:0:0:0:
352,96,87694,1,8,0:0:0:0:
352,96,87894,1,8,0:0:0:0:
352,96,88094,1,8,0:0:0:0:
352,96,88194,1,8,0:0:0:0:
160,96,88294,1,0,0:0:0:0:
352,96,88494,1,8,0:0:0:0:
160,96,88694,1,0,0:0:0:0:
352,96,88894,1,8,0:0:0:0:
160,96,88994,1,0,0:0:0:0:
352,96,89094,1,8,0:0:0:0:
160,96,89294,1,0,0:0:0:0:
352,96,89494,1,8,0:0:0:0:
352,96,89694,1,8,0:0:0:0:
352,96,89794,1,8,0:0:0:0:
160,96,89894,1,0,0:0:0:0:
352,96,90094,1,8,0:0:0:0:
160,96,90194,1,0,0:0:0:0:
352,96,90294,1,8,0:0:0:0:
160,96,90494,1,0,0:0:0:0:
160,96,90594,1,0,0:0:0:0:
352,96,90694,1,8,0:0:0:0:
352,96,90894,1,8,0:0:0:0:
352,96,90994,1,8,0:0:0:0:
352,96,91094,1,8,0:0:0:0:
352,96,91294,1,8,0:0:0:0:
160,96,91494,1,0,0:0:0:0:
352,288,91694,1,12,0:0:0:0:
160,96,91894,1,0,0:0:0:0:
160,96,92094,1,0,0:0:0:0:
160,96,92194,1,0,0:0:0:0:
352,96,92294,1,8,0:0:0:0:
160,96,92494,1,0,0:0:0:0:
352,96,92694,1,8,0:0:0:0:
352,96,92794,1,8,0:0:0:0:
160,96,92894,1,0,0:0:0:0:
160,96,92994,1,0,0:0:0:0:
352,288,93094,1,12,0:0:0:0:
160,96,93494,1,0,0:0:0:0:
352,96,93694,1,8,0:0:0:0:
160,96,93894,1,0,0:0:0:0:
160,96,94094,1,0,0:0:0:0:
352,96,94294,1,8,0:0:0:0:
160,96,94494,1,0,0:0:0:0:
160,96,94594,1,0,0:0:0:0:
352,288,94694,1,12,0:0:0:0:
160,96,95094,1,0,0:0:0:0:
352,96,95294,1,8,0:0:0:0:
160,96,95494,1,0,0:0:0:0:
160,96,95694,1,0,0:0:0:0:
352,96,95894,1,8,0:0:0:0:
160,96,95994,1,0,0:0:0:0:
160,96,96094,1,0,0:0:0:0:
352,288,96294,1,12,0:0:0:0:
160,96,96694,1,0,0:0:0:0:
352,96,96894,1,8,0:0:0:0:
160,96,97094,1,0,0:0:0:0:
160,96,97294,1,0,0:0:0:0:
352,96,97494,1,8,0:0:0:0:
160,96,97694,1,0,0:0:0:0:
352,96,97894,1,8,0:0:0:0:
160,96,98094,1,0,0:0:0:0:
352,96,98194,1,8,0:0:0:0:
352,96,98294,1,8,0:0:0:0:
352,96,98494,1,8,0:0:0:0:
160,96,98694,1,0,0:0:0:0:
352,96,98794,1,8,0:0:0:0:
352,96,98894,1,8,0:0:0:0:
160,96,99094,1,0,0:0:0:0:
160,96,99294,1,0,0:0:0:0:
352,288,99494,1,12,0:0:0:0:
160,96,99894,1,0,0:0:0:0:
352,288,100094,1,12,0:0:0:0:
160,96,100494,1,0,0:0:0:0:
160,288,100712,1,4,0:0:0:0:
160,96,101712,1,0,0:0:0:0:
352,96,102112,1,8,0:0:0:0:
160,96,102312,1,0,0:0:0:0:
160,96,102512,1,0,0:0:0:0:
352,288,102712,1,12,0:0:0:0:
160,96,103112,1,0,0:0:0:0:
352,288,103312,1,12,0:0:0:0:
160,96,103678,1,0,0:0:0:0:
160,288,103912,1,4,0:0:0:0:
256,192,104712,12,0,105712,0:0:0:0:
160,96,105894,5,0,0:0:0:0:
352,96,106294,1,8,0:0:0:0:
352,96,106494,1,8,0:0:0:0:
352,96,107094,1,8,0:0:0:0:
352,96,107894,1,8,0:0:0:0:
352,96,108094,1,8,0:0:0:0:
352,96,108694,1,8,0:0:0:0:
160,96,109094,1,0,0:0:0:0:
352,96,109494,1,8,0:0:0:0:
352,96,109694,1,8,0:0:0:0:
352,96,110294,1,8,0:0:0:0:
352,96,111094,1,8,0:0:0:0:
352,96,111294,1,8,0:0:0:0:
352,96,111894,1,8,0:0:0:0:
160,96,112294,1,0,0:0:0:0:
352,96,112694,1,8,0:0:0:0:
352,96,112894,1,8,0:0:0:0:
352,96,113494,1,8,0:0:0:0:
352,96,114294,1,8,0:0:0:0:
352,96,114494,1,8,0:0:0:0:
352,96,115094,1,8,0:0:0:0:
160,96,115494,1,0,0:0:0:0:
352,96,115894,1,8,0:0:0:0:
352,96,116094,1,8,0:0:0:0:
352,96,116694,1,8,0:0:0:0:
352,96,117444,1,8,0:0:0:0:
352,96,117644,1,8,0:0:0:0:
160,96,118094,1,0,0:0:0:0:
160,96,118194,1,0,0:0:0:0:
352,96,118294,1,8,0:0:0:0:
352,96,118494,1,8,0:0:0:0:
160,96,118694,1,0,0:0:0:0:
160,96,119294,1,0,0:0:0:0:
160,96,119494,1,0,0:0:0:0:
352,96,119894,1,8,0:0:0:0:
160,96,120294,1,0,0:0:0:0:
160,96,120894,1,0,0:0:0:0:
160,96,121094,1,0,0:0:0:0:
352,96,121294,1,8,0:0:0:0:
352,96,121394,1,8,0:0:0:0:
352,96,121494,1,8,0:0:0:0:
160,96,121694,1,0,0:0:0:0:
352,96,121894,1,8,0:0:0:0:
160,96,122494,1,0,0:0:0:0:
160,96,122694,1,0,0:0:0:0:
352,96,122894,1,8,0:0:0:0:
160,96,122994,1,0,0:0:0:0:
352,96,123094,1,8,0:0:0:0:
160,96,123294,1,0,0:0:0:0:
160,96,123494,1,0,0:0:0:0:
352,96,123694,1,8,0:0:0:0:
160,96,123894,1,0,0:0:0:0:
352,96,124094,1,8,0:0:0:0:
160,96,124494,1,0,0:0:0:0:
352,96,124694,1,8,0:0:0:0:
160,96,124894,1,0,0:0:0:0:
160,96,124994,1,0,0:0:0:0:
352,96,125094,1,8,0:0:0:0:
352,96,125494,1,8,0:0:0:0:
160,96,125694,1,0,0:0:0:0:
160,96,125894,1,0,0:0:0:0:
352,96,126094,1,8,0:0:0:0:
352,96,126194,1,8,0:0:0:0:
352,96,126294,1,8,0:0:0:0:
352,96,126494,1,8,0:0:0:0:
160,96,126694,1,0,0:0:0:0:
352,96,126894,1,8,0:0:0:0:
352,96,127294,1,8,0:0:0:0:
352,96,127394,1,8,0:0:0:0:
160,96,127494,1,0,0:0:0:0:
160,96,127694,1,0,0:0:0:0:
352,96,127894,1,8,0:0:0:0:
160,96,128094,1,0,0:0:0:0:
352,96,128294,1,8,0:0:0:0:
352,96,128694,1,8,0:0:0:0:
160,96,128894,1,0,0:0:0:0:
352,96,128994,1,8,0:0:0:0:
160,96,129094,1,0,0:0:0:0:
160,96,129294,1,0,0:0:0:0:
352,96,129494,1,8,0:0:0:0:
352,96,129694,1,8,0:0:0:0:
352,96,129794,1,8,0:0:0:0:
160,288,129894,1,4,0:0:0:0:
160,288,130094,1,4,0:0:0:0:
352,288,130694,1,12,0:0:0:0:
352,288,130894,1,12,0:0:0:0:
352,288,131494,1,12,0:0:0:0:
160,96,131894,1,0,0:0:0:0:
352,288,132094,1,12,0:0:0:0:
160,96,132294,1,0,0:0:0:0:
160,96,132394,1,0,0:0:0:0:
160,96,132494,1,0,0:0:0:0:
352,96,132694,1,8,0:0:0:0:
352,288,132894,1,12,0:0:0:0:
160,96,133094,1,0,0:0:0:0:
352,96,133494,1,8,0:0:0:0:
160,96,133894,1,0,0:0:0:0:
352,96,134094,1,8,0:0:0:0:
160,96,134294,1,0,0:0:0:0:
160,96,134494,1,0,0:0:0:0:
160,96,134594,1,0,0:0:0:0:
352,288,134694,1,12,0:0:0:0:
160,96,135094,1,0,0:0:0:0:
352,288,135294,1,12,0:0:0:0:
160,96,135494,1,0,0:0:0:0:
352,96,135894,1,8,0:0:0:0:
352,96,136294,1,8,0:0:0:0:
160,288,136494,1,4,0:0:0:0:
352,96,136694,1,8,0:0:0:0:
352,96,137094,1,8,0:0:0:0:
160,96,137294,1,0,0:0:0:0:
352,96,137494,1,8,0:0:0:0:
352,96,137694,1,8,0:0:0:0:
352,96,137794,1,8,0:0:0:0:
160,288,137894,1,4,0:0:0:0:
160,96,138294,1,0,0:0:0:0:
352,288,138494,1,12,0:0:0:0:
160,96,138694,1,0,0:0:0:0:
160,96,139094,1,0,0:0:0:0:
352,96,139294,1,8,0:0:0:0:
352,96,139394,1,8,0:0:0:0:
160,288,139494,1,4,0:0:0:0:
160,96,139694,1,0,0:0:0:0:
352,96,139894,1,8,0:0:0:0:
352,288,140094,1,12,0:0:0:0:
160,96,140294,1,0,0:0:0:0:
352,96,140394,1,8,0:0:0:0:
160,96,140494,1,0,0:0:0:0:
352,288,140694,1,12,0:0:0:0:
160,96,140894,1,0,0:0:0:0:
160,96,140994,1,0,0:0:0:0:
352,288,141094,1,12,0:0:0:0:
352,96,141494,1,8,0:0:0:0:
160,96,141694,1,0,0:0:0:0:
352,96,141894,1,8,0:0:0:0:
352,96,141994,1,8,0:0:0:0:
160,96,142094,1,0,0:0:0:0:
352,96,142294,1,8,0:0:0:0:
352,96,142494,1,8,0:0:0:0:
160,96,142694,1,0,0:0:0:0:
160,96,142794,1,0,0:0:0:0:
160,96,142894,1,0,0:0:0:0:
352,96,143094,1,8,0:0:0:0:
160,96,143194,1,0,0:0:0:0:
160,96,143294,1,0,0:0:0:0:
352,96,143494,1,8,0:0:0:0:
160,96,143594,1,0,0:0:0:0:
352,96,143694,1,8,0:0:0:0:
352,96,143894,1,8,0:0:0:0:
352,96,143994,1,8,0:0:0:0:
160,96,144094,1,0,0:0:0:0:
160,96,144194,1,0,0:0:0:0:
352,288,144294,1,12,0:0:0:0:
352,96,144694,1,8,0:0:0:0:
160,96,144894,1,0,0:0:0:0:
160,96,145094,1,0,0:0:0:0:
352,96,145294,1,8,0:0:0:0:
352,96,145394,1,8,0:0:0:0:
160,96,145494,1,0,0:0:0:0:
352,96,145694,1,8,0:0:0:0:
352,96,145894,1,8,0:0:0:0:
352,96,145994,1,8,0:0:0:0:
160,96,146094,1,0,0:0:0:0:
160,96,146194,1,0,0:0:0:0:
352,96,146294,1,8,0:0:0:0:
160,96,146494,1,0,0:0:0:0:
352,96,146894,1,8,0:0:0:0:
160,96,146994,1,0,0:0:0:0:
352,96,147094,1,8,0:0:0:0:
160,96,147294,1,0,0:0:0:0:
352,96,147494,1,8,0:0:0:0:
352,96,147594,1,8,0:0:0:0:
160,96,147694,1,0,0:0:0:0:
352,96,147894,1,8,0:0:0:0:
160,96,148294,1,0,0:0:0:0:
352,96,148494,1,8,0:0:0:0:
160,96,148594,1,0,0:0:0:0:
352,96,148694,1,8,0:0:0:0:
160,96,148894,1,0,0:0:0:0:
160,96,149094,1,0,0:0:0:0:
160,96,149194,1,0,0:0:0:0:
352,96,149294,1,8,0:0:0:0:
160,96,149394,1,0,0:0:0:0:
352,96,149494,1,8,0:0:0:0:
352,96,149694,1,8,0:0:0:0:
160,96,149894,1,0,0:0:0:0:
352,96,150094,1,8,0:0:0:0:
160,96,150194,1,0,0:0:0:0:
352,96,150294,1,8,0:0:0:0:
352,96,150494,1,8,0:0:0:0:
352,96,150594,1,8,0:0:0:0:
160,288,150694,1,4,0:0:0:0:
352,96,151094,1,8,0:0:0:0:
352,96,151194,1,8,0:0:0:0:
160,96,151294,1,0,0:0:0:0:
160,96,151494,1,0,0:0:0:0:
352,96,151694,1,8,0:0:0:0:
352,96,151894,1,8,0:0:0:0:
160,96,151994,1,0,0:0:0:0:
352,96,152094,1,8,0:0:0:0:
160,96,152294,1,0,0:0:0:0:
352,96,152694,1,8,0:0:0:0:
160,96,152794,1,0,0:0:0:0:
352,96,152894,1,8,0:0:0:0:
160,96,153094,1,0,0:0:0:0:
160,96,153294,1,0,0:0:0:0:
352,96,153394,1,8,0:0:0:0:
160,96,153494,1,0,0:0:0:0:
352,96,153694,1,8,0:0:0:0:
352,96,153894,1,8,0:0:0:0:
352,96,153994,1,8,0:0:0:0:
160,96,154094,1,0,0:0:0:0:
352,96,154294,1,8,0:0:0:0:
160,96,154394,1,0,0:0:0:0:
352,96,154494,1,8,0:0:0:0:
160,96,154694,1,0,0:0:0:0:
160,96,154794,1,0,0:0:0:0:
352,96,154894,1,8,0:0:0:0:
352,96,155094,1,8,0:0:0:0:
352,96,155194,1,8,0:0:0:0:
352,96,155294,1,8,0:0:0:0:
160,96,155494,1,0,0:0:0:0:
352,96,155694,1,8,0:0:0:0:
160,96,155894,1,0,0:0:0:0:
352,96,156094,1,8,0:0:0:0:
352,96,156194,1,8,0:0:0:0:
160,96,156294,1,0,0:0:0:0:
160,96,156394,1,0,0:0:0:0:
352,96,156494,1,8,0:0:0:0:
352,96,156694,1,8,0:0:0:0:
352,96,156794,1,8,0:0:0:0:
352,96,156894,1,8,0:0:0:0:
352,96,156994,1,8,0:0:0:0:
160,288,157094,1,4,0:0:0:0:
160,96,157294,1,0,0:0:0:0:
352,96,157494,1,8,0:0:0:0:
352,96,157894,1,8,0:0:0:0:
160,96,158094,1,0,0:0:0:0:
352,96,158194,1,8,0:0:0:0:
160,96,158294,1,0,0:0:0:0:
160,96,158494,1,0,0:0:0:0:
352,96,158694,1,12,0:0:0:0:
352,96,158894,1,8,0:0:0:0:
352,96,158994,1,8,0:0:0:0:
160,96,159094,1,0,0:0:0:0:
160,96,159494,1,0,0:0:0:0:
160,96,159694,1,0,0:0:0:0:
160,96,159794,1,0,0:0:0:0:
352,96,159894,1,8,0:0:0:0:
352,96,160094,1,8,0:0:0:0:
352,96,160194,1,8,0:0:0:0:
160,96,160294,1,4,0:0:0:0:
160,96,160494,1,0,0:0:0:0:
352,96,160694,1,8,0:0:0:0:
352,96,160894,1,8,0:0:0:0:
352,96,160994,1,8,0:0:0:0:
160,96,161094,1,0,0:0:0:0:
160,96,161294,1,0,0:0:0:0:
352,96,161494,1,8,0:0:0:0:
352,96,161594,1,8,0:0:0:0:
352,96,161694,1,8,0:0:0:0:
160,96,161894,1,0,0:0:0:0:
352,96,162094,1,8,0:0:0:0:
160,96,162294,1,0,0:0:0:0:
352,96,162494,1,8,0:0:0:0:
160,96,162594,1,0,0:0:0:0:
352,96,162694,1,8,0:0:0:0:
160,96,162894,1,0,0:0:0:0:
352,96,163094,1,8,0:0:0:0:
352,96,163194,1,8,0:0:0:0:
160,96,163294,1,0,0:0:0:0:
160,96,163394,1,0,0:0:0:0:
352,288,163494,1,12,0:0:0:0:
160,96,163894,1,0,0:0:0:0:
352,96,164094,1,8,0:0:0:0:
160,96,164294,1,0,0:0:0:0:
160,96,164494,1,0,0:0:0:0:
352,96,164694,1,8,0:0:0:0:
160,96,164894,1,0,0:0:0:0:
160,96,164994,1,0,0:0:0:0:
352,288,165094,1,12,0:0:0:0:
160,96,165494,1,0,0:0:0:0:
352,96,165694,1,8,0:0:0:0:
160,96,165894,1,0,0:0:0:0:
160,96,166094,1,0,0:0:0:0:
352,96,166294,1,8,0:0:0:0:
160,96,166394,1,0,0:0:0:0:
160,96,166494,1,0,0:0:0:0:
352,288,166694,1,12,0:0:0:0:
160,96,167094,1,0,0:0:0:0:
352,96,167294,1,8,0:0:0:0:
160,96,167494,1,0,0:0:0:0:
160,96,167694,1,0,0:0:0:0:
352,96,167894,1,8,0:0:0:0:
160,96,168094,1,0,0:0:0:0:
352,96,168294,1,8,0:0:0:0:
160,96,168394,1,0,0:0:0:0:
160,96,168594,1,0,0:0:0:0:
352,96,168694,1,8,0:0:0:0:
160,96,168894,1,0,0:0:0:0:
352,96,168994,1,8,0:0:0:0:
352,96,169094,1,8,0:0:0:0:
160,96,169294,1,0,0:0:0:0:
160,96,169494,1,0,0:0:0:0:
160,96,169594,1,0,0:0:0:0:
352,96,169694,1,8,0:0:0:0:
160,96,169894,1,0,0:0:0:0:
160,96,171494,1,0,0:0:0:0:
352,96,173094,1,8,0:0:0:0:
352,96,174694,1,8,0:0:0:0:
160,96,176294,1,0,0:0:0:0:
352,96,177894,1,8,0:0:0:0:
160,96,179494,1,0,0:0:0:0:
352,96,181694,1,8,0:0:0:0:
160,96,181894,1,0,0:0:0:0:
160,96,182194,1,0,0:0:0:0:
160,96,182494,1,0,0:0:0:0:
352,288,182694,1,12,0:0:0:0:
352,96,183094,1,8,0:0:0:0:
352,96,183494,1,8,0:0:0:0:
160,96,183694,1,0,0:0:0:0:
352,96,183894,1,8,0:0:0:0:
160,96,184094,1,0,0:0:0:0:
160,96,184194,1,0,0:0:0:0:
352,96,184294,1,8,0:0:0:0:
352,96,184694,1,8,0:0:0:0:
352,96,185094,1,8,0:0:0:0:
160,96,185294,1,0,0:0:0:0:
160,96,185394,1,0,0:0:0:0:
352,96,185494,1,8,0:0:0:0:
160,96,185694,1,0,0:0:0:0:
352,96,185894,1,8,0:0:0:0:
352,96,186294,1,8,0:0:0:0:
352,96,186694,1,8,0:0:0:0:
160,96,186894,1,0,0:0:0:0:
352,96,187094,1,8,0:0:0:0:
160,96,187294,1,0,0:0:0:0:
160,96,187394,1,0,0:0:0:0:
352,96,187494,1,8,0:0:0:0:
352,96,187894,1,8,0:0:0:0:
352,96,188294,1,8,0:0:0:0:
352,96,188494,1,8,0:0:0:0:
352,96,188694,1,8,0:0:0:0:
352,96,188894,1,8,0:0:0:0:
160,96,189094,1,0,0:0:0:0:
352,96,190694,1,8,0:0:0:0:
160,96,191294,1,0,0:0:0:0:
160,96,191494,1,0,0:0:0:0:
352,96,192294,1,8,0:0:0:0:
160,96,193894,1,0,0:0:0:0:
160,96,194494,1,0,0:0:0:0:
352,96,194694,1,8,0:0:0:0:
160,96,194894,1,0,0:0:0:0:
160,96,195094,1,0,0:0:0:0:
352,96,195494,1,12,0:0:0:0:
160,96,195694,1,0,0:0:0:0:
160,96,195794,1,0,0:0:0:0:
352,96,195894,1,8,0:0:0:0:
160,96,196094,1,0,0:0:0:0:
352,96,196294,1,8,0:0:0:0:
352,96,196394,1,8,0:0:0:0:
160,96,196494,1,0,0:0:0:0:
352,96,196694,1,8,0:0:0:0:
160,96,196960,1,0,0:0:0:0:
160,96,197027,1,0,0:0:0:0:
352,96,197094,1,8,0:0:0:0:
352,96,197294,1,8,0:0:0:0:
256,192,201094,12,0,201694,0:0:0:0:
352,288,201894,5,12,0:0:0:0:
352,96,202094,1,8,0:0:0:0:
352,96,202194,1,8,0:0:0:0:
160,96,202294,1,0,0:0:0:0:
352,96,202494,1,8,0:0:0:0:
160,96,202694,1,0,0:0:0:0:
160,96,202894,1,0,0:0:0:0:
352,96,202994,1,8,0:0:0:0:
160,96,203094,1,0,0:0:0:0:
160,96,203294,1,0,0:0:0:0:
352,96,203494,1,8,0:0:0:0:
352,96,203594,1,8,0:0:0:0:
160,96,203694,1,0,0:0:0:0:
160,96,203794,1,0,0:0:0:0:
352,96,203894,1,8,0:0:0:0:
160,96,204094,1,0,0:0:0:0:
352,96,204494,1,8,0:0:0:0:
160,96,204594,1,0,0:0:0:0:
352,96,204694,1,8,0:0:0:0:
352,96,204894,1,8,0:0:0:0:
352,96,205094,1,8,0:0:0:0:
352,96,205194,1,8,0:0:0:0:
160,96,205294,1,0,0:0:0:0:
160,96,205494,1,0,0:0:0:0:
160,96,205594,1,0,0:0:0:0:
352,96,205694,1,8,0:0:0:0:
160,96,205894,1,0,0:0:0:0:
352,96,205994,1,8,0:0:0:0:
160,96,206094,1,0,0:0:0:0:
352,96,206294,1,8,0:0:0:0:
352,96,206394,1,8,0:0:0:0:
352,96,206494,1,8,0:0:0:0:
160,96,206694,1,0,0:0:0:0:
352,96,207094,1,8,0:0:0:0:
160,96,207294,1,0,0:0:0:0:
352,96,207394,1,8,0:0:0:0:
160,96,207494,1,0,0:0:0:0:
352,96,207694,1,8,0:0:0:0:
160,96,207894,1,0,0:0:0:0:
352,96,208094,1,8,0:0:0:0:
352,96,208194,1,8,0:0:0:0:
160,288,208294,1,4,0:0:0:0:
160,96,208694,1,0,0:0:0:0:
160,96,208794,1,0,0:0:0:0:
352,96,208894,1,8,0:0:0:0:
160,96,209094,1,0,0:0:0:0:
352,96,209294,1,8,0:0:0:0:
352,96,209494,1,8,0:0:0:0:
160,96,209594,1,0,0:0:0:0:
352,96,209694,1,8,0:0:0:0:
160,96,209894,1,0,0:0:0:0:
352,96,210094,1,8,0:0:0:0:
352,96,210194,1,8,0:0:0:0:
160,96,210294,1,0,0:0:0:0:
352,96,210494,1,8,0:0:0:0:
160,96,210694,1,0,0:0:0:0:
352,96,210894,1,8,0:0:0:0:
352,96,210994,1,8,0:0:0:0:
160,96,211094,1,0,0:0:0:0:
160,96,211294,1,0,0:0:0:0:
352,96,211494,1,8,0:0:0:0:
160,96,211594,1,0,0:0:0:0:
352,96,211694,1,8,0:0:0:0:
160,96,211894,1,0,0:0:0:0:
160,96,211994,1,0,0:0:0:0:
352,96,212094,1,8,0:0:0:0:
352,96,212294,1,8,0:0:0:0:
352,96,212394,1,8,0:0:0:0:
352,96,212494,1,8,0:0:0:0:
160,96,212694,1,0,0:0:0:0:
352,96,212794,1,8,0:0:0:0:
160,96,212894,1,0,0:0:0:0:
352,96,213094,1,8,0:0:0:0:
352,96,213294,1,8,0:0:0:0:
352,96,213394,1,8,0:0:0:0:
160,96,213494,1,0,0:0:0:0:
352,96,213594,1,8,0:0:0:0:
160,96,213694,1,0,0:0:0:0:
160,96,213894,1,0,0:0:0:0:
352,96,214094,1,8,0:0:0:0:
352,96,214194,1,8,0:0:0:0:
160,96,214294,1,0,0:0:0:0:
160,96,214394,1,0,0:0:0:0:
352,96,214494,1,8,0:0:0:0:
352,288,214694,1,4,0:0:0:0:
352,96,215094,1,8,0:0:0:0:
160,96,215294,1,0,0:0:0:0:
352,96,215394,1,8,0:0:0:0:
160,96,215494,1,0,0:0:0:0:
160,96,215694,1,0,0:0:0:0:
352,96,215894,1,8,0:0:0:0:
352,96,216094,1,8,0:0:0:0:
160,96,216294,1,0,0:0:0:0:
160,96,216394,1,0,0:0:0:0:
160,96,216494,1,0,0:0:0:0:
352,96,216694,1,8,0:0:0:0:
160,96,216894,1,0,0:0:0:0:
160,96,216994,1,0,0:0:0:0:
352,96,217094,1,8,0:0:0:0:
160,96,217294,1,0,0:0:0:0:
352,96,217494,1,8,0:0:0:0:
160,96,217594,1,0,0:0:0:0:
352,96,217694,1,8,0:0:0:0:
352,96,217794,1,8,0:0:0:0:
160,288,217894,1,4,0:0:0:0:
352,96,218094,1,8,0:0:0:0:
352,96,218294,1,8,0:0:0:0:
160,96,218394,1,0,0:0:0:0:
352,96,218494,1,8,0:0:0:0:
160,96,218694,1,0,0:0:0:0:
352,96,218894,1,8,0:0:0:0:
352,96,218994,1,8,0:0:0:0:
352,96,219094,1,8,0:0:0:0:
352,96,219294,1,8,0:0:0:0:
160,96,219494,1,0,0:0:0:0:
352,96,219694,1,8,0:0:0:0:
352,96,219794,1,8,0:0:0:0:
160,96,219894,1,0,0:0:0:0:
160,96,220094,1,0,0:0:0:0:
160,96,220194,1,0,0:0:0:0:
352,96,220294,1,8,0:0:0:0:
352,96,220394,1,8,0:0:0:0:
160,96,220494,1,0,0:0:0:0:
160,96,220694,1,0,0:0:0:0:
352,96,220790,1,8,0:0:0:0:
352,96,220887,1,8,0:0:0:0:
352,288,221081,1,12,0:0:0:0:
160,96,221481,1,0,0:0:0:0:
352,96,221681,1,8,0:0:0:0:
160,96,221881,1,0,0:0:0:0:
160,96,222081,1,0,0:0:0:0:
352,96,222281,1,8,0:0:0:0:
160,96,222481,1,0,0:0:0:0:
160,96,222581,1,0,0:0:0:0:
352,288,222681,1,12,0:0:0:0:
160,96,223081,1,0,0:0:0:0:
352,96,223281,1,8,0:0:0:0:
160,96,223481,1,0,0:0:0:0:
160,96,223581,1,0,0:0:0:0:
352,96,223681,1,8,0:0:0:0:
352,96,223781,1,8,0:0:0:0:
160,96,223881,1,0,0:0:0:0:
160,96,223981,1,0,0:0:0:0:
352,96,224081,1,8,0:0:0:0:
352,288,224281,1,12,0:0:0:0:
160,96,224681,1,0,0:0:0:0:
352,96,224881,1,8,0:0:0:0:
160,96,225081,1,0,0:0:0:0:
160,96,225281,1,0,0:0:0:0:
352,96,225481,1,8,0:0:0:0:
160,96,225681,1,0,0:0:0:0:
352,96,225781,1,8,0:0:0:0:
160,96,225881,1,0,0:0:0:0:
352,96,226081,1,8,0:0:0:0:
160,96,226281,1,0,0:0:0:0:
352,96,226481,1,8,0:0:0:0:
352,96,226581,1,8,0:0:0:0:
160,96,226681,1,0,0:0:0:0:
160,96,226781,1,0,0:0:0:0:
352,96,226881,1,8,0:0:0:0:
352,96,226981,1,8,0:0:0:0:
160,96,227081,1,0,0:0:0:0:
160,96,227181,1,0,0:0:0:0:
160,96,227281,1,8,0:0:0:0:
352,288,227481,1,4,0:0:0:0:
352,96,227881,1,8,0:0:0:0:
160,96,228081,1,0,0:0:0:0:
160,96,228281,1,0,0:0:0:0:
352,96,228381,1,8,0:0:0:0:
160,96,228481,1,0,0:0:0:0:
352,96,228681,1,8,0:0:0:0:
160,96,228881,1,0,0:0:0:0:
160,96,228981,1,0,0:0:0:0:
352,96,229081,1,8,0:0:0:0:
352,96,229481,1,8,0:0:0:0:
352,96,229581,1,8,0:0:0:0:
160,96,229681,1,0,0:0:0:0:
352,96,229881,1,8,0:0:0:0:
160,96,230081,1,0,0:0:0:0:
352,96,230281,1,8,0:0:0:0:
352,96,230381,1,8,0:0:0:0:
352,96,230481,1,8,0:0:0:0:
352,96,230581,1,8,0:0:0:0:
160,288,230681,1,4,0:0:0:0:
352,96,231081,1,8,0:0:0:0:
160,96,231281,1,0,0:0:0:0:
352,96,231381,1,8,0:0:0:0:
160,96,231481,1,0,0:0:0:0:
160,96,231681,1,0,0:0:0:0:
352,96,231881,1,8,0:0:0:0:
160,96,232281,1,0,0:0:0:0:
352,96,232381,1,8,0:0:0:0:
160,96,232481,1,0,0:0:0:0:
352,96,232681,1,8,0:0:0:0:
352,96,232881,1,8,0:0:0:0:
352,96,232981,1,8,0:0:0:0:
160,96,233081,1,0,0:0:0:0:
352,96,233181,1,8,0:0:0:0:
160,96,233281,1,0,0:0:0:0:
352,96,233481,1,8,0:0:0:0:
352,96,233681,1,8,0:0:0:0:
352,96,233781,1,8,0:0:0:0:
160,288,233881,1,4,0:0:0:0:
352,96,234281,1,8,0:0:0:0:
160,96,234381,1,0,0:0:0:0:
352,96,234481,1,8,0:0:0:0:
352,96,234681,1,8,0:0:0:0:
160,96,234881,1,0,0:0:0:0:
160,96,235081,1,0,0:0:0:0:
160,96,235181,1,0,0:0:0:0:
352,96,235281,1,8,0:0:0:0:
160,96,235481,1,0,0:0:0:0:
352,96,235681,1,8,0:0:0:0:
352,96,235781,1,8,0:0:0:0:
352,96,235881,1,8,0:0:0:0:
160,96,236081,1,0,0:0:0:0:
352,96,236281,1,8,0:0:0:0:
352,96,236481,1,8,0:0:0:0:
352,96,236581,1,8,0:0:0:0:
160,96,236681,1,0,0:0:0:0:
352,96,236881,1,8,0:0:0:0:
352,96,237081,1,8,0:0:0:0:
160,96,237181,1,0,0:0:0:0:
352,96,237281,1,8,0:0:0:0:
160,96,237481,1,0,0:0:0:0:
160,96,237581,1,0,0:0:0:0:
352,96,237681,1,8,0:0:0:0:
160,96,237881,1,0,0:0:0:0:
352,96,237981,1,8,0:0:0:0:
160,96,238081,1,0,0:0:0:0:
352,96,238281,1,8,0:0:0:0:
160,96,238481,1,0,0:0:0:0:
352,96,238581,1,8,0:0:0:0:
160,96,238681,1,0,0:0:0:0:
160,96,238881,1,0,0:0:0:0:
352,96,239081,1,8,0:0:0:0:
352,96,239181,1,8,0:0:0:0:
160,96,239281,1,0,0:0:0:0:
352,96,239481,1,8,0:0:0:0:
352,96,239581,1,8,0:0:0:0:
160,96,239681,1,0,0:0:0:0:
352,96,239781,1,8,0:0:0:0:
160,96,239881,1,0,0:0:0:0:
160,96,240081,1,0,0:0:0:0:
160,96,240181,1,0,0:0:0:0:
352,288,240281,1,12,0:0:0:0:
352,96,240481,1,8,0:0:0:0:
160,96,240681,1,0,0:0:0:0:
160,96,241081,1,0,0:0:0:0:
352,96,241281,1,8,0:0:0:0:
160,96,241381,1,0,0:0:0:0:
352,96,241481,1,8,0:0:0:0:
352,96,241681,1,8,0:0:0:0:
160,96,241881,1,4,0:0:0:0:
160,96,242081,1,0,0:0:0:0:
160,96,242181,1,0,0:0:0:0:
352,96,242281,1,8,0:0:0:0:
160,96,242481,1,0,0:0:0:0:
352,96,242681,1,8,0:0:0:0:
352,96,242781,1,8,0:0:0:0:
160,96,242881,1,0,0:0:0:0:
160,96,242981,1,0,0:0:0:0:
352,96,243081,1,8,0:0:0:0:
160,96,243281,1,0,0:0:0:0:
352,96,243481,1,8,0:0:0:0:
352,96,243681,1,8,0:0:0:0:
352,96,243781,1,8,0:0:0:0:
160,96,243881,1,0,0:0:0:0:
160,96,244081,1,0,0:0:0:0:
352,96,244281,1,8,0:0:0:0:
160,96,244481,1,0,0:0:0:0:
352,96,244581,1,8,0:0:0:0:
160,96,244681,1,0,0:0:0:0:
352,96,244881,1,8,0:0:0:0:
352,96,245081,1,8,0:0:0:0:
160,96,245281,1,0,0:0:0:0:
160,96,245381,1,0,0:0:0:0:
352,96,245481,1,8,0:0:0:0:
352,96,245881,1,8,0:0:0:0:
160,96,245981,1,0,0:0:0:0:
352,96,246081,1,8,0:0:0:0:
352,96,246281,1,8,0:0:0:0:
352,96,246381,1,8,0:0:0:0:
352,96,246481,1,8,0:0:0:0:
352,96,246581,1,8,0:0:0:0:
160,288,246681,1,4,0:0:0:0:
352,96,247081,1,8,0:0:0:0:
160,96,247281,1,0,0:0:0:0:
352,96,247481,1,8,0:0:0:0:
160,96,247581,1,8,0:0:0:0:
352,96,247681,1,0,0:0:0:0:
352,96,247881,1,8,0:0:0:0:
352,96,247981,1,0,0:0:0:0:
352,96,248081,1,0,0:0:0:0:
352,96,248181,1,0,0:0:0:0:
160,96,248281,1,8,0:0:0:0:
352,96,248681,1,8,0:0:0:0:
160,96,248881,1,0,0:0:0:0:
352,96,248981,1,8,0:0:0:0:
160,96,249081,1,0,0:0:0:0:
160,96,249281,1,0,0:0:0:0:
352,96,249481,1,8,0:0:0:0:
352,96,249681,1,8,0:0:0:0:
352,96,249781,1,8,0:0:0:0:
160,96,249881,1,0,0:0:0:0:
160,96,250081,1,0,0:0:0:0:
352,96,250281,1,8,0:0:0:0:
160,96,250481,1,0,0:0:0:0:
160,96,250581,1,0,0:0:0:0:
352,96,250681,1,8,0:0:0:0:
160,96,250881,1,0,0:0:0:0:
352,96,251081,1,8,0:0:0:0:
160,96,251281,1,0,0:0:0:0:
160,96,251381,1,0,0:0:0:0:
352,96,251481,1,8,0:0:0:0:
352,96,251581,1,8,0:0:0:0:
160,96,251681,1,0,0:0:0:0:
352,96,251881,1,8,0:0:0:0:
160,96,252081,1,0,0:0:0:0:
352,96,252181,1,8,0:0:0:0:
352,96,252281,1,8,0:0:0:0:
160,96,252481,1,0,0:0:0:0:
352,96,252681,1,8,0:0:0:0:
352,96,252781,1,8,0:0:0:0:
160,96,252881,1,0,0:0:0:0:
160,96,252981,1,0,0:0:0:0:
352,288,253081,1,12,0:0:0:0:
160,96,253481,1,0,0:0:0:0:
352,288,253681,1,12,0:0:0:0:
160,96,254081,1,0,0:0:0:0:
160,288,254318,1,4,0:0:0:0:
160,96,255284,1,0,0:0:0:0:
352,96,255484,1,8,0:0:0:0:
160,96,255684,1,0,0:0:0:0:
160,96,255884,1,0,0:0:0:0:
160,96,256084,1,0,0:0:0:0:
352,288,256284,1,12,0:0:0:0:
160,96,256684,1,0,0:0:0:0:
352,288,256884,1,12,0:0:0:0:
160,96,257284,1,0,0:0:0:0:
160,288,257502,1,4,0:0:0:0:
352,96,257796,1,8,0:0:0:0:
160,96,257894,1,0,0:0:0:0:
160,96,258104,1,0,0:0:0:0:
160,96,258286,1,0,0:0:0:0:
352,96,258386,1,8,0:0:0:0:
160,96,258586,1,0,0:0:0:0:
160,96,258686,1,0,0:0:0:0:
352,96,258886,1,8,0:0:0:0:
352,96,259086,1,8,0:0:0:0:
160,96,259286,1,0,0:0:0:0:
352,288,259481,1,12,0:0:0:0:
160,96,259881,1,0,0:0:0:0:
352,288,260081,1,12,0:0:0:0:
160,96,260481,1,0,0:0:0:0:
160,288,260681,1,4,0:0:0:0:
352,96,261281,1,8,0:0:0:0:
352,96,261381,1,8,0:0:0:0:
352,96,261481,1,8,0:0:0:0:
352,288,262681,1,12,0:0:0:0:
160,96,263081,1,0,0:0:0:0:
352,288,263281,1,12,0:0:0:0:
160,96,263681,1,0,0:0:0:0:
160,288,263881,1,4,0:0:0:0:
352,96,264081,1,8,0:0:0:0:
160,96,264281,1,0,0:0:0:0:
352,96,264581,1,8,0:0:0:0:
160,96,264681,1,0,0:0:0:0:
160,96,264881,1,0,0:0:0:0:
352,96,265081,1,8,0:0:0:0:
160,96,265881,1,0,0:0:0:0:
160,96,266681,1,0,0:0:0:0:
352,96,267481,1,8,0:0:0:0:
352,96,268281,1,8,0:0:0:0:
352,96,268681,1,8,0:0:0:0:
160,96,269081,1,0,0:0:0:0:
352,96,269481,1,8,0:0:0:0:
160,96,269881,1,0,0:0:0:0:
352,96,270681,1,8,0:0:0:0:
160,96,271281,1,0,0:0:0:0:
352,96,271481,1,8,0:0:0:0:
352,96,271881,1,8,0:0:0:0:
160,96,272281,1,0,0:0:0:0:
352,96,272681,1,8,0:0:0:0:
160,96,273081,1,0,0:0:0:0:
352,96,273881,1,8,0:0:0:0:
160,96,274481,1,0,0:0:0:0:
352,96,274681,1,8,0:0:0:0:
352,96,275081,1,8,0:0:0:0:
160,96,275481,1,0,0:0:0:0:
352,96,275881,1,8,0:0:0:0:
160,96,276281,1,0,0:0:0:0:
352,96,277081,1,8,0:0:0:0:
352,96,277881,1,8,0:0:0:0:
352,96,278281,1,8,0:0:0:0:
160,96,278481,1,8,0:0:0:0:
160,96,278681,1,0,0:0:0:0:
160,96,279481,1,0,0:0:0:0:
352,96,280281,1,8,0:0:0:0:
352,96,281081,1,8,0:0:0:0:
160,96,281481,1,8,0:0:0:0:
160,96,281881,1,0,0:0:0:0:
160,96,282681,1,0,0:0:0:0:
352,96,283481,1,8,0:0:0:0:
352,96,284281,1,8,0:0:0:0:
352,96,284681,1,8,0:0:0:0:
160,96,285081,1,0,0:0:0:0:
160,96,285481,1,8,0:0:0:0:
160,96,285881,1,0,0:0:0:0:
160,96,286281,1,0,0:0:0:0:
352,96,286681,1,8,0:0:0:0:
352,96,287481,1,8,0:0:0:0:
352,96,287881,1,8,0:0:0:0:
160,96,288281,1,0,0:0:0:0:
352,96,288681,1,8,0:0:0:0:
352,96,289081,1,8,0:0:0:0:
160,96,289481,1,0,0:0:0:0:
352,96,289881,1,8,0:0:0:0:
160,96,290281,1,0,0:0:0:0:
352,96,290681,1,8,0:0:0:0:
352,96,291081,1,8,0:0:0:0:
