osu file format v14

[General]
AudioFilename: audio.mp3
AudioLeadIn: 0
PreviewTime: 197440
Countdown: 0
SampleSet: Soft
StackLeniency: 0.5
Mode: 0
LetterboxInBreaks: 0
WidescreenStoryboard: 0

[Editor]
DistanceSpacing: 2.4
BeatDivisor: 4
GridSize: 16
TimelineZoom: 1.8

[Metadata]
Title:Ame o Matsu,
TitleUnicode:アメヲマツ、
Artist:Minami
ArtistUnicode:美波
Creator:NeKroMan4ik
Version:Affliction
Source:
Tags:japanese pop jpop j-pop female vocals amewomatsu, wo waiting for the rain
BeatmapID:2515181
BeatmapSetID:1207832

[Difficulty]
HPDrainRate:5
CircleSize:4.2
OverallDifficulty:8
ApproachRate:8.8
SliderMultiplier:1.8
SliderTickRate:1

[Events]
//Background and Video events
0,0,"minami.jpg",0,0
//Break Periods
2,109364,111735
2,170158,181129
2,197540,201311
//Storyboard Layer 0 (Background)
//Storyboard Layer 1 (Fail)
//Storyboard Layer 2 (Pass)
//Storyboard Layer 3 (Foreground)
//Storyboard Layer 4 (Overlay)
//Storyboard Sound Samples

[TimingPoints]
355,400,4,2,1,20,1,0
355,-500,4,2,1,20,0,0
13140,400.534045393858,4,2,1,30,1,0
13140,-500,4,2,1,30,0,0
24354,-111.111111111111,4,2,1,45,0,0
25957,400,4,2,1,50,1,0
25957,-76.9230769230769,4,2,1,50,0,0
26257,-76.9230769230769,4,2,1,5,0,0
26357,-100,4,2,1,50,0,0
27457,-100,4,2,1,5,0,0
27557,-100,4,2,1,50,0,0
37130,400,4,2,1,50,1,0
38730,405.405405405405,4,2,1,40,1,0
38730,-111.111111111111,4,2,1,40,0,0
40351,400,4,2,1,40,1,0
40351,-111.111111111111,4,2,1,40,0,0
40651,-111.111111111111,4,2,1,5,0,0
40751,-111.111111111111,4,2,1,40,0,0
45051,-111.111111111111,4,2,1,5,0,0
45151,-111.111111111111,4,2,1,40,0,0
47051,-111.111111111111,4,2,1,5,0,0
47151,-111.111111111111,4,2,1,40,0,0
48051,-111.111111111111,4,2,1,5,0,0
48151,-111.111111111111,4,2,1,40,0,0
48251,-111.111111111111,4,2,1,5,0,0
48351,-111.111111111111,4,2,1,40,0,0
51551,-117.647058823529,4,2,1,40,0,0
53151,-105.263157894737,4,2,1,40,0,0
53751,-117.647058823529,4,2,1,40,0,0
54751,-105.263157894737,4,2,1,40,0,0
55951,-105.263157894737,4,2,1,40,0,0
56251,-105.263157894737,4,2,1,5,0,0
56351,-83.3333333333333,4,2,1,40,0,0
56651,-83.3333333333333,4,2,1,5,0,0
56751,-117.647058823529,4,2,1,40,0,0
57951,-105.263157894737,4,2,1,40,0,0
59651,-105.263157894737,4,2,1,5,0,0
59751,-117.64705882353,4,2,1,40,0,0
59851,-117.64705882353,4,2,1,5,0,0
59951,-90.9090909090909,4,2,1,40,0,0
61151,-90.9090909090909,4,2,1,40,0,0
61451,-90.9090909090909,4,2,1,5,0,0
61551,-117.647058823529,4,2,1,40,0,0
61651,-117.647058823529,4,2,1,5,0,0
61751,-83.3333333333333,4,2,1,40,0,0
61851,-83.3333333333333,4,2,1,5,0,0
61951,-100,4,2,1,40,0,0
62251,-100,4,2,1,5,0,0
62351,-90.9090909090909,4,2,1,40,0,0
62651,-90.9090909090909,4,2,1,5,0,0
62751,-117.647058823529,4,2,1,40,0,0
64351,-250.000000000001,4,2,1,30,0,0
70764,400,4,2,1,50,1,0
70764,-111.111111111111,4,2,1,50,0,0
71928,400,4,2,1,50,1,0
71928,-111.111111111111,4,2,1,50,0,0
72336,400,4,2,1,50,1,0
72336,-111.111111111111,4,2,1,50,0,0
73936,-90.9090909090909,4,2,1,60,0,1
74236,-90.9090909090909,4,2,1,5,0,1
74336,-90.9090909090909,4,2,1,60,0,1
88436,-90.9090909090909,4,2,1,5,0,1
88536,-90.9090909090909,4,2,1,60,0,1
88636,-90.9090909090909,4,2,1,5,0,1
88736,-90.9090909090909,4,2,1,60,0,1
93136,-76.9230769230769,4,2,1,65,0,1
94836,-76.9230769230769,4,2,1,5,0,1
94936,-76.9230769230769,4,2,1,65,0,1
95436,-76.9230769230769,4,2,1,5,0,1
95536,-76.9230769230769,4,2,1,65,0,1
96036,-76.9230769230769,4,2,1,5,0,1
96136,-76.9230769230769,4,2,1,65,0,1
99536,-83.3333333333333,4,2,1,55,0,0
99836,-83.3333333333333,4,2,1,5,0,0
99936,-83.3333333333333,4,2,1,50,0,0
100136,-90.9090909090909,4,2,1,50,0,0
100436,-90.9090909090909,4,2,1,5,0,0
100536,-90.9090909090909,4,2,1,45,0,0
100736,-166.666666666667,4,2,1,45,0,0
101966,400,4,2,1,45,1,0
102764,400,4,2,1,55,1,0
102764,-83.3333333333333,4,2,1,55,0,0
103064,-83.3333333333333,4,2,1,5,0,0
103164,-83.3333333333333,4,2,1,55,0,0
103364,-90.9090909090909,4,2,1,50,0,0
103664,-90.9090909090909,4,2,1,5,0,0
103764,-90.9090909090909,4,2,1,50,0,0
103964,-200,4,2,1,45,0,0
105964,-200,4,2,1,30,0,0
109164,-200,4,2,1,5,0,0
112364,-500,4,2,1,30,0,0
113964,389.61038961039,4,2,1,30,1,0
115550,400,4,2,1,15,1,0
115550,-666.666666666667,4,2,1,15,0,0
118075,545.454545454546,4,2,1,30,1,0
118347,750,4,2,1,30,1,0
118760,400,4,2,1,40,1,0
118760,-166.666666666667,4,2,1,40,0,0
119944,400,4,2,1,40,1,0
119944,-166.666666666667,4,2,1,40,0,0
120347,400,4,2,1,40,1,0
120347,-166.666666666667,4,2,1,40,0,0
128347,-142.857142857143,4,2,1,40,0,0
128647,-142.857142857143,4,2,1,5,0,0
128747,-125,4,2,1,45,0,0
129047,-125,4,2,1,5,0,0
129147,-111.111111111111,4,2,1,50,0,0
129447,-111.111111111111,4,2,1,5,0,0
129547,-100,4,2,1,50,0,0
129847,-100,4,2,1,5,0,0
129947,-100,4,2,1,55,0,0
131547,-90.9090909090908,4,2,1,50,0,0
131847,-90.9090909090908,4,2,1,5,0,0
131947,-90.9090909090908,4,2,1,50,0,0
132447,-90.9090909090908,4,2,1,5,0,0
132547,-90.9090909090908,4,2,1,50,0,0
136341,-105.263157894737,4,2,1,50,0,0
137941,-105.263157894737,4,2,1,55,0,0
139547,-95.2380952380954,4,2,1,55,0,0
139847,-95.2380952380954,4,2,1,5,0,0
139947,-95.2380952380954,4,2,1,55,0,0
140647,-95.2380952380954,4,2,1,5,0,0
140747,-95.2380952380954,4,2,1,55,0,0
141147,-95.2380952380954,4,2,1,60,0,0
142747,-105.263157894737,4,2,1,50,0,0
144347,-90.9090909090909,4,2,1,60,0,1
144647,-90.9090909090909,4,2,1,5,0,1
144747,-90.9090909090909,4,2,1,60,0,1
151047,-90.9090909090909,4,2,1,5,0,1
151147,-90.9090909090909,4,2,1,60,0,1
163547,-76.9230769230769,4,2,1,65,0,1
165137,400,4,2,1,65,1,1
165137,-76.9230769230769,4,2,1,65,0,1
165237,-76.9230769230769,4,2,1,5,0,1
165337,-76.9230769230769,4,2,1,65,0,1
165837,-76.9230769230769,4,2,1,5,0,1
165937,-76.9230769230769,4,2,1,65,0,1
166437,-76.9230769230769,4,2,1,5,0,1
166537,-76.9230769230769,4,2,1,65,0,1
169958,400,4,2,1,5,1,0
181758,-166.666666666667,4,2,1,35,0,0
182758,-125,4,2,1,50,0,0
183940,400,4,2,1,50,1,0
184340,400,4,2,1,50,1,0
184340,-125,4,2,1,50,0,0
189140,-250.000000000001,4,2,1,30,0,0
190540,-250.000000000001,4,2,1,5,0,0
190740,-250.000000000001,4,2,1,30,0,0
193740,-250.000000000001,4,2,1,5,0,0
193940,-250.000000000001,4,2,1,30,0,0
195540,-117.647058823529,4,2,1,50,0,0
201940,-100,4,2,1,50,0,0
208340,-100,4,2,1,55,0,0
211540,-100,4,2,1,60,0,0
213540,-100,4,2,1,50,0,0
214740,-90.9090909090909,4,2,1,60,0,1
221130,400,4,2,1,65,1,0
221130,-76.9230769230769,4,2,1,65,0,1
222830,-76.9230769230769,4,2,1,5,0,1
222930,-76.9230769230769,4,2,1,65,0,1
227530,-90.9090909090909,4,2,1,60,0,0
229030,-90.9090909090909,4,2,1,5,0,0
229130,-90.9090909090909,4,2,1,60,0,0
230743,400,4,2,1,60,1,0
230743,-90.9090909090909,4,2,1,60,0,0
232243,-90.9090909090909,4,2,1,5,0,0
232343,-90.9090909090909,4,2,1,60,0,0
234243,-90.9090909090909,4,2,1,5,0,0
234343,-90.9090909090909,4,2,1,60,0,0
240343,-76.9230769230769,4,2,1,70,0,1
245243,-76.9230769230769,4,2,1,5,0,1
245343,-76.9230769230769,4,2,1,70,0,1
245643,-76.9230769230769,4,2,1,5,0,1
245743,-76.9230769230769,4,2,1,70,0,1
253122,400,4,2,1,55,1,0
253122,-83.3333333333333,4,2,1,55,0,0
253422,-83.3333333333333,4,2,1,5,0,0
253522,-83.3333333333333,4,2,1,55,0,0
253746,400,4,2,1,50,1,0
253746,-90.9090909090909,4,2,1,50,0,0
254046,-90.9090909090909,4,2,1,5,0,0
254146,-90.9090909090909,4,2,1,50,0,0
254354,387.096774193548,4,2,1,45,1,0
254354,-166.666666666667,4,2,1,45,0,0
254741,400,4,2,1,45,1,0
256341,-83.3333333333333,4,2,1,55,0,0
256641,-83.3333333333333,4,2,1,5,0,0
256741,-83.3333333333333,4,2,1,55,0,0
256968,400,4,2,1,50,1,0
256968,-90.9090909090909,4,2,1,50,0,0
257268,-90.9090909090909,4,2,1,5,0,0
257368,-90.9090909090909,4,2,1,50,0,0
257569,400,4,2,1,45,1,0
257569,-200,4,2,1,45,0,0
257969,400,4,2,1,45,1,0
259532,400,4,2,1,20,1,0
259532,-83.3333333333333,4,2,1,55,0,0
259832,-83.3333333333333,4,2,1,5,0,0
259932,-83.3333333333333,4,2,1,55,0,0
260140,400,4,2,1,50,1,0
260140,-90.9090909090909,4,2,1,50,0,0
260440,-90.9090909090909,4,2,1,5,0,0
260540,-90.9090909090909,4,2,1,50,0,0
260736,400,4,2,1,45,1,0
260736,-166.666666666667,4,2,1,45,0,0
261140,400,4,2,1,45,1,0
261140,-166.666666666667,4,2,1,45,0,0
262740,-83.3333333333333,4,2,1,55,0,0
263040,-83.3333333333333,4,2,1,5,0,0
263140,-83.3333333333333,4,2,1,55,0,0
263364,400,4,2,1,50,1,0
263364,-90.9090909090909,4,2,1,50,0,0
263664,-90.9090909090909,4,2,1,5,0,0
263764,-90.9090909090909,4,2,1,50,0,0
263950,400,4,2,1,45,1,0
264350,400,4,2,1,45,1,0
264350,-166.666666666667,4,2,1,45,0,0
265950,-500,4,2,1,25,0,0
272350,-500,4,2,1,20,0,0
278750,-500,4,2,1,20,0,0
281750,-500,4,2,1,5,0,0
281950,-500,4,2,1,20,0,0
284950,-500,4,2,1,5,0,0
285150,-666.666666666667,4,2,1,15,0,0
288150,-666.666666666667,4,2,1,5,0,0
288350,-1000,4,2,1,10,0,0
291550,-1000,4,2,1,5,0,0

[Colours]
Combo1 : 176,179,208
Combo2 : 235,119,95
Combo3 : 251,202,183
Combo4 : 97,92,122

[HitObjects]
134,34,355,6,0,L|142:73,1,36,2|0,0:0|0:0,0:0:0:0:
200,121,1155,2,0,L|192:160,1,36,2|0,0:0|0:0,0:0:0:0:
124,227,1955,2,0,P|105:230|85:235,1,36,2|0,0:0|0:0,0:0:0:0:
35,289,2755,2,0,P|18:284|0:282,1,36,2|0,0:0|0:0,0:0:0:0:
378,34,3555,6,0,L|370:73,1,36,2|0,0:0|0:0,0:0:0:0:
312,121,4355,2,0,L|320:160,1,36,2|0,0:0|0:0,0:0:0:0:
388,227,5155,2,0,P|407:230|427:235,1,36,2|0,0:0|0:0,0:0:0:0:
477,289,5955,2,0,P|495:284|512:282,1,36,2|0,0:0|0:0,0:0:0:0:
255,383,6755,5,2,0:0:0:0:
255,383,7555,2,0,L|248:348,1,36,2|0,0:0|0:0,0:0:0:0:
192,289,8355,2,0,L|199:254,1,36,2|0,0:0|0:0,0:0:0:0:
256,192,9155,1,2,0:0:0:0:
257,1,9955,5,2,0:0:0:0:
257,1,10755,2,0,L|264:36,1,36,2|0,0:0|0:0,0:0:0:0:
320,95,11555,2,0,L|313:130,1,36,2|0,0:0|0:0,0:0:0:0:
256,192,12355,1,2,0:0:0:0:
152,313,13140,5,2,1:2:0:0:
1,369,13540,1,8,0:1:0:0:
1,369,13740,1,8,1:0:0:0:
152,313,14341,1,8,0:1:0:0:
348,317,15142,5,8,0:1:0:0:
348,317,15342,1,8,0:1:0:0:
499,373,15943,1,8,0:1:0:0:
360,71,16344,5,2,1:2:0:0:
511,15,16744,1,8,0:1:0:0:
511,15,16945,1,8,1:0:0:0:
360,71,17545,1,8,0:1:0:0:
164,67,18346,5,8,0:1:0:0:
164,67,18547,1,8,0:1:0:0:
13,11,19148,1,8,0:1:0:0:
82,307,19548,6,0,L|90:345,3,36,2|8|2|2,1:2|0:1|0:0|0:0,0:0:0:0:
176,230,21150,5,2,1:2:0:0:
176,230,21551,2,0,L|140:237,2,36,8|2|8,0:1|0:0|0:1,0:0:0:0:
284,291,22752,6,0,L|319:298,3,36,2|8|2|8,1:2|0:1|0:0|0:1,0:0:0:0:
104,110,24354,5,8,0:0:0:0:
104,110,24455,1,8,0:0:0:0:
104,110,24555,2,0,L|114:154,1,40.4999987640381,8|0,0:3|0:0,0:0:0:0:
63,217,24755,1,8,0:0:0:0:
186,296,24955,5,8,0:0:0:0:
192,302,25055,2,0,P|169:308|142:321,1,40.4999987640381,8|0,0:3|0:0,0:0:0:0:
265,209,25256,5,8,0:0:0:0:
271,203,25356,2,0,P|248:197|221:184,1,40.4999987640381,8|0,0:3|0:0,0:0:0:0:
344,305,25556,5,8,0:0:0:0:
334,300,25656,1,8,0:3:0:0:
325,297,25756,2,0,P|331:319|333:349,1,40.4999987640381,4|0,0:3|0:0,0:0:0:0:
382,191,25957,6,0,B|436:181|491:167|491:167|525:191|508:239,1,175.499991966248,4|0,1:0|0:0,0:0:0:0:
502,236,26357,6,0,P|470:204|483:146,1,90,10|0,0:0|3:0,0:0:0:0:
319,32,26757,1,2,1:2:0:0:
388,1,26957,1,0,1:0:0:0:
289,168,27157,2,0,B|226:156|226:156|221:150|221:150|141:135,1,135,10|0,0:0|0:0,0:0:0:0:
135,117,27557,6,0,B|93:87|93:39|93:39|73:86|11:97,2,180,2|10|2,1:2|0:0|1:2,0:0:0:0:
103,0,28557,1,0,1:2:0:0:
65,195,28757,2,0,L|43:309,1,90,10|8,0:0|0:0,0:0:0:0:
95,345,29057,1,8,0:0:0:0:
103,352,29157,6,0,P|146:339|190:331,1,90,6|0,1:2|0:0,0:0:0:0:
417,282,29557,1,10,0:0:0:0:
334,206,29757,2,0,L|312:384,1,180,2|0,0:0|1:0,0:0:0:0:
130,194,30357,2,0,P|167:181|212:158,1,90,10|2,0:0|0:0,0:0:0:0:
221,147,30657,1,2,0:0:0:0:
229,137,30757,5,2,1:2:0:0:
451,57,30957,1,0,1:0:0:0:
379,0,31157,2,0,L|360:111,1,90,10|0,0:0|0:0,0:0:0:0:
501,269,31557,5,0,1:0:0:0:
501,269,31657,1,8,0:0:0:0:
501,269,31757,2,0,P|481:257|460:250,1,45,2|0,1:2|0:0,0:0:0:0:
373,189,31957,2,0,P|351:196|332:207,1,45,10|0,0:0|0:0,0:0:0:0:
237,305,32157,1,8,0:0:0:0:
237,305,32257,1,8,0:0:0:0:
237,305,32357,6,0,P|186:318|127:338,1,90,4|0,1:0|0:0,0:0:0:0:
0,150,32757,2,0,P|42:163|66:206,1,90,10|2,0:0|0:0,0:0:0:0:
236,76,33157,1,2,1:2:0:0:
165,43,33357,1,0,1:0:0:0:
261,214,33557,2,0,P|308:199|372:187,1,90,8|0,0:0|0:0,0:0:0:0:
496,88,33957,6,0,B|512:33|487:-2|487:-2|445:2|412:48,2,180,2|10|2,1:2|0:0|1:2,0:0:0:0:
366,207,34957,1,0,1:2:0:0:
477,357,35157,2,0,P|510:327|507:271,1,90,10|8,0:0|0:0,0:0:0:0:
467,217,35457,1,8,0:0:0:0:
477,207,35557,5,4,1:0:0:0:
404,172,35757,1,2,0:0:0:0:
290,304,35957,5,10,0:0:0:0:
218,328,36157,1,2,0:0:0:0:
111,240,36357,5,2,1:2:0:0:
257,123,36557,1,14,0:0:0:0:
65,57,36757,1,2,1:2:0:0:
230,232,36957,1,0,1:0:0:0:
230,232,37057,1,0,1:0:0:0:
230,232,37130,6,0,L|284:220,1,45,6|0,1:2|0:0,0:0:0:0:
367,285,37330,2,0,L|421:297,1,45,2|0,1:2|0:0,0:0:0:0:
512,166,37530,5,10,0:0:0:0:
504,174,37630,2,0,P|474:185|451:204,1,45,8|8,0:0|0:0,0:0:0:0:
385,112,37830,1,8,0:2:0:0:
375,119,37931,2,0,P|356:108|335:101,1,45,6|8,1:2|0:0,0:0:0:0:
247,29,38130,6,0,P|225:35|206:47,1,45,8|8,0:3|0:3,0:0:0:0:
127,134,38330,1,10,0:0:0:0:
122,140,38430,1,8,0:3:0:0:
118,146,38530,2,0,P|99:133|77:127,1,45,8|8,0:3|0:3,0:0:0:0:
155,239,38730,6,0,B|65:261|105:315|8:344,1,161.999995056153,4|8,1:0|0:0,0:0:0:0:
216,384,39338,2,0,P|244:346|231:291,1,80.9999975280763,2|0,0:0|1:2,0:0:0:0:
275,168,39743,1,2,1:2:0:0:
341,208,39946,1,10,0:0:0:0:
512,140,40148,1,2,0:0:0:0:
442,75,40351,6,0,P|432:136|422:214,1,121.499996292114,2|0,1:2|0:0,0:0:0:0:
434,208,40751,1,10,0:0:0:0:
308,356,40951,2,0,P|292:323|311:276,1,80.9999975280763,2|2,0:0|1:2,0:0:0:0:
236,205,41351,2,0,L|149:228,1,80.9999975280763,0|8,1:0|0:0,0:0:0:0:
4,129,41751,1,2,0:0:0:0:
48,7,41951,6,0,B|102:24|102:24|110:76|126:135,1,161.999995056153,2|8,1:2|0:0,0:0:0:0:
199,208,42551,2,0,B|294:230|294:230|316:265|281:301,1,161.999995056153,2|0,0:0|1:0,0:0:0:0:
402,384,43151,2,0,L|421:284,1,80.9999975280763,8|0,0:0|0:0,0:0:0:0:
494,171,43551,5,2,1:2:0:0:
494,171,43951,2,0,L|407:190,1,80.9999975280763,8|0,0:0|0:0,0:0:0:0:
328,124,44351,2,0,P|287:117|241:104,1,80.9999975280763,2|0,1:2|1:0,0:0:0:0:
213,263,44751,2,0,P|153:274|95:293,1,121.499996292114,8|0,0:0|0:0,0:0:0:0:
70,320,45151,5,2,1:2:0:0:
70,320,45551,5,10,0:0:0:0:
1,278,45751,1,2,0:0:0:0:
119,175,45951,5,2,3:2:0:0:
191,140,46151,1,2,0:0:0:0:
120,28,46351,5,10,0:0:0:0:
19,0,46551,1,2,1:2:0:0:
0,180,46751,6,0,P|49:159|139:151,1,121.499996292114,2|0,1:2|0:0,0:0:0:0:
133,162,47151,1,10,0:0:0:0:
286,233,47351,1,2,0:0:0:0:
342,175,47551,2,0,B|359:136|359:136|345:99,1,80.9999975280763,2|0,3:2|0:0,0:0:0:0:
202,264,47951,6,0,P|187:285|189:328,1,40.4999987640381,10|0,0:0|0:0,0:0:0:0:
292,349,48151,2,0,P|274:330|268:287,1,40.4999987640381,2|0,0:0|0:0,0:0:0:0:
371,261,48351,5,2,1:2:0:0:
371,261,48751,2,0,P|408:283|468:256,1,80.9999975280763,10|0,0:0|0:0,0:0:0:0:
512,144,49151,2,0,L|424:159,1,80.9999975280763,2|0,1:2|1:0,0:0:0:0:
258,176,49551,1,10,0:0:0:0:
310,120,49751,1,0,0:0:0:0:
232,0,49951,5,2,1:2:0:0:
78,139,50151,1,12,0:0:0:0:
164,195,50351,2,0,P|175:144|180:102,1,80.9999975280763,2|2,1:2|0:0,0:0:0:0:
188,106,50651,1,0,1:0:0:0:
195,97,50751,1,12,0:0:0:0:
12,221,50951,2,0,P|16:248|26:280,1,40.4999987640381,10|8,0:0|0:0,0:0:0:0:
81,365,51151,5,8,0:3:0:0:
94,327,51251,1,8,0:3:0:0:
127,304,51351,1,8,0:3:0:0:
167,302,51451,1,8,0:3:0:0:
200,323,51551,6,0,P|243:331|287:343,1,76.5000014591217,4|0,1:0|0:0,0:0:0:0:
379,307,51951,1,2,1:2:0:0:
434,359,52151,1,2,0:0:0:0:
512,310,52351,1,2,1:2:0:0:
456,211,52551,6,0,P|450:191|446:159,1,38.2500007295609,8|8,0:0|0:0,0:0:0:0:
377,121,52751,2,0,P|383:101|387:69,1,38.2500007295609,8|8,0:0|0:0,0:0:0:0:
454,32,52951,1,8,0:0:0:0:
248,0,53151,6,0,L|278:173,1,170.999995433807,4|0,1:0|1:0,0:0:0:0:
220,270,53751,5,8,0:3:0:0:
217,281,53851,1,8,0:3:0:0:
213,292,53951,2,0,L|200:345,1,38.2500007295609,0|0,1:0|1:0,0:0:0:0:
312,384,54151,2,0,P|306:367|302:346,1,38.2500007295609,8|0,0:3|0:0,0:0:0:0:
366,282,54351,5,8,0:3:0:0:
374,273,54451,1,8,0:3:0:0:
381,264,54551,2,0,P|386:247|390:226,1,38.2500007295609,8|8,0:3|0:3,0:0:0:0:
340,133,54751,6,0,B|444:106|444:106|474:130|464:173,2,170.999995433807,4|2|0,1:0|1:2|1:0,0:0:0:0:
157,254,55751,1,8,0:0:0:0:
190,174,55951,6,0,P|239:215|224:299,1,128.249996575356,6|0,1:2|0:0,0:0:0:0:
233,291,56351,6,0,P|245:208|260:110,1,161.999995056153,4|0,1:0|0:0,0:0:0:0:
272,115,56751,5,2,1:2:0:0:
356,70,56951,1,8,0:3:0:0:
192,33,57151,5,2,1:2:0:0:
405,149,57351,1,8,0:0:0:0:
241,258,57551,5,8,0:3:0:0:
238,269,57651,1,8,0:3:0:0:
236,280,57751,1,8,0:3:0:0:
233,291,57851,1,8,0:3:0:0:
231,302,57951,6,0,B|137:317|168:368|65:380,1,170.999995433807,4|0,1:0|1:0,0:0:0:0:
12,335,58551,1,2,0:0:0:0:
110,210,58751,5,2,1:2:0:0:
18,143,58951,1,2,0:0:0:0:
122,32,59151,1,2,1:2:0:0:
182,92,59351,6,0,P|244:112|317:128,1,128.249996575356,12|0,0:0|0:0,0:0:0:0:
332,112,59751,6,0,P|359:101|395:101,1,38.2500007295609,2|0,0:0|0:0,0:0:0:0:
452,163,59951,6,0,P|429:264|424:298,1,99.0000030212403,12|2,0:0|0:0,0:0:0:0:
409,292,60251,1,8,0:0:0:0:
409,292,60351,5,8,0:0:0:0:
310,354,60551,1,8,0:3:0:0:
199,286,60751,1,8,0:0:0:0:
184,280,60851,1,8,0:3:0:0:
170,275,60951,1,8,0:3:0:0:
298,203,61151,6,0,B|329:152|326:103|326:103|302:120|280:133,1,148.50000453186,14|0,0:0|0:0,0:0:0:0:
272,136,61551,6,0,P|246:125|207:122,1,38.2500007295609,2|0,1:2|0:0,0:0:0:0:
144,53,61751,6,0,P|118:64|75:69,1,53.9999983520508,12|0,0:0|0:0,0:0:0:0:
14,44,61951,6,0,P|59:80|64:168,1,135,4|0,1:0|0:0,0:0:0:0:
13,210,62351,6,0,B|50:193|50:193|109:238|109:238|166:220,1,148.50000453186,12|0,0:0|0:0,0:0:0:0:
215,173,62751,5,8,0:0:0:0:
220,179,62851,1,8,0:0:0:0:
226,185,62951,2,0,L|282:201,1,38.2500007295609,8|8,0:3|0:3,0:0:0:0:
322,265,63151,1,8,0:0:0:0:
464,340,63351,6,0,L|500:329,1,38.2500007295609,8|8,0:3|0:3,0:0:0:0:
512,313,63551,5,8,1:2:0:0:
448,213,63751,1,8,0:3:0:0:
505,133,63951,1,8,0:3:0:0:
458,74,64151,1,8,0:3:0:0:
470,59,64351,6,0,B|357:67|217:124|90:266,1,432,2|0,1:2|0:0,0:0:0:0:
97,257,67551,6,0,B|117:143|214:91|214:91|218:88|218:88|219:92|219:92|285:176|264:299,1,432,2|0,0:0|0:0,0:0:0:0:
474,115,70764,6,0,P|435:126|397:140,1,80.9999975280763,4|2,1:0|0:0,0:0:0:0:
320,79,71164,2,0,L|337:0,1,80.9999975280763,10|2,0:0|0:0,0:0:0:0:
163,64,71564,1,10,0:0:0:0:
224,113,71764,1,2,0:0:0:0:
186,196,71928,2,0,P|177:240|169:275,1,80.9999975280763,10|0,0:0|0:0,0:0:0:0:
147,298,72194,6,0,L|154:330,1,26.9999991760254,0|0,1:0|1:0,0:0:0:0:
161,335,72336,1,0,0:0:0:0:
335,129,72936,5,8,0:0:0:0:
339,140,73036,1,8,0:0:0:0:
343,151,73136,1,8,0:0:0:0:
347,163,73236,1,8,0:0:0:0:
351,174,73336,2,0,L|399:190,1,40.4999987640381,8|0,0:0|0:0,0:0:0:0:
469,293,73536,5,8,0:3:0:0:
428,288,73636,1,8,0:3:0:0:
394,308,73736,1,4,0:3:0:0:
379,345,73836,1,4,0:3:0:0:
386,356,73936,6,0,B|288:348|335:305|211:302,1,148.50000453186,4|0,1:0|0:0,0:0:0:0:
231,318,74336,2,0,B|207:275|207:275|233:223,1,99.0000030212403,10|2,0:0|0:0,0:0:0:0:
407,90,74736,2,0,L|428:197,1,99.0000030212403,0|2,1:0|1:2,0:0:0:0:
222,51,75136,1,10,0:0:0:0:
291,17,75336,1,2,0:0:0:0:
133,160,75536,6,0,P|85:146|36:139,1,99.0000030212403,2|0,1:2|0:0,0:0:0:0:
139,330,75936,1,10,0:0:0:0:
73,384,76136,2,0,P|46:346|64:291,1,99.0000030212403,2|0,0:0|1:0,0:0:0:0:
205,107,76536,5,2,1:2:0:0:
32,168,76736,1,10,0:0:0:0:
204,249,76936,1,2,0:0:0:0:
90,54,77136,5,2,1:2:0:0:
157,17,77336,1,2,0:0:0:0:
303,138,77536,5,10,0:0:0:0:
370,175,77736,1,2,0:0:0:0:
214,241,77936,5,2,1:2:0:0:
346,62,78136,1,2,1:2:0:0:
391,287,78336,5,10,0:0:0:0:
232,104,78536,1,2,0:0:0:0:
93,331,78736,6,0,P|57:293|73:229,1,99.0000030212403,2|0,1:2|1:0,0:0:0:0:
246,92,79136,1,10,0:0:0:0:
162,0,79336,2,0,P|153:51|142:105,1,99.0000030212403,2|0,0:0|1:2,0:0:0:0:
59,249,79736,1,2,1:2:0:0:
122,294,79936,1,10,0:0:0:0:
257,257,80136,1,8,0:0:0:0:
265,253,80236,1,8,0:0:0:0:
272,249,80336,5,4,1:0:0:0:
512,69,80736,1,10,0:0:0:0:
435,0,80936,2,0,P|422:49|413:98,1,99.0000030212403,2|0,0:0|1:0,0:0:0:0:
264,172,81336,2,0,P|277:220|286:269,1,99.0000030212403,2|8,1:2|0:0,0:0:0:0:
352,331,81736,1,2,0:0:0:0:
480,272,81936,5,2,1:2:0:0:
258,64,82336,1,10,0:0:0:0:
181,0,82536,2,0,L|163:100,1,99.0000030212403,2|0,0:0|1:0,0:0:0:0:
99,162,82936,1,2,1:2:0:0:
200,286,83136,6,0,P|231:272|264:262,1,49.5000015106202,10|8,0:0|0:0,0:0:0:0:
326,211,83336,2,0,P|357:225|390:235,1,49.5000015106202,10|8,0:0|0:0,0:0:0:0:
457,285,83536,5,4,1:0:0:0:
512,228,83736,1,2,0:0:0:0:
418,83,83936,5,10,0:0:0:0:
349,48,84136,1,2,0:0:0:0:
251,156,84336,1,2,1:2:0:0:
69,42,84536,5,14,0:0:0:0:
115,104,84736,1,2,1:2:0:0:
76,251,84936,1,0,1:0:0:0:
70,259,85036,1,0,1:0:0:0:
64,268,85136,5,14,0:0:0:0:
0,309,85336,1,2,1:2:0:0:
205,225,85536,5,8,0:0:0:0:
211,233,85636,1,8,0:0:0:0:
217,240,85736,2,0,P|224:273|238:317,1,49.5000015106202,14|8,0:0|0:0,0:0:0:0:
292,363,85936,1,0,1:0:0:0:
465,258,86136,5,10,0:0:0:0:
465,258,86236,1,8,0:0:0:0:
465,258,86336,2,0,P|475:229|495:189,1,49.5000015106202,14|8,0:0|0:0,0:0:0:0:
368,97,86536,2,0,P|377:119|385:143,1,49.5000015106202,10|8,0:0|0:0,0:0:0:0:
347,245,86736,5,4,1:0:0:0:
491,112,86936,1,2,0:0:0:0:
303,0,87136,2,0,P|265:46|270:93,1,99.0000030212403,10|0,0:0|0:0,0:0:0:0:
360,262,87536,5,2,1:2:0:0:
252,176,87736,1,2,1:2:0:0:
143,325,87936,1,10,0:0:0:0:
204,374,88136,1,2,0:0:0:0:
124,198,88336,6,0,P|92:215|46:221,1,49.5000015106202,2|0,1:2|0:0,0:0:0:0:
0,111,88536,2,0,P|32:128|78:134,1,49.5000015106202,2|0,1:2|0:0,0:0:0:0:
116,80,88736,1,10,0:0:0:0:
231,185,88936,1,2,0:0:0:0:
329,152,89136,5,2,1:2:0:0:
480,39,89336,1,2,1:2:0:0:
405,0,89536,5,10,0:0:0:0:
512,173,89736,1,10,0:0:0:0:
512,173,89836,1,8,0:0:0:0:
512,173,89936,5,4,1:0:0:0:
442,220,90136,1,2,0:0:0:0:
336,359,90336,5,10,0:0:0:0:
215,299,90536,1,2,0:0:0:0:
110,377,90736,5,2,1:2:0:0:
305,222,90936,1,2,1:2:0:0:
102,160,91136,5,10,0:0:0:0:
250,378,91336,1,2,0:0:0:0:
388,134,91536,5,2,1:2:0:0:
326,191,91736,6,0,P|280:172|231:165,1,99.0000030212403,12|0,0:2|1:0,0:0:0:0:
20,69,92136,1,2,1:2:0:0:
20,69,92236,1,2,1:2:0:0:
20,69,92336,6,0,P|65:50|114:43,1,99.0000030212403,12|2,0:0|1:2,0:0:0:0:
293,42,92736,5,8,0:0:0:0:
293,42,92836,1,8,0:0:0:0:
293,42,92936,2,0,L|282:86,2,33.0000010070801,0|0|0,1:0|1:0|1:0,0:0:0:0:
305,96,93136,5,14,0:0:0:0:
493,234,93336,1,0,1:2:0:0:
492,233,93536,1,0,1:0:0:0:
254,307,93736,5,10,0:0:0:0:
437,170,93936,1,0,1:2:0:0:
436,171,94136,1,0,1:0:0:0:
158,162,94336,5,10,0:0:0:0:
379,309,94536,1,0,1:0:0:0:
143,384,94736,6,0,P|132:354|132:303,1,58.4999973220826,14|0,0:0|0:0,0:0:0:0:
184,258,94936,1,0,1:0:0:0:
183,259,95136,1,0,1:0:0:0:
349,198,95336,6,0,P|360:168|360:117,1,58.4999973220826,10|0,0:0|0:0,0:0:0:0:
308,72,95536,1,0,1:0:0:0:
309,73,95736,1,0,1:0:0:0:
129,0,95936,6,0,P|118:30|118:81,1,58.4999973220826,10|0,0:0|0:0,0:0:0:0:
170,126,96136,1,0,1:0:0:0:
49,325,96336,5,14,0:0:0:0:
133,261,96536,1,0,1:0:0:0:
262,363,96736,1,0,1:0:0:0:
425,280,96936,5,10,0:0:0:0:
328,195,97136,1,0,1:0:0:0:
487,74,97336,1,0,1:0:0:0:
456,177,97536,5,12,0:2:0:0:
311,8,97736,1,0,1:0:0:0:
147,128,97936,5,14,0:0:0:0:
267,320,98236,1,8,0:0:0:0:
267,320,98336,1,8,1:2:0:0:
185,358,98536,1,10,0:0:0:0:
338,211,98736,5,12,0:0:0:0:
346,207,98836,1,8,0:0:0:0:
355,203,98936,1,8,0:0:0:0:
248,75,99136,1,0,1:2:0:0:
456,177,99336,1,8,0:3:0:0:
326,357,99536,6,0,P|303:281|337:210,1,161.999995056153,4|0,1:0|0:0,0:0:0:0:
355,194,99936,1,8,0:0:0:0:
128,204,100136,6,0,P|151:128|117:61,1,148.50000453186,4|0,1:0|0:0,0:0:0:0:
116,62,100536,1,0,1:0:0:0:
309,17,100736,6,0,B|400:24|409:91|409:91|359:156|401:238,1,269.999991760254,14|8,0:0|0:3,0:0:0:0:
391,217,102166,5,8,0:3:0:0:
333,265,102366,1,8,0:3:0:0:
262,238,102566,1,8,0:3:0:0:
189,314,102764,6,0,B|88:285|88:285|52:310|63:350,1,161.999995056153,4|0,1:0|0:0,0:0:0:0:
71,348,103164,1,8,0:0:0:0:
0,115,103364,6,0,B|99:86|99:86|125:106|122:149,1,148.50000453186,4|0,1:0|0:0,0:0:0:0:
119,134,103764,1,0,1:0:0:0:
275,0,103964,6,0,B|289:76|357:90|357:90|442:109|443:23|324:6|345:175,1,360,4|0,1:0|0:0,0:0:0:0:
256,192,105964,12,0,109164,0:0:0:0:
75,50,112364,6,0,P|183:69|294:86,1,214.05,2|0,0:0|0:0,0:0:0:0:
288,85,115550,6,0,L|151:107,1,134.999995880127,2|0,0:0|0:0,0:0:0:0:
40,328,118075,5,2,0:0:0:0:
75,295,118347,1,2,0:0:0:0:
97,307,118534,1,2,0:0:0:0:
182,350,118760,6,0,B|286:322|286:322|313:327|336:359,1,161.999995056153,4|0,1:0|1:0,0:0:0:0:
330,351,119560,1,0,1:0:0:0:
451,238,119944,2,0,P|457:202|467:166,1,53.9999983520508,10|0,0:0|0:0,0:0:0:0:
512,123,120344,1,0,1:0:0:0:
348,2,120747,1,0,3:0:0:0:
291,52,120947,1,0,1:0:0:0:
221,23,121147,1,0,1:0:0:0:
146,99,121347,2,0,P|99:84|75:80,2,53.9999983520508,2|2|0,0:0|0:0|0:0,0:0:0:0:
183,189,121947,6,0,B|133:215|133:215|171:255|179:327,1,161.999995056153,2|0,1:2|1:0,0:0:0:0:
176,309,122747,1,0,1:0:0:0:
267,382,122947,2,0,P|310:364|334:361,1,53.9999983520508,2|8,0:0|0:0,0:0:0:0:
370,285,123347,2,0,P|396:292|420:304,1,53.9999983520508,2|0,0:0|1:0,0:0:0:0:
512,277,123747,1,2,0:0:0:0:
470,193,123947,2,0,P|443:185|419:173,1,53.9999983520508,2|2,3:2|1:2,0:0:0:0:
341,103,124347,1,0,1:0:0:0:
332,112,124547,2,0,P|286:124|259:133,2,53.9999983520508,2|2|2,0:0|3:2|0:0,0:0:0:0:
320,216,125147,5,2,1:2:0:0:
258,265,125347,1,2,0:0:0:0:
198,215,125547,2,0,L|132:203,1,53.9999983520508,2|0,0:0|1:0,0:0:0:0:
89,149,125947,1,0,1:0:0:0:
190,44,126347,1,2,0:0:0:0:
190,44,126447,1,2,0:0:0:0:
190,44,126547,2,0,L|243:53,1,53.9999983520508,2|0,0:0|1:0,0:0:0:0:
314,114,126947,2,0,P|339:108|367:104,1,53.9999983520508,2|2,0:0|3:2,0:0:0:0:
481,162,127347,1,2,1:2:0:0:
427,215,127547,1,2,1:2:0:0:
462,286,127747,2,0,L|447:356,1,53.9999983520508,2|8,0:0|0:0,0:0:0:0:
375,382,128147,1,2,0:0:0:0:
270,285,128347,6,0,P|221:294|162:307,1,94.499997116089,2|0,1:2|0:0,0:0:0:0:
151,331,128747,6,0,P|98:319|45:310,1,108,2|0,3:2|0:0,0:0:0:0:
23,295,129147,6,0,L|-7:146,1,121.499996292114,2|0,3:2|0:0,0:0:0:0:
10,155,129547,6,0,B|76:141|71:103|168:88,1,135,14|0,3:2|0:0,0:0:0:0:
152,111,129947,5,10,0:0:0:0:
208,302,130147,1,10,0:0:0:0:
208,302,130747,5,10,0:0:0:0:
152,111,130947,1,10,0:0:0:0:
152,111,131547,6,0,P|205:109|222:24,1,148.50000453186,4|0,1:0|0:0,0:0:0:0:
212,21,131947,1,0,1:0:0:0:
350,107,132147,6,0,L|510:141,1,148.50000453186,12|0,0:0|0:0,0:0:0:0:
510,152,132547,1,2,0:0:0:0:
372,260,132747,1,2,1:2:0:0:
502,342,132947,6,0,P|453:351|405:361,1,99.0000030212403,12|0,0:0|1:0,0:0:0:0:
269,291,133347,1,2,0:0:0:0:
150,384,133547,5,14,0:0:0:0:
86,344,133747,1,2,0:0:0:0:
184,195,133947,5,2,1:2:0:0:
80,226,134147,1,10,0:0:0:0:
173,72,134347,5,2,1:2:0:0:
73,40,134547,1,8,0:3:0:0:
73,40,134647,1,8,0:3:0:0:
73,40,134747,5,4,1:0:0:0:
192,182,134947,1,2,0:0:0:0:
353,56,135147,5,2,1:2:0:0:
218,5,135347,1,14,0:0:0:0:
360,179,135547,5,2,1:2:0:0:
431,151,135747,1,2,0:0:0:0:
512,260,135947,5,4,1:0:0:0:
414,384,136147,1,2,0:0:0:0:
341,321,136347,6,0,P|299:311|256:305,1,85.4999977169037,2|12,1:2|0:0,0:0:0:0:
176,248,136747,2,0,L|160:163,1,85.4999977169037,2|0,1:2|0:0,0:0:0:0:
209,89,137147,6,0,P|249:77|295:70,1,85.4999977169037,4|0,1:0|0:0,0:0:0:0:
85,223,137547,2,0,P|44:211|-1:204,1,85.4999977169037,12|0,0:0|0:0,0:0:0:0:
155,368,137947,5,14,0:0:0:0:
142,384,138147,1,2,0:0:0:0:
267,326,138347,5,2,1:2:0:0:
264,364,138547,1,12,0:0:0:0:
343,235,138747,5,2,1:2:0:0:
380,303,138947,1,2,0:0:0:0:
363,116,139147,5,14,0:0:0:0:
474,185,139347,1,8,0:0:0:0:
474,185,139447,1,8,0:0:0:0:
474,185,139547,6,0,P|489:124|514:39,1,141.749995674133,4|0,1:0|0:0,0:0:0:0:
502,35,139947,2,0,P|482:102|470:152,1,94.499997116089,10|12,0:0|0:0,0:0:0:0:
352,240,140347,6,0,P|337:179|312:94,1,141.749995674133,2|0,1:2|0:0,0:0:0:0:
324,90,140747,2,0,P|343:152|361:218,1,94.499997116089,14|2,0:0|0:0,0:0:0:0:
412,298,141147,5,4,1:0:0:0:
512,243,141347,1,2,0:0:0:0:
298,311,141547,5,2,1:2:0:0:
479,384,141747,1,2,0:0:0:0:
176,361,141947,5,2,1:2:0:0:
361,226,142147,1,0,1:0:0:0:
94,231,142347,5,2,1:2:0:0:
298,311,142547,1,2,1:2:0:0:
276,111,142747,6,0,P|279:93|285:75,3,28.4999992389679,8|8|8|8,0:3|0:3|0:3|0:3,0:0:0:0:
165,37,143147,6,0,P|162:19|156:1,3,28.4999992389679,8|8|8|8,0:3|0:3|0:3|0:3,0:0:0:0:
66,161,143547,5,10,0:0:0:0:
62,173,143647,1,8,0:0:0:0:
58,184,143747,2,0,L|44:232,1,42.7499988584519,8|8,0:0|0:0,0:0:0:0:
0,321,143947,5,8,0:3:0:0:
41,316,144047,1,8,0:3:0:0:
75,336,144147,1,4,0:3:0:0:
90,373,144247,1,4,0:3:0:0:
83,384,144347,6,0,B|168:362|135:326|242:304,1,148.50000453186,4|0,1:0|0:0,0:0:0:0:
227,303,144747,2,0,P|255:263|223:209,1,99.0000030212403,10|2,0:0|0:0,0:0:0:0:
74,86,145147,2,0,L|56:194,1,99.0000030212403,0|2,1:0|1:2,0:0:0:0:
279,44,145547,1,10,0:0:0:0:
210,14,145747,1,2,0:0:0:0:
314,221,145947,6,0,P|363:228|411:236,1,99.0000030212403,2|0,1:2|0:0,0:0:0:0:
270,118,146347,1,10,0:0:0:0:
439,0,146547,2,0,P|473:33|470:81,1,99.0000030212403,2|0,0:0|1:0,0:0:0:0:
346,157,146947,5,2,1:2:0:0:
512,263,147147,1,10,0:0:0:0:
319,319,147347,1,2,0:0:0:0:
395,384,147547,6,0,P|404:329|413:284,1,99.0000030212403,2|2,1:2|0:0,0:0:0:0:
229,129,147947,2,0,L|246:226,1,99.0000030212403,10|0,0:0|0:0,0:0:0:0:
291,353,148347,5,2,1:2:0:0:
137,201,148547,1,2,1:2:0:0:
346,157,148747,2,0,L|443:174,1,99.0000030212403,10|2,0:0|0:0,0:0:0:0:
248,4,149147,5,2,1:2:0:0:
203,69,149347,1,2,1:2:0:0:
273,198,149547,1,10,0:0:0:0:
175,296,149747,2,0,P|115:313|67:334,1,99.0000030212403,2|0,0:0|1:0,0:0:0:0:
0,156,150147,5,8,0:0:0:0:
5,162,150247,1,8,0:0:0:0:
11,168,150347,2,0,P|43:181|86:183,1,49.5000015106202,8|8,0:0|0:0,0:0:0:0:
173,122,150547,1,8,0:0:0:0:
178,116,150647,1,8,0:0:0:0:
184,110,150747,6,0,B|266:113|235:163|332:188,1,148.50000453186,4|0,1:0|0:0,0:0:0:0:
335,168,151147,1,10,0:0:0:0:
205,303,151347,2,0,P|169:271|186:203,1,99.0000030212403,2|0,0:0|1:0,0:0:0:0:
326,81,151747,1,2,1:2:0:0:
126,21,151947,1,10,0:0:0:0:
264,185,152147,1,2,0:0:0:0:
401,0,152347,5,2,1:2:0:0:
512,226,152747,1,10,0:0:0:0:
434,298,152947,2,0,P|426:249|415:197,1,99.0000030212403,2|0,0:0|1:0,0:0:0:0:
294,111,153347,5,2,1:2:0:0:
222,142,153547,1,10,0:0:0:0:
149,173,153747,1,10,0:0:0:0:
74,142,153947,5,6,1:2:0:0:
254,217,154147,1,2,0:0:0:0:
198,280,154347,5,10,0:0:0:0:
62,61,154547,1,2,0:0:0:0:
126,10,154747,5,2,1:2:0:0:
10,193,154947,1,2,1:2:0:0:
101,332,155147,6,0,L|125:214,1,99.0000030212403,10|0,0:0|0:0,0:0:0:0:
74,142,155547,5,2,1:2:0:0:
252,21,155747,1,10,0:0:0:0:
345,127,155947,1,2,1:2:0:0:
277,271,156147,5,8,0:0:0:0:
266,318,156247,1,8,0:0:0:0:
288,361,156347,1,8,0:0:0:0:
332,381,156447,1,8,0:0:0:0:
379,369,156547,2,0,P|410:356|451:348,1,49.5000015106202,8|8,0:0|0:0,0:0:0:0:
490,245,156747,5,8,0:0:0:0:
496,230,156847,1,8,0:0:0:0:
502,216,156947,1,8,0:0:0:0:
507,202,157047,1,8,0:0:0:0:
512,189,157147,6,0,L|414:171,1,99.0000030212403,4|2,1:0|0:0,0:0:0:0:
275,0,157547,2,0,P|298:41|275:92,1,99.0000030212403,10|0,0:0|0:0,0:0:0:0:
121,289,157947,5,2,1:2:0:0:
220,227,158147,1,2,1:2:0:0:
132,85,158347,1,10,0:0:0:0:
13,175,158547,1,2,0:0:0:0:
202,244,158747,6,0,P|210:195|222:147,1,99.0000030212403,4|2,1:0|0:0,0:0:0:0:
396,41,159147,2,0,L|414:138,1,99.0000030212403,10|0,0:0|0:0,0:0:0:0:
341,209,159547,5,2,1:2:0:0:
496,65,159747,1,2,1:2:0:0:
316,0,159947,1,10,0:0:0:0:
499,206,160147,1,8,0:0:0:0:
499,206,160247,1,8,0:0:0:0:
499,206,160347,6,0,P|451:215|402:228,1,99.0000030212403,4|2,1:0|0:0,0:0:0:0:
236,172,160747,1,10,0:0:0:0:
378,352,160947,1,2,0:0:0:0:
282,384,161147,6,0,L|299:284,1,99.0000030212403,2|0,1:2|1:0,0:0:0:0:
225,163,161547,1,10,0:0:0:0:
294,18,161747,2,0,B|320:60|320:60|301:105,1,99.0000030212403,2|0,0:0|1:0,0:0:0:0:
156,225,162147,6,0,P|107:208|35:196,1,99.0000030212403,10|0,0:0|1:0,0:0:0:0:
190,367,162547,1,10,0:0:0:0:
201,360,162647,1,8,0:0:0:0:
210,354,162747,1,12,0:0:0:0:
338,275,162947,6,0,P|363:289|388:294,1,49.5000015106202,8|8,0:0|0:0,0:0:0:0:
512,245,163147,1,8,0:3:0:0:
468,223,163247,1,8,0:3:0:0:
446,178,163347,1,8,0:3:0:0:
454,130,163447,1,8,0:3:0:0:
490,98,163547,5,14,0:0:0:0:
263,13,163747,1,0,1:0:0:0:
259,12,163947,1,0,1:0:0:0:
277,220,164147,5,14,0:0:0:0:
438,19,164347,1,0,1:0:0:0:
440,16,164547,1,0,1:0:0:0:
446,296,164747,5,14,0:0:0:0:
302,110,164947,1,0,1:0:0:0:
178,346,165137,6,0,P|148:357|97:357,1,58.4999973220826,14|0,0:0|0:0,0:0:0:0:
15,307,165337,1,0,1:0:0:0:
11,304,165537,1,0,1:0:0:0:
76,151,165737,6,0,P|106:140|157:140,1,58.4999973220826,14|0,0:0|0:0,0:0:0:0:
239,190,165937,1,0,1:0:0:0:
243,193,166137,1,0,1:0:0:0:
347,312,166337,6,0,P|377:323|428:323,1,58.4999973220826,14|0,0:0|0:0,0:0:0:0:
510,273,166537,1,0,1:0:0:0:
397,153,166737,5,14,0:0:0:0:
420,312,166937,1,0,1:0:0:0:
274,378,167137,1,0,1:0:0:0:
111,289,167337,5,14,0:0:0:0:
203,191,167537,1,0,1:0:0:0:
39,87,167737,1,0,1:0:0:0:
8,207,167937,5,14,0:0:0:0:
155,37,168137,1,0,1:0:0:0:
298,196,168337,5,10,1:2:0:0:
303,205,168437,1,8,0:0:0:0:
408,275,168637,5,8,0:0:0:0:
403,284,168737,1,8,0:0:0:0:
304,363,168937,5,12,0:0:0:0:
299,370,169037,1,8,0:0:0:0:
294,377,169137,5,8,0:0:0:0:
165,270,169337,1,8,0:3:0:0:
72,343,169537,1,4,0:3:0:0:
5,263,169737,6,0,P|58:277|77:354,1,129.5,12|0,0:0|0:0,0:0:0:0:
113,77,181758,5,2,0:0:0:0:
113,77,181958,2,0,P|78:55|21:53,2,80.9999975280763,2|2|2,0:0|0:0|0:0,0:0:0:0:
159,186,182758,5,14,0:2:0:0:
159,187,183158,1,10,0:0:0:0:
159,187,183558,1,10,0:0:0:0:
220,240,183758,1,0,1:0:0:0:
281,293,183940,1,10,0:0:0:0:
342,346,184140,1,0,1:0:0:0:
442,329,184340,5,10,0:0:0:0:
442,329,184740,1,10,0:0:0:0:
442,328,185140,1,10,0:0:0:0:
458,249,185340,1,0,1:0:0:0:
473,169,185540,1,10,0:0:0:0:
489,90,185740,1,0,1:0:0:0:
424,11,185940,6,0,B|355:26|355:26|348:30|348:30|262:51,2,144,10|10|10,0:0|0:0|0:0,0:0:0:0:
376,107,186940,1,0,1:0:0:0:
425,169,187140,1,10,0:0:0:0:
400,292,187340,1,0,1:0:0:0:
490,351,187540,6,0,P|406:368|325:393,1,144,10|10,0:0|0:0,0:0:0:0:
334,375,188140,1,0,0:0:0:0:
254,303,188340,5,8,0:0:0:0:
177,371,188540,1,8,0:0:0:0:
71,369,188740,5,8,0:0:0:0:
19,311,188940,1,12,0:0:0:0:
27,301,189140,6,0,P|39:175|60:47,1,252,2|0,0:0|0:0,0:0:0:0:
52,41,190740,6,0,L|171:67,1,108,2|0,0:0|1:0,0:0:0:0:
157,64,191540,1,0,1:0:0:0:
353,215,192340,6,0,B|427:213|505:191|516:133|471:101|419:117|421:166,1,252,2|0,0:0|0:0,0:0:0:0:
411,173,193940,6,0,P|423:223|435:284,1,108,2|8,0:0|0:3,0:0:0:0:
434,278,194740,5,8,0:0:0:0:
377,337,194940,1,8,0:3:0:0:
263,287,195140,1,4,0:3:0:0:
162,368,195340,1,4,0:3:0:0:
45,258,195540,5,4,1:0:0:0:
114,225,195740,1,2,0:0:0:0:
201,116,195940,5,10,0:0:0:0:
270,149,196140,1,2,0:0:0:0:
391,229,196340,5,10,0:0:0:0:
460,196,196540,1,2,0:0:0:0:
460,196,196640,1,2,0:0:0:0:
460,196,196740,2,0,P|467:152|479:98,1,76.5000014591217,10|0,0:0|0:0,0:0:0:0:
498,96,197006,6,0,L|490:58,2,25.5000004863739,8|8|8,0:3|0:3|1:3,0:0:0:0:
365,151,197340,1,8,1:3:0:0:
32,81,201940,6,0,P|82:96|130:105,1,90,4|0,1:0|0:0,0:0:0:0:
239,51,202340,1,2,1:2:0:0:
241,250,202540,2,0,P|210:219|215:172,1,90,2|0,0:0|1:0,0:0:0:0:
346,47,202940,5,2,0:0:0:0:
483,147,203140,1,2,1:2:0:0:
312,201,203340,1,2,0:0:0:0:
423,6,203540,6,0,B|443:46|443:46|424:89,1,90,2|0,1:2|0:0,0:0:0:0:
298,217,203940,1,10,0:2:0:0:
377,344,204140,2,0,P|385:300|398:243,1,90,10|0,0:0|1:0,0:0:0:0:
316,88,204540,5,2,0:0:0:0:
169,167,204740,1,0,1:0:0:0:
310,251,204940,1,2,1:2:0:0:
194,66,205140,5,4,1:0:0:0:
117,39,205340,1,8,0:3:0:0:
159,188,205540,5,2,1:2:0:0:
43,237,205740,1,4,0:3:0:0:
152,341,205940,5,2,1:2:0:0:
225,366,206140,1,4,0:3:0:0:
346,261,206340,5,2,1:2:0:0:
419,236,206540,1,4,0:3:0:0:
308,121,206740,6,0,P|276:151|278:194,1,90,2|8,1:2|0:3,0:0:0:0:
415,369,207140,1,2,1:2:0:0:
480,296,207340,2,0,L|376:276,1,90,10|0,0:0|1:0,0:0:0:0:
273,193,207740,5,10,0:0:0:0:
131,281,207940,1,10,0:0:0:0:
69,182,208140,1,10,0:0:0:0:
177,95,208340,6,0,B|194:50|194:50|180:4,1,90,4|8,1:0|0:0,0:0:0:0:
4,143,208740,1,2,1:2:0:0:
77,198,208940,2,0,P|133:210|174:225,1,90,2|0,0:0|1:0,0:0:0:0:
305,184,209340,5,2,0:0:0:0:
198,339,209540,1,2,1:2:0:0:
283,384,209740,2,0,L|300:277,1,90,2|8,3:2|1:2,0:0:0:0:
383,186,210140,6,0,P|426:159|484:180,1,90,2|0,0:0|1:0,0:0:0:0:
325,53,210540,2,0,L|218:70,1,90,10|0,0:0|1:0,0:0:0:0:
174,139,210940,5,10,0:0:0:0:
13,85,211140,1,2,1:2:0:0:
159,0,211340,1,10,0:0:0:0:
175,226,211540,5,10,1:2:0:0:
92,105,211740,1,10,0:0:0:0:
256,181,211940,1,10,1:2:0:0:
93,276,212140,1,10,0:0:0:0:
308,328,212340,5,10,1:2:0:0:
99,187,212540,1,10,0:0:0:0:
372,142,212740,1,10,1:2:0:0:
253,269,212940,1,10,0:0:0:0:
431,277,213140,5,10,1:2:0:0:
296,101,213340,1,10,0:0:0:0:
422,0,213540,2,0,P|436:20|439:48,1,45,0|8,1:0|0:0,0:0:0:0:
423,60,213740,1,8,0:0:0:0:
256,181,213940,5,2,1:2:0:0:
380,298,214140,1,8,0:0:0:0:
416,318,214240,1,8,0:0:0:0:
461,314,214340,1,8,0:0:0:0:
496,289,214440,1,8,0:0:0:0:
512,247,214540,1,8,0:0:0:0:
504,230,214640,1,8,0:3:0:0:
495,225,214740,6,0,B|378:248|416:168|282:197,2,198.000006042481,4|8|0,1:0|0:0|1:0,0:0:0:0:
399,108,215740,1,0,1:0:0:0:
447,0,215940,2,0,P|480:27|475:89,1,99.0000030212403,10|0,0:0|0:0,0:0:0:0:
344,246,216340,6,0,P|234:265|144:288,1,198.000006042481,2|8,1:2|0:0,0:0:0:0:
9,197,216940,1,10,0:0:0:0:
9,197,217040,1,8,0:0:0:0:
9,197,217140,1,2,1:2:0:0:
184,92,217340,1,2,1:2:0:0:
93,3,217540,2,0,P|78:64|70:120,1,99.0000030212403,14|8,0:0|0:0,0:0:0:0:
119,165,217840,1,8,0:0:0:0:
125,173,217940,5,4,1:0:0:0:
266,276,218140,1,2,0:0:0:0:
100,372,218340,1,10,0:0:0:0:
253,200,218540,2,0,P|282:233|267:290,1,99.0000030212403,2|0,0:0|1:0,0:0:0:0:
442,263,218940,2,0,P|449:214|459:162,1,99.0000030212403,2|8,1:2|0:0,0:0:0:0:
323,46,219340,1,2,0:0:0:0:
368,111,219540,5,0,1:0:0:0:
229,246,219740,1,8,0:0:0:0:
136,179,219940,1,0,1:0:0:0:
236,136,220140,1,0,1:0:0:0:
236,136,220240,1,0,1:0:0:0:
240,140,220340,5,14,0:0:0:0:
129,280,220540,1,2,1:2:0:0:
21,161,220740,6,0,P|11:132|-9:92,1,49.5000015106202,8|8,0:0|0:0,0:0:0:0:
118,0,220940,2,0,P|109:22|101:46,1,49.5000015106202,8|8,0:0|0:0,0:0:0:0:
0,10,221130,5,14,0:0:0:0:
177,190,221330,1,0,1:0:0:0:
177,191,221530,1,0,1:0:0:0:
3,366,221730,5,14,0:0:0:0:
108,131,221930,1,0,1:0:0:0:
110,127,222130,1,0,1:0:0:0:
282,330,222330,5,14,0:0:0:0:
92,211,222530,1,0,1:0:0:0:
277,9,222730,6,0,P|283:40|286:68,1,58.4999973220826,14|0,0:0|0:0,0:0:0:0:
347,179,222930,1,0,1:0:0:0:
350,183,223130,1,0,1:0:0:0:
109,86,223330,6,0,P|102:117|99:145,1,58.4999973220826,14|0,0:0|0:0,0:0:0:0:
15,282,223530,5,8,0:0:0:0:
51,264,223630,1,8,0:0:0:0:
91,265,223730,1,8,0:0:0:0:
127,285,223830,1,8,0:0:0:0:
148,319,223930,1,8,0:0:0:0:
169,353,224030,1,8,0:0:0:0:
204,373,224130,1,8,0:0:0:0:
245,374,224230,1,8,0:0:0:0:
281,356,224330,5,14,0:0:0:0:
416,220,224530,1,0,1:0:0:0:
317,139,224730,1,0,1:0:0:0:
204,280,224930,5,14,0:0:0:0:
69,144,225130,1,0,1:0:0:0:
168,63,225330,1,0,1:0:0:0:
261,212,225530,5,14,0:0:0:0:
438,105,225730,1,8,0:0:0:0:
438,105,225830,1,8,0:0:0:0:
438,105,225930,5,14,0:0:0:0:
346,65,226130,1,0,1:0:0:0:
449,251,226330,1,0,1:0:0:0:
306,377,226530,6,0,P|301:349|295:319,1,58.4999973220826,14|8,0:0|0:0,0:0:0:0:
187,243,226730,1,8,0:0:0:0:
191,220,226830,1,8,0:0:0:0:
195,197,226930,1,8,0:0:0:0:
200,174,227030,1,8,0:0:0:0:
204,151,227130,6,0,P|209:123|215:93,1,58.4999973220826,10|8,0:0|0:0,0:0:0:0:
313,2,227330,1,8,0:0:0:0:
313,2,227430,1,8,0:0:0:0:
313,2,227530,6,0,P|367:78|465:47,1,198.000006042481,4|10,1:0|0:0,0:0:0:0:
512,189,228130,1,2,0:0:0:0:
460,250,228330,2,0,P|406:260|347:273,1,99.0000030212403,2|0,1:2|1:0,0:0:0:0:
244,377,228730,2,0,P|215:329|113:350,1,148.50000453186,10|0,0:0|0:0,0:0:0:0:
114,349,229130,6,0,P|83:316|109:247,1,99.0000030212403,2|0,1:2|0:0,0:0:0:0:
226,124,229530,2,0,P|236:179|246:240,1,99.0000030212403,10|0,0:0|0:0,0:0:0:0:
135,76,229930,2,0,P|79:86|19:96,1,99.0000030212403,2|2,1:2|0:0,0:0:0:0:
37,93,230230,1,2,0:0:0:0:
37,93,230330,2,0,P|64:134|39:195,1,99.0000030212403,12|8,0:0|0:0,0:0:0:0:
21,266,230630,1,8,0:0:0:0:
14,279,230743,6,0,P|112:259|237:240,1,198.000006042481,4|8,1:0|0:0,0:0:0:0:
110,141,231343,1,8,0:0:0:0:
110,141,231443,1,8,0:0:0:0:
110,141,231543,1,0,1:0:0:0:
234,39,231743,1,0,1:0:0:0:
278,105,231943,2,0,B|311:130|345:116|345:116|366:30,1,148.50000453186,10|0,0:0|0:0,0:0:0:0:
351,40,232343,6,0,P|409:53|484:75,1,99.0000030212403,2|0,1:2|1:0,0:0:0:0:
346,154,232743,1,8,0:0:0:0:
472,312,232943,5,2,0:0:0:0:
400,361,233143,2,0,P|372:342|336:333,1,49.5000015106202,10|8,0:0|0:0,0:0:0:0:
268,282,233343,2,0,P|245:291|225:306,1,49.5000015106202,10|8,0:0|0:0,0:0:0:0:
166,384,233543,1,10,0:0:0:0:
356,239,233743,1,10,0:0:0:0:
264,117,233943,6,0,B|215:103|215:103|181:208,1,148.50000453186,4|0,1:0|0:0,0:0:0:0:
194,212,234343,1,10,0:0:0:0:
24,254,234543,1,8,0:0:0:0:
24,254,234643,1,8,0:0:0:0:
24,254,234743,1,2,1:2:0:0:
88,315,234943,1,2,1:2:0:0:
97,125,235143,5,8,0:0:0:0:
24,155,235343,1,2,0:0:0:0:
153,31,235543,1,0,1:0:0:0:
237,97,235743,6,0,P|246:48|255:0,1,99.0000030212403,2|8,0:0|0:0,0:0:0:0:
417,160,236143,2,0,L|319:177,1,99.0000030212403,2|0,0:0|1:0,0:0:0:0:
201,198,236543,5,2,1:2:0:0:
345,312,236743,1,10,0:0:0:0:
168,367,236943,1,2,0:0:0:0:
322,204,237143,5,2,1:2:0:0:
397,244,237343,1,2,1:2:0:0:
512,94,237543,5,10,1:2:0:0:
400,142,237743,1,2,1:2:0:0:
312,110,237943,5,2,1:2:0:0:
196,0,238143,1,2,1:2:0:0:
61,120,238343,6,0,P|86:133|105:181,1,49.5000015106202,14|8,1:2|0:0,0:0:0:0:
143,232,238543,1,0,1:0:0:0:
141,238,238643,1,8,0:0:0:0:
139,243,238743,5,10,0:0:0:0:
217,378,238943,2,0,P|230:353|278:334,1,49.5000015106202,14|8,0:0|0:0,0:0:0:0:
350,310,239143,1,0,1:0:0:0:
368,338,239243,1,8,0:0:0:0:
398,355,239343,1,8,0:0:0:0:
433,354,239443,1,8,0:0:0:0:
462,337,239543,6,0,P|474:299|481:251,1,49.5000015106202,6|8,1:2|0:0,0:0:0:0:
418,190,239743,1,8,0:0:0:0:
418,190,239843,1,8,0:0:0:0:
418,190,239943,2,0,P|387:198|352:209,1,49.5000015106202,10|8,0:0|0:0,0:0:0:0:
272,298,240143,2,0,L|231:288,2,33.0000010070801,0|0|0,1:0|1:0|1:0,0:0:0:0:
291,285,240343,5,14,0:0:0:0:
163,327,240543,1,2,0:0:0:0:
292,175,240743,5,10,0:0:0:0:
139,106,240943,1,2,0:0:0:0:
300,27,241143,5,10,0:0:0:0:
373,7,241343,1,2,1:2:0:0:
161,225,241543,5,10,0:0:0:0:
69,250,241743,1,2,1:2:0:0:
281,61,241943,5,4,1:2:0:0:
348,187,242143,1,2,0:0:0:0:
65,127,242343,5,10,0:0:0:0:
132,1,242543,1,2,0:0:0:0:
174,202,242743,5,10,0:0:0:0:
98,235,242943,1,2,1:2:0:0:
91,351,243143,5,10,0:2:0:0:
167,384,243343,1,2,1:2:0:0:
307,294,243543,5,10,0:0:0:0:
453,363,243743,1,2,0:0:0:0:
512,134,243943,5,10,0:0:0:0:
370,207,244143,1,2,0:0:0:0:
283,145,244343,5,10,0:0:0:0:
459,260,244543,1,2,1:2:0:0:
266,322,244743,5,10,0:0:0:0:
492,149,244943,1,0,1:2:0:0:
325,7,245143,6,0,P|297:23|279:53,1,58.4999973220826,14|0,0:2|0:0,0:0:0:0:
230,173,245343,1,2,0:0:0:0:
4,131,245543,6,0,P|32:147|50:177,1,58.4999973220826,14|0,0:0|0:0,0:0:0:0:
99,297,245743,1,0,1:0:0:0:
132,42,245943,5,8,0:0:0:0:
132,42,246043,1,8,0:0:0:0:
132,42,246143,1,0,1:0:0:0:
194,89,246343,1,10,0:0:0:0:
272,75,246543,1,0,1:0:0:0:
360,0,246743,5,6,1:2:0:0:
512,52,246943,1,2,0:0:0:0:
406,152,247143,5,10,0:0:0:0:
269,198,247343,1,2,0:0:0:0:
195,329,247543,5,10,0:0:0:0:
286,365,247743,1,2,1:2:0:0:
122,188,247943,5,10,0:0:0:0:
31,224,248143,1,2,1:2:0:0:
202,72,248343,5,10,0:0:0:0:
269,198,248543,1,2,0:0:0:0:
0,126,248743,5,10,0:0:0:0:
67,0,248943,1,2,0:0:0:0:
122,188,249143,5,10,0:0:0:0:
31,224,249343,1,2,1:2:0:0:
135,345,249543,5,10,0:0:0:0:
213,362,249743,1,2,1:2:0:0:
331,268,249943,5,2,1:2:0:0:
512,203,250143,1,2,0:0:0:0:
282,166,250343,5,10,0:0:0:0:
470,276,250543,1,2,0:0:0:0:
244,333,250743,5,10,0:0:0:0:
441,159,250943,1,2,1:2:0:0:
180,169,251143,5,10,0:0:0:0:
400,341,251343,1,2,1:2:0:0:
337,92,251543,6,0,L|321:27,2,58.4999973220826,8|8|2,0:0|0:0|1:2,0:0:0:0:
282,157,251943,1,10,0:0:0:0:
117,59,252143,6,0,L|133:-6,2,58.4999973220826,2|8|8,1:2|0:0|0:0,0:0:0:0:
172,124,252543,1,8,0:3:0:0:
51,221,252743,5,8,0:3:0:0:
25,252,252843,1,8,0:3:0:0:
23,292,252943,1,8,0:3:0:0:
44,326,253043,1,8,0:3:0:0:
80,344,253122,6,0,P|156:321|208:382,1,161.999995056153,4|0,1:0|0:0,0:0:0:0:
218,384,253522,1,8,0:0:0:0:
356,248,253746,6,0,P|368:195|333:251,1,148.50000453186,4|0,1:0|0:0,0:0:0:0:
340,216,254146,1,0,1:0:0:0:
156,167,254354,6,0,B|124:-7|124:-7|156:34|194:63,1,275.1,12|8,0:0|0:3,0:0:0:0:
189,59,255741,5,8,0:3:0:0:
257,27,255941,1,4,0:3:0:0:
319,72,256141,1,4,0:3:0:0:
384,154,256341,6,0,B|485:125|485:125|521:150|510:190,1,161.999995056153,4|0,1:0|0:0,0:0:0:0:
502,184,256741,1,8,0:0:0:0:
454,349,256968,6,0,B|355:320|355:320|329:340|332:383,1,148.50000453186,4|0,1:0|0:0,0:0:0:0:
337,373,257368,1,0,1:0:0:0:
183,282,257569,6,0,P|147:289|117:297,1,67.5,12|8,0:0|0:3,0:0:0:0:
103,291,257969,1,8,0:3:0:0:
19,221,258169,1,8,0:3:0:0:
87,131,258369,5,8,0:3:0:0:
92,121,258469,1,8,0:3:0:0:
190,54,258669,5,8,0:3:0:0:
195,64,258769,1,8,0:3:0:0:
298,129,258969,5,4,0:3:0:0:
371,142,259169,1,4,0:3:0:0:
420,82,259369,1,4,0:3:0:0:
512,58,259532,6,0,P|493:148|480:244,1,161.999995056153,4|0,1:0|0:0,0:0:0:0:
468,242,259932,1,8,0:0:0:0:
293,178,260140,6,0,P|312:268|325:364,1,148.50000453186,4|0,1:0|0:0,0:0:0:0:
340,341,260540,1,0,1:0:0:0:
78,303,260736,6,0,P|73:252|136:237,1,107.999996704102,12|0,0:0|0:0,0:0:0:0:
209,283,261406,2,0,L|239:275,3,17.9999994506836,8|8|8|8,0:0|0:0|0:0|0:0,0:0:0:0:
131,15,262740,6,0,B|165:30|190:41|190:41|217:161,1,161.999995056153,4|0,1:0|0:0,0:0:0:0:
226,147,263140,1,8,0:0:0:0:
423,152,263364,6,0,B|393:166|368:177|368:177|343:292,1,148.50000453186,4|0,1:0|0:0,0:0:0:0:
330,280,263764,1,8,0:0:0:0:
221,379,263950,5,4,1:0:0:0:
161,332,264150,1,8,0:3:0:0:
36,200,264616,6,0,L|12:195,2,17.9999994506836,8|8|8,0:3|0:3|0:3,0:0:0:0:
109,170,264950,1,4,0:3:0:0:
119,156,265150,1,4,0:3:0:0:
378,34,265950,6,0,L|370:73,1,36,2|0,1:2|0:0,0:0:0:0:
312,121,266750,2,0,L|320:160,1,36,2|0,0:0|0:0,0:0:0:0:
388,227,267550,2,0,P|407:230|427:235,1,36,2|0,0:0|0:0,0:0:0:0:
477,289,268350,2,0,P|494:284|512:282,1,36,2|0,0:0|0:0,0:0:0:0:
134,34,269150,6,0,L|142:73,1,36,2|0,0:0|0:0,0:0:0:0:
200,121,269950,2,0,L|192:160,1,36,2|0,0:0|0:0,0:0:0:0:
124,227,270750,2,0,P|105:230|85:235,1,36,2|0,0:0|0:0,0:0:0:0:
35,289,271550,2,0,P|17:284|0:282,1,36,2|0,0:0|0:0,0:0:0:0:
257,383,272350,5,2,0:0:0:0:
257,383,273150,2,0,L|264:348,1,36,2|0,0:0|0:0,0:0:0:0:
320,289,273950,2,0,L|313:254,1,36,2|0,0:0|0:0,0:0:0:0:
256,192,274750,1,2,0:0:0:0:
255,1,275550,5,2,0:0:0:0:
255,1,276350,2,0,L|248:36,1,36,2|0,0:0|0:0,0:0:0:0:
192,95,277150,2,0,L|199:130,1,36,2|0,0:0|0:0,0:0:0:0:
256,192,277950,1,2,0:0:0:0:
456,324,278750,6,0,B|397:297|337:337|337:337|313:262|222:275,1,270,2|0,0:0|0:0,0:0:0:0:
158,333,281950,6,0,P|195:262|55:230,1,270,2|0,0:0|0:0,0:0:0:0:
9,72,285150,6,0,P|102:87|212:109,1,202.499993820191,2|0,0:0|0:0,0:0:0:0:
304,183,288350,6,0,P|355:145|433:155,1,144,2|0,0:0|0:0,0:0:0:0:
