osu file format v14

[General]
AudioFilename: audio.mp3
AudioLeadIn: 0
PreviewTime: 77240
Countdown: 1
SampleSet: Normal
StackLeniency: 0.7
Mode: 0
LetterboxInBreaks: 0
WidescreenStoryboard: 0

[Editor]
DistanceSpacing: 0.9
BeatDivisor: 4
GridSize: 4
TimelineZoom: 1.5

[Metadata]
Title:Fu Taiten Asuta no Teima | Black Clover OST Music Collection Vol.1 #06
TitleUnicode:Fu Taiten Asuta no Teima | Black Clover OST Music Collection Vol.1 #06
Artist:Minako Seki
ArtistUnicode:Minako Seki
Creator:mikadonek
Version:MADAMADAAAAAAAAAAAA!!!!!!
Source:
Tags:Black Clover Asta ost soundtrack
BeatmapID:2027667
BeatmapSetID:969122

[Difficulty]
HPDrainRate:6
CircleSize:4
OverallDifficulty:8
ApproachRate:9.3
SliderMultiplier:2
SliderTickRate:1

[Events]
//Background and Video events
0,0,"madamada.jpg",0,0
//Break Periods
//Storyboard Layer 0 (Background)
//Storyboard Layer 1 (Fail)
//Storyboard Layer 2 (Pass)
//Storyboard Layer 3 (Foreground)
//Storyboard Layer 4 (Overlay)
//Storyboard Sound Samples

[TimingPoints]
500,296.296296296296,4,1,10,100,1,0
2870,-133.333333333333,4,1,10,50,0,0
13537,-100,4,1,10,80,0,0
27759,-83.3333333333333,4,1,10,100,0,1
41981,-133.333333333333,4,1,10,70,0,0
49092,-100,4,1,10,80,0,0
77537,-83.3333333333333,4,1,10,100,0,1
91759,-100,4,1,10,100,0,0
105981,-66.6666666666667,4,1,10,100,0,1
107759,-66.6666666666667,4,1,10,100,0,0

[HitObjects]
256,192,1092,12,0,2574,3:3:0:0:
95,248,2723,5,0,3:2:0:0:
95,248,2797,1,0,3:3:0:0:
95,248,2871,2,0,P|139:296|165:304,1,75.0000028610231,0|0,1:3|1:3,1:3:0:0:
176,216,3167,2,0,P|168:180|176:144,1,75.0000028610231,0|0,1:3|1:3,1:3:0:0:
455,270,3463,2,0,P|394:243|367:246,1,75.0000028610231,0|0,1:3|1:3,1:3:0:0:
316,186,3760,2,0,P|345:164|382:157,1,75.0000028610231,0|0,1:3|1:3,1:3:0:0:
219,354,4056,1,0,1:3:0:0:
69,284,4204,1,0,1:3:0:0:
240,214,4352,2,0,P|267:173|273:103,1,112.500004291535,0|0,1:3|1:3,1:3:0:0:
316,260,4648,6,0,L|329:344,1,75.0000028610231,0|0,1:3|1:3,1:3:0:0:
100,292,4945,2,0,L|113:208,1,75.0000028610231,0|0,1:3|1:3,1:3:0:0:
264,124,5241,2,0,L|277:208,1,75.0000028610231,0|0,1:3|1:3,1:3:0:0:
48,156,5538,2,0,L|61:72,1,75.0000028610231,0|0,1:3|1:3,1:3:0:0:
214,265,5834,1,0,1:3:0:0:
111,217,5982,1,0,1:3:0:0:
370,162,6130,1,2,1:2:0:0:
324,275,6278,1,0,1:3:0:0:
324,275,6352,1,0,1:3:0:0:
324,275,6426,6,0,P|366:314|415:323,1,75.0000028610231,0|0,1:3|1:3,1:3:0:0:
460,94,6871,1,0,1:3:0:0:
451,266,7019,2,0,P|500:225|510:199,1,75.0000028610231,0|0,1:3|1:3,1:3:0:0:
306,71,7315,2,0,P|318:36|344:9,1,75.0000028610231,0|0,1:3|1:3,1:3:0:0:
348,192,7611,2,0,P|294:203|254:172,2,75.0000028610231,0|0|0,1:3|1:3|1:3,1:3:0:0:
106,270,8204,6,0,P|86:320|67:342,1,75.0000028610231,0|0,1:3|1:3,1:3:0:0:
104,137,8500,1,0,1:3:0:0:
104,137,8648,1,0,1:3:0:0:
217,280,8797,2,0,P|220:243|213:207,1,75.0000028610231,0|0,1:3|1:3,1:3:0:0:
315,166,9093,2,0,P|299:132|274:104,1,75.0000028610231,0|0,1:3|1:3,1:3:0:0:
430,295,9389,1,0,1:3:0:0:
445,163,9537,1,0,1:3:0:0:
261,340,9685,1,2,1:2:0:0:
145,248,9834,1,0,1:3:0:0:
145,248,9908,1,0,1:3:0:0:
145,248,9982,6,0,P|172:190|201:172,1,75.0000028610231,8|0,1:3|1:3,1:3:0:0:
357,176,10278,1,0,1:3:0:0:
357,176,10426,1,0,1:3:0:0:
227,289,10574,2,0,P|254:231|283:213,1,75.0000028610231,8|0,1:3|1:3,1:3:0:0:
432,236,10871,1,0,1:3:0:0:
432,236,11019,1,0,1:3:0:0:
309,329,11167,2,0,P|336:271|365:253,1,75.0000028610231,8|0,1:3|1:3,1:3:0:0:
468,320,11463,1,0,1:3:0:0:
468,320,11611,1,0,1:3:0:0:
465,148,11760,2,0,L|429:72,1,75.0000028610231,8|0,1:3|1:3,1:3:0:0:
299,140,12056,2,0,L|213:104,1,75.0000028610231,8|0,1:3|1:3,1:3:0:0:
107,306,12352,5,8,1:3:0:0:
72,318,12426,1,0,1:3:0:0:
36,308,12500,1,0,1:3:0:0:
14,279,12574,1,0,1:3:0:0:
12,242,12648,5,0,1:3:0:0:
25,228,12723,1,0,1:3:0:0:
41,217,12797,1,0,1:3:0:0:
58,210,12871,1,0,1:3:0:0:
76,207,12945,1,2,1:3:0:0:
95,208,13019,1,0,1:3:0:0:
113,212,13093,1,2,1:3:0:0:
131,218,13167,1,0,1:3:0:0:
149,223,13241,1,2,1:3:0:0:
184,233,13315,1,0,1:3:0:0:
222,235,13389,1,8,1:3:0:0:
258,226,13463,1,0,1:3:0:0:
291,208,13537,6,0,P|321:153|318:96,1,100,4|0,3:1|3:3,3:3:0:0:
409,233,13834,1,8,3:3:0:0:
242,143,13982,1,0,3:3:0:0:
483,269,14130,2,0,P|490:209|453:163,1,100,0|0,3:3|3:3,3:3:0:0:
220,258,14426,1,8,3:3:0:0:
512,340,14574,2,0,P|467:361|419:352,1,100,0|0,3:3|3:3,3:3:0:0:
220,258,14871,1,0,3:3:0:0:
220,258,14945,1,0,3:3:0:0:
220,257,15019,2,0,P|192:298|186:348,1,100,8|0,3:3|3:3,3:3:0:0:
292,126,15315,6,0,P|324:69|325:32,1,100,0|0,3:3|3:3,3:3:0:0:
142,79,15611,2,0,P|187:59|237:62,1,100,8|0,3:3|3:3,3:3:0:0:
390,240,15908,1,0,3:3:0:0:
206,165,16056,1,0,3:3:0:0:
206,165,16130,1,0,3:3:0:0:
206,165,16204,1,8,3:3:0:0:
346,121,16352,1,0,3:3:0:0:
293,320,16500,5,0,3:3:0:0:
267,340,16574,1,0,3:3:0:0:
234,340,16648,1,0,3:3:0:0:
209,320,16722,1,0,3:3:0:0:
187,288,16797,1,8,3:3:0:0:
177,249,16871,1,0,3:3:0:0:
175,209,16945,1,8,3:3:0:0:
183,170,17019,1,0,3:3:0:0:
199,134,17093,6,0,P|176:75|126:53,1,100,4|0,3:1|3:3,3:3:0:0:
21,218,17389,2,0,P|34:265|73:295,1,100,8|0,3:3|3:3,3:3:0:0:
199,134,17685,2,0,P|241:109|290:116,1,100,0|0,3:3|3:3,3:3:0:0:
408,258,17982,1,8,3:3:0:0:
466,103,18130,2,0,P|472:174|450:203,1,100,0|0,3:3|3:3,3:3:0:0:
290,116,18426,1,0,3:3:0:0:
290,116,18500,1,0,3:3:0:0:
289,116,18574,2,0,P|279:164|299:209,1,100,8|0,3:3|3:3,3:3:0:0:
88,292,18871,6,0,L|149:213,1,100,0|0,3:3|3:3,3:3:0:0:
133,110,19167,2,0,L|42:167,1,100,8|0,3:3|3:3,3:3:0:0:
201,323,19463,1,0,3:3:0:0:
299,209,19611,1,0,3:3:0:0:
299,209,19685,1,0,3:3:0:0:
299,209,19760,2,0,L|390:266,1,100,8|0,3:3|3:3,3:3:0:0:
447,56,20056,1,0,3:3:0:0:
432,92,20130,1,0,3:3:0:0:
404,120,20204,1,0,3:3:0:0:
367,135,20278,1,0,3:3:0:0:
327,133,20352,1,8,3:3:0:0:
75,47,20500,1,8,3:3:0:0:
75,47,20574,1,0,3:3:0:0:
75,47,20648,6,0,L|120:136,1,100,4|0,3:1|3:3,3:3:0:0:
344,298,20945,2,0,L|299:209,1,100,8|0,3:3|3:3,3:3:0:0:
357,55,21241,1,0,3:3:0:0:
434,175,21389,1,0,3:3:0:0:
344,298,21537,1,8,3:3:0:0:
213,204,21685,2,0,P|227:157|268:129,1,100,0|0,3:3|3:3,3:3:0:0:
199,305,21982,1,0,3:3:0:0:
199,305,22056,1,0,3:3:0:0:
199,305,22130,2,0,P|152:291|124:251,1,100,8|0,3:3|3:3,3:3:0:0:
344,298,22426,5,0,3:3:0:0:
145,341,22574,1,0,3:3:0:0:
415,351,22723,2,0,P|444:299|448:243,2,100,8|0|0,3:3|3:3|3:3,3:3:0:0:
213,204,23167,1,0,3:3:0:0:
213,204,23241,1,0,3:3:0:0:
213,204,23315,2,0,P|231:249|271:277,1,100,8|0,3:3|3:3,3:3:0:0:
456,179,23611,1,0,3:3:0:0:
452,139,23685,1,0,3:3:0:0:
436,102,23759,1,0,3:3:0:0:
409,73,23833,1,0,3:3:0:0:
374,55,23907,1,8,3:3:0:0:
214,214,24056,1,8,3:3:0:0:
313,121,24204,6,0,P|356:143|375:188,1,100,4|0,3:1|3:3,3:3:0:0:
198,293,24500,2,0,P|154:270|135:225,1,100,8|0,3:3|3:3,3:3:0:0:
148,102,24797,1,0,3:3:0:0:
218,172,24945,1,0,3:3:0:0:
244,76,25093,1,8,3:3:0:0:
389,250,25241,1,0,3:3:0:0:
363,154,25389,1,0,3:3:0:0:
235,336,25537,2,0,L|188:350,1,50,8|0,3:3|3:3,3:3:0:0:
268,320,25685,2,0,P|302:256|284:202,1,100,4|4,3:2|3:2,3:3:0:0:
79,290,25982,5,4,3:1:0:0:
64,86,26130,2,0,P|115:51|245:77,1,200,8|0,3:3|3:3,3:3:0:0:
208,211,26574,2,0,P|250:235|300:231,1,100,8|0,3:3|3:3,3:3:0:0:
437,99,26871,1,8,3:3:0:0:
432,133,26945,1,0,3:3:0:0:
428,168,27019,1,0,3:3:0:0:
424,203,27093,1,0,3:3:0:0:
420,238,27167,2,0,B|474:232|474:232|444:280|444:280|481:281|481:281|460:322|460:322|361:369,1,300,14|8,3:1|3:3,3:3:0:0:
92,291,27760,6,0,P|149:348|209:350,1,119.999996337891,4|0,3:1|3:3,3:3:0:0:
164,140,28055,1,8,3:3:0:0:
12,312,28203,2,0,P|42:224|171:259,1,239.999992675781,0|0,3:3|3:3,3:3:0:0:
385,280,28648,1,8,3:3:0:0:
438,72,28797,2,0,L|409:195,1,119.999996337891,0|0,3:3|3:3,3:3:0:0:
127,183,29093,1,0,3:3:0:0:
127,183,29167,1,0,3:3:0:0:
127,183,29241,2,0,L|237:135,1,119.999996337891,8|0,3:3|3:3,3:3:0:0:
17,154,29537,6,0,P|17:226|48:269,1,119.999996337891,4|0,3:2|3:3,3:3:0:0:
230,339,29834,1,8,3:3:0:0:
193,194,29982,1,0,3:3:0:0:
426,298,30130,1,0,3:3:0:0:
308,168,30278,1,0,3:3:0:0:
308,168,30352,1,0,3:3:0:0:
308,168,30426,2,0,P|370:180|418:221,1,119.999996337891,8|0,3:3|3:3,3:3:0:0:
230,339,30723,1,0,3:3:0:0:
189,328,30797,1,0,3:3:0:0:
154,306,30871,1,0,3:3:0:0:
128,273,30945,1,0,3:3:0:0:
113,234,31019,1,8,3:3:0:0:
43,328,31167,1,8,3:3:0:0:
64,97,31315,6,0,P|137:67|202:91,1,119.999996337891,4|0,3:1|3:3,3:3:0:0:
334,274,31611,1,8,3:3:0:0:
134,150,31760,6,0,P|207:180|272:156,1,119.999996337891,0|0,3:3|3:3,3:3:0:0:
421,41,32056,2,8,B|435:123|496:211|496:211|398:173,1,239.999992675781,0|4,3:2|3:2,3:3:0:0:
174,74,32500,1,0,3:3:0:0:
72,232,32648,1,0,3:3:0:0:
72,232,32723,1,0,3:3:0:0:
72,232,32797,2,0,P|58:151|87:119,1,119.999996337891,8|0,3:3|3:3,3:3:0:0:
360,120,33093,6,0,L|486:153,1,119.999996337891,4|0,3:2|3:3,3:3:0:0:
227,141,33389,1,8,3:3:0:0:
376,40,33537,1,0,3:3:0:0:
311,231,33685,1,0,3:3:0:0:
140,145,33834,1,0,3:3:0:0:
140,145,33908,1,0,3:3:0:0:
140,145,33982,2,0,P|178:72|225:57,1,119.999996337891,8|0,3:3|3:3,3:3:0:0:
132,345,34278,1,0,3:3:0:0:
88,352,34352,1,0,3:3:0:0:
51,329,34426,1,0,3:3:0:0:
37,287,34500,1,0,3:3:0:0:
55,247,34574,1,8,3:3:0:0:
278,330,34723,1,8,3:3:0:0:
278,330,34797,1,0,3:3:0:0:
278,330,34871,6,0,P|365:353|420:333,1,119.999996337891,4|0,3:1|3:3,3:3:0:0:
480,171,35167,1,8,3:3:0:0:
206,159,35315,2,0,B|173:135|180:83|232:58|266:97|266:97|303:134|365:120,1,239.999992675781,0|0,3:3|3:3,3:3:0:0:
482,294,35760,1,8,3:3:0:0:
266,290,35908,6,0,P|188:335|163:388,1,119.999996337891,0|0,3:3|3:3,3:3:0:0:
85,129,36204,1,0,3:3:0:0:
85,129,36278,1,0,3:3:0:0:
85,129,36352,2,0,P|130:206|183:231,1,119.999996337891,8|0,3:3|3:3,3:3:0:0:
271,70,36648,5,4,3:2:0:0:
217,173,36797,1,0,3:3:0:0:
413,77,36945,2,0,P|487:98|514:134,1,119.999996337891,8|0,3:3|3:3,3:3:0:0:
217,173,37241,1,0,3:3:0:0:
451,285,37389,1,0,3:3:0:0:
451,285,37463,1,0,3:3:0:0:
451,285,37537,2,0,P|429:210|393:183,1,119.999996337891,8|0,3:3|3:3,3:3:0:0:
80,257,37834,5,0,3:3:0:0:
82,276,37908,1,0,3:3:0:0:
90,295,37982,1,0,3:3:0:0:
102,311,38056,1,0,3:3:0:0:
138,335,38130,1,8,3:3:0:0:
183,337,38204,1,0,3:3:0:0:
223,318,38278,1,8,3:3:0:0:
252,284,38352,1,0,3:3:0:0:
264,236,38426,6,0,P|253:167|218:121,1,119.999996337891,4|0,3:1|3:3,3:3:0:0:
353,252,38723,1,8,3:3:0:0:
412,166,38871,2,0,L|478:66,1,119.999996337891,0|0,3:3|3:3,3:3:0:0:
199,199,39167,2,8,B|116:208|44:145|44:145|34:193|54:226,1,239.999992675781,0|4,3:3|3:2,3:3:0:0:
474,283,39611,5,0,3:3:0:0:
362,355,39760,2,0,B|312:285|358:209|358:209|305:194|237:224,1,239.999992675781,8|0,3:3|3:3,3:3:0:0:
345,115,40204,1,0,3:3:0:0:
152,198,40352,1,8,3:3:0:0:
268,60,40500,1,0,3:3:0:0:
374,276,40648,1,0,3:3:0:0:
185,119,40797,2,0,P|115:124|76:159,1,119.999996337891,8|0,3:3|3:3,3:3:0:0:
85,330,41093,2,0,P|219:299|277:225,1,179.999994506836,8|0,3:3|3:3,3:3:0:0:
284,176,41389,2,0,B|294:157|294:157|282:161|282:161|300:151|300:151|295:145|295:145|306:146|306:146|293:137|293:137|309:138|309:138|302:123|302:123|316:133|316:133|317:116|317:116|324:131|324:131|328:117|328:117|330:126|330:126|343:110|343:110|337:121|337:121|354:111,1,239.999992675781,2|2,3:3|3:1,3:3:0:0:
490,260,41834,1,0,3:3:0:0:
490,260,41908,1,0,3:3:0:0:
490,260,41982,6,0,P|446:305|347:324,1,150.000005722046,4|0,3:2|3:2,3:2:0:0:
102,242,42426,2,0,P|70:195|65:168,2,75.0000028610231,4|0|0,3:2|3:3|3:3,3:3:0:0:
322,173,42871,2,0,P|345:144|354:108,1,75.0000028610231,4|0,3:2|3:3,3:3:0:0:
238,258,43166,1,4,3:2:0:0:
238,258,43240,1,0,3:3:0:0:
238,258,43315,2,0,P|252:293|279:318,1,75.0000028610231,0|4,3:3|3:2,3:3:0:0:
239,104,43611,1,0,3:2:0:0:
239,104,43685,1,0,3:3:0:0:
239,104,43759,6,0,P|162:92|88:115,1,150.000005722046,4|0,3:2|3:3,3:3:0:0:
117,273,44204,2,0,P|83:304|48:320,2,75.0000028610231,4|0|0,3:2|3:3|3:3,3:3:0:0:
210,327,44648,2,0,L|244:242,1,75.0000028610231,4|0,3:2|3:3,3:3:0:0:
378,293,44945,1,4,3:2:0:0:
378,293,45019,1,0,3:3:0:0:
378,293,45093,1,0,3:3:0:0:
408,100,45241,1,4,3:2:0:0:
408,100,45389,1,0,3:3:0:0:
325,149,45537,6,0,P|258:123|168:145,1,150.000005722046,4|0,3:2|3:3,3:3:0:0:
325,55,45982,2,0,P|281:37|232:34,2,75.0000028610231,4|0|0,3:2|3:3|3:3,3:3:0:0:
414,190,46426,2,0,P|408:226|393:261,1,75.0000028610231,4|0,3:2|3:3,3:3:0:0:
237,275,46723,1,4,3:2:0:0:
237,275,46797,1,0,3:3:0:0:
237,275,46871,2,0,P|271:290|307:296,1,75.0000028610231,0|4,3:3|3:2,3:3:0:0:
263,123,47167,1,0,3:3:0:0:
263,123,47241,1,0,3:3:0:0:
263,123,47315,6,0,P|228:107|192:101,1,75.0000028610231,12|0,3:2|3:3,3:3:0:0:
67,166,47611,1,0,3:3:0:0:
237,275,47760,2,0,P|223:240|202:209,1,75.0000028610231,4|0,3:2|3:3,3:3:0:0:
67,166,48056,1,0,3:3:0:0:
110,362,48204,2,0,P|125:327|131:291,1,75.0000028610231,4|0,3:2|3:3,3:2:0:0:
237,146,48500,2,0,P|250:111|271:80,1,75.0000028610231,4|0,3:2|3:3,3:2:0:0:
434,165,48797,1,4,3:2:0:0:
439,201,48871,1,0,3:3:0:0:
433,238,48945,1,4,3:2:0:0:
415,271,49019,1,0,3:3:0:0:
388,297,49093,6,0,B|315:344|198:274|312:205|324:266,1,200,4|8,3:1|3:3,3:3:0:0:
320,255,49537,1,0,3:3:0:0:
231,189,49685,2,0,P|185:254|182:295,1,100,0|0,3:3|3:3,3:3:0:0:
163,184,49982,2,0,P|143:121|75:71,1,150,8|0,3:3|3:3,3:3:0:0:
38,79,50278,1,0,3:3:0:0:
59,66,50352,1,0,3:3:0:0:
82,57,50426,1,0,3:3:0:0:
107,51,50500,1,0,3:3:0:0:
132,50,50574,1,8,3:3:0:0:
232,104,50723,1,0,3:3:0:0:
311,196,50871,6,0,B|378:169|380:77|380:77|400:145,1,200,0|8,3:3|3:3,3:3:0:0:
443,293,51315,1,0,3:3:0:0:
302,371,51463,2,0,P|242:371|192:341,2,100,0|0|8,3:3|3:3|3:3,3:3:0:0:
87,343,52056,1,0,3:3:0:0:
78,319,52130,1,0,3:3:0:0:
74,294,52204,1,0,3:3:0:0:
74,269,52278,1,0,3:3:0:0:
79,245,52352,1,8,3:3:0:0:
168,165,52500,1,0,3:3:0:0:
172,278,52648,6,0,B|245:281|280:208|280:208|292:289,1,200,0|8,3:3|3:3,3:3:0:0:
417,308,53093,1,0,3:3:0:0:
462,170,53241,2,0,P|417:210|374:218,1,100,0|0,3:3|3:3,3:3:0:0:
384,137,53537,1,8,3:3:0:0:
384,137,53685,1,0,3:3:0:0:
487,63,53834,1,0,3:3:0:0:
462,59,53908,1,0,3:3:0:0:
437,58,53982,1,0,3:3:0:0:
412,60,54056,1,0,3:3:0:0:
387,65,54130,1,8,3:3:0:0:
293,130,54278,1,0,3:3:0:0:
222,230,54426,6,0,P|160:291|51:308,1,200,0|8,3:3|3:3,3:3:0:0:
233,341,54871,1,0,3:3:0:0:
111,261,55019,1,0,3:3:0:0:
317,275,55167,2,0,L|424:282,1,100,8|0,3:3|3:3,3:3:0:0:
245,204,55463,1,0,3:3:0:0:
245,204,55537,1,0,3:3:0:0:
245,204,55611,2,0,P|298:165|379:190,1,150,8|0,3:3|3:3,3:3:0:0:
386,212,55908,1,8,3:3:0:0:
398,190,55982,1,0,3:3:0:0:
405,166,56056,1,0,3:3:0:0:
405,141,56130,1,0,3:3:0:0:
400,117,56204,6,0,P|340:42|216:47,1,200,4|8,3:1|3:3,3:3:0:0:
137,106,56648,1,0,3:3:0:0:
77,220,56797,2,0,P|34:263|-8:275,1,100,0|0,3:3|3:3,3:3:0:0:
175,261,57093,2,0,P|252:216|318:144,1,150,8|0,3:3|3:3,3:3:0:0:
315,134,57389,1,0,3:3:0:0:
324,156,57463,1,0,3:3:0:0:
330,181,57537,1,0,3:3:0:0:
331,206,57611,1,0,3:3:0:0:
328,230,57685,1,8,3:3:0:0:
247,321,57834,1,0,3:3:0:0:
363,352,57982,6,0,B|421:332|458:249|458:249|462:330,1,200,0|8,3:3|3:3,3:3:0:0:
455,165,58426,1,0,3:3:0:0:
361,58,58574,2,0,P|312:26|257:12,2,100,0|0|8,3:3|3:3|3:3,3:3:0:0:
202,164,59167,1,0,3:3:0:0:
208,140,59241,1,0,3:3:0:0:
210,115,59315,1,0,3:3:0:0:
206,90,59389,1,0,3:3:0:0:
197,67,59463,1,8,3:3:0:0:
295,125,59611,1,0,3:3:0:0:
120,170,59760,6,0,P|75:221|140:325,1,200,0|8,3:3|3:3,3:3:0:0:
393,214,60204,1,0,3:3:0:0:
290,230,60352,1,0,3:3:0:0:
290,230,60500,1,0,3:3:0:0:
498,223,60648,1,8,3:3:0:0:
498,223,60797,1,0,3:3:0:0:
501,82,60945,1,0,3:3:0:0:
479,69,61019,1,0,3:3:0:0:
455,60,61093,1,0,3:3:0:0:
431,55,61167,1,0,3:3:0:0:
406,53,61241,1,8,3:3:0:0:
295,105,61389,1,0,3:3:0:0:
187,49,61537,6,0,B|120:26|95:32|95:32|149:89|142:168,1,200,0|8,3:3|3:3,3:3:0:0:
112,281,61982,1,0,3:3:0:0:
261,205,62130,2,0,P|322:218|351:253,2,100,0|0|8,3:3|3:3|3:3,3:3:0:0:
400,133,62723,1,0,3:3:0:0:
410,155,62797,1,0,3:3:0:0:
425,175,62871,1,0,3:3:0:0:
446,189,62945,1,0,3:3:0:0:
469,198,63019,1,8,3:3:0:0:
472,75,63167,1,8,3:3:0:0:
457,54,63241,1,0,3:3:0:0:
437,40,63315,6,4,B|340:2|332:88|230:66,1,200,4|8,3:1|3:3,3:1:0:0:
95,34,63760,1,0,3:3:0:0:
145,159,63908,2,0,L|186:257,2,100,0|0|8,3:3|3:3|3:3,3:3:0:0:
33,113,64500,1,0,3:3:0:0:
25,136,64574,1,0,3:3:0:0:
21,161,64648,1,0,3:3:0:0:
22,186,64722,1,0,3:3:0:0:
28,210,64796,1,8,3:3:0:0:
103,315,64945,1,0,3:3:0:0:
225,370,65093,6,0,B|312:384|358:306|358:306|362:357,1,200,0|8,3:3|3:3,3:3:0:0:
361,347,65537,1,0,3:3:0:0:
249,260,65685,1,0,3:3:0:0:
249,260,65834,1,0,3:3:0:0:
417,174,65982,1,8,3:3:0:0:
417,174,66130,1,0,3:3:0:0:
233,50,66278,1,0,3:3:0:0:
208,56,66352,1,0,3:3:0:0:
186,66,66426,1,0,3:3:0:0:
165,81,66500,1,0,3:3:0:0:
148,99,66574,1,8,3:3:0:0:
65,32,66723,1,0,3:3:0:0:
55,234,66871,6,0,P|127:323|233:321,1,200,0|8,3:3|3:3,3:3:0:0:
297,226,67315,1,0,3:3:0:0:
378,339,67463,2,0,P|463:352|488:341,2,100,0|0|8,3:3|3:3|3:3,3:3:0:0:
408,134,68056,1,0,3:3:0:0:
409,158,68130,1,0,3:3:0:0:
405,183,68204,1,0,3:3:0:0:
397,207,68278,1,0,3:3:0:0:
385,228,68352,1,8,3:3:0:0:
491,191,68500,1,0,3:3:0:0:
330,82,68648,6,0,P|261:140|330:159,1,200,0|8,3:3|3:3,3:3:0:0:
426,51,69093,1,0,3:3:0:0:
397,207,69241,2,0,P|359:240|301:254,2,100,0|0|8,3:3|3:3|3:3,3:3:0:0:
211,44,69834,1,0,3:3:0:0:
201,67,69908,1,0,3:3:0:0:
192,90,69982,1,0,3:3:0:0:
182,113,70056,1,0,3:3:0:0:
173,136,70130,1,8,3:3:0:0:
64,182,70278,1,8,3:3:0:0:
73,205,70352,1,0,3:3:0:0:
83,228,70426,6,0,P|141:269|183:266,1,100,4|0,3:1|3:3,3:3:0:0:
429,228,71019,2,0,P|371:269|329:266,1,100,4|0,3:1|3:3,3:3:0:0:
83,228,71611,2,0,P|141:269|183:266,1,100,4|0,3:1|3:3,3:3:0:0:
429,228,72204,2,0,P|371:269|329:266,1,100,8|0,3:3|3:3,3:3:0:0:
83,228,72500,2,0,P|141:269|183:266,1,100,8|0,3:3|3:3,3:3:0:0:
429,228,72797,1,8,3:3:0:0:
413,247,72871,1,0,3:3:0:0:
393,261,72945,1,0,3:3:0:0:
369,269,73019,1,0,3:3:0:0:
345,269,73093,2,0,B|268:267|263:220|272:189|272:189|283:150|277:107|217:85|160:103|150:164|181:212,1,350,4|0,3:1|3:3,3:3:0:0:
117,153,73685,5,8,3:3:0:0:
117,153,73760,1,0,3:3:0:0:
117,153,73834,1,0,3:3:0:0:
53,269,73982,5,0,3:2:0:0:
70,286,74056,1,0,3:3:0:0:
88,304,74130,1,0,3:3:0:0:
105,322,74204,1,0,3:3:0:0:
123,340,74278,1,0,3:3:0:0:
146,332,74352,1,0,3:3:0:0:
170,324,74426,1,0,3:3:0:0:
194,317,74500,1,0,3:3:0:0:
218,309,74574,1,0,3:3:0:0:
240,321,74648,1,0,3:3:0:0:
261,333,74723,1,0,3:3:0:0:
401,284,74871,5,8,3:3:0:0:
401,284,74945,1,0,3:3:0:0:
401,284,75019,1,0,3:3:0:0:
364,133,75167,5,0,3:3:0:0:
346,150,75241,1,0,3:3:0:0:
328,168,75315,1,0,3:3:0:0:
311,186,75389,1,0,3:3:0:0:
293,203,75463,1,0,3:3:0:0:
277,185,75537,1,0,3:3:0:0:
260,166,75611,1,0,3:3:0:0:
148,83,75760,6,0,P|89:93|138:127,1,150,2|0,3:2|3:2,3:2:0:0:
154,208,76056,2,0,P|70:198|21:147,1,150,0|0,3:3|3:3,3:3:0:0:
131,290,76352,2,0,P|210:271|241:206,1,150,2|0,3:2|3:3,3:3:0:0:
251,135,76648,2,0,P|314:189|304:267,1,150,0|0,3:3|3:3,3:3:0:0:
404,329,76945,2,0,L|467:292,1,50,2|0,3:2|3:3,3:3:0:0:
455,219,77093,2,0,L|486:152,1,50,2|0,3:2|3:3,3:3:0:0:
376,101,77241,2,0,L|350:32,1,50,2|0,3:2|3:3,3:3:0:0:
163,68,77389,2,0,L|96:37,1,50,2|0,3:2|3:3,3:3:0:0:
1,255,77537,6,0,P|33:321|86:340,1,119.999996337891,4|0,3:1|3:3,3:3:0:0:
209,193,77834,1,8,3:3:0:0:
357,333,77982,2,0,P|452:274|454:111,1,239.999992675781,0|0,3:3|3:3,3:3:0:0:
264,33,78426,1,8,3:3:0:0:
360,162,78574,1,0,3:3:0:0:
98,89,78723,1,0,3:3:0:0:
222,279,78871,1,0,3:3:0:0:
222,279,78945,1,0,3:3:0:0:
222,279,79019,2,0,P|305:309|361:285,1,119.999996337891,8|0,3:3|3:3,3:3:0:0:
389,61,79315,5,4,3:2:0:0:
453,162,79463,1,0,3:3:0:0:
265,61,79611,2,0,P|186:56|107:86,1,119.999996337891,8|0,3:3|3:3,3:3:0:0:
31,268,79908,1,0,3:3:0:0:
225,159,80056,1,0,3:3:0:0:
225,159,80130,1,0,3:3:0:0:
225,159,80204,2,0,P|303:172|373:219,1,119.999996337891,8|0,3:3|3:3,3:3:0:0:
183,353,80500,5,0,3:3:0:0:
138,336,80574,1,0,3:3:0:0:
113,296,80648,1,0,3:3:0:0:
118,249,80722,1,0,3:3:0:0:
136,204,80796,1,8,3:3:0:0:
145,158,80870,1,0,3:3:0:0:
129,114,80944,1,8,3:3:0:0:
228,273,81093,6,0,P|295:325|376:335,1,119.999996337891,4|0,3:1|3:1,3:1:0:0:
467,212,81389,1,8,3:3:0:0:
252,349,81537,2,0,P|174:344|128:309,1,119.999996337891,0|0,3:3|3:3,3:3:0:0:
98,99,81834,2,4,P|153:148|139:50,1,239.999992675781,0|4,3:2|3:2,3:2:0:0:
78,262,82278,1,0,3:3:0:0:
229,206,82426,1,0,3:3:0:0:
229,206,82500,1,0,3:3:0:0:
229,206,82574,2,0,L|343:258,1,119.999996337891,8|0,3:3|3:3,3:3:0:0:
68,344,82871,6,0,P|25:329|-3:261,1,119.999996337891,4|0,3:2|3:3,3:3:0:0:
199,328,83167,1,8,3:3:0:0:
101,147,83315,1,0,3:3:0:0:
111,254,83463,1,0,3:3:0:0:
219,57,83611,1,0,3:3:0:0:
219,57,83685,1,0,3:3:0:0:
219,57,83760,2,0,P|257:142|284:157,1,119.999996337891,8|0,3:3|3:3,3:3:0:0:
455,65,84056,5,0,3:3:0:0:
475,107,84130,1,0,3:3:0:0:
481,155,84204,1,0,3:3:0:0:
470,201,84278,1,0,3:3:0:0:
445,242,84352,1,8,3:3:0:0:
176,343,84500,1,8,3:3:0:0:
176,343,84574,1,0,3:3:0:0:
176,343,84648,6,0,L|236:232,1,119.999996337891,4|0,3:1|3:3,3:3:0:0:
184,40,84945,1,8,3:3:0:0:
384,125,85093,2,0,P|213:158|146:196,1,239.999992675781,0|0,3:3|3:3,3:3:0:0:
4,321,85537,1,8,3:3:0:0:
288,358,85685,2,0,P|352:340|394:296,1,119.999996337891,0|0,3:3|3:3,3:3:0:0:
384,125,85982,1,0,3:3:0:0:
384,125,86056,1,0,3:3:0:0:
384,125,86130,2,0,P|366:189|322:231,1,119.999996337891,8|0,3:3|3:3,3:3:0:0:
280,35,86426,5,4,3:2:0:0:
198,231,86574,1,0,3:3:0:0:
132,81,86723,2,0,L|-4:141,1,119.999996337891,8|0,3:3|3:3,3:3:0:0:
246,135,87019,1,0,3:3:0:0:
197,359,87167,1,0,3:3:0:0:
197,359,87241,1,0,3:3:0:0:
197,359,87315,2,0,P|266:363|316:328,1,119.999996337891,8|0,3:3|3:3,3:3:0:0:
444,167,87611,5,0,3:3:0:0:
422,209,87685,1,0,3:3:0:0:
386,241,87759,1,0,3:3:0:0:
341,258,87833,1,0,3:3:0:0:
294,258,87908,2,8,P|225:244|182:204,1,119.999996337891,8|8,3:3|3:3,3:3:0:0:
79,343,88204,6,0,P|56:251|67:205,1,119.999996337891,4|0,3:1|3:3,3:3:0:0:
178,84,88500,1,8,3:3:0:0:
12,146,88648,2,0,P|71:144|127:165,1,119.999996337891,0|0,3:3|3:3,3:3:0:0:
347,319,88945,2,0,P|427:313|340:270,1,239.999992675781,0|4,3:2|3:2,3:3:0:0:
166,349,89389,6,0,P|118:315|108:257,1,119.999996337891,0|0,3:3|3:3,3:3:0:0:
226,17,89685,2,0,P|273:50|283:108,1,119.999996337891,8|4,3:3|3:2,3:3:0:0:
254,168,89908,1,0,3:3:0:0:
226,231,89982,2,0,P|221:289|258:333,1,119.999996337891,0|8,3:3|3:3,3:3:0:0:
410,148,90278,1,0,3:3:0:0:
496,310,90426,1,0,3:1:0:0:
484,102,90574,6,0,P|429:66|369:71,1,119.999996337891,8|0,3:3|3:3,3:3:0:0:
415,274,90871,1,8,3:3:0:0:
231,257,91019,1,0,3:3:0:0:
303,37,91167,2,0,B|291:109|310:170|310:170|278:155|240:145,1,179.999994506836,8|0,3:3|3:3,3:3:0:0:
132,200,91463,2,0,P|109:287|191:356,1,179.999994506836,8|0,3:3|3:3,3:3:0:0:
310,322,91760,6,0,P|368:350|424:348,1,100,8|0,3:2|3:3,3:3:0:0:
499,197,92056,2,0,P|469:237|426:262,1,100,8|0,3:3|3:3,3:3:0:0:
318,155,92352,2,0,P|347:114|390:89,1,100,0|0,3:3|3:3,3:3:0:0:
204,91,92648,2,0,P|175:132|132:157,1,100,8|0,3:3|3:3,3:3:0:0:
47,52,92945,1,0,3:3:0:0:
65,270,93093,1,0,3:3:0:0:
65,270,93167,1,0,3:3:0:0:
65,270,93241,2,0,P|123:329|166:342,1,100,8|0,3:3|3:2,3:3:0:0:
223,306,93463,1,0,3:3:0:0:
223,306,93537,6,0,P|297:338|334:341,1,100,8|0,3:2|3:3,3:3:0:0:
439,184,93834,2,0,P|359:207|328:245,1,100,8|0,3:3|3:3,3:3:0:0:
144,115,94130,1,0,3:3:0:0:
309,67,94278,1,0,3:3:0:0:
309,67,94352,1,0,3:3:0:0:
309,67,94426,2,0,P|267:133|263:168,1,100,8|0,3:3|3:3,3:3:0:0:
90,258,94723,1,0,3:3:0:0:
101,280,94797,1,0,3:3:0:0:
117,299,94871,1,0,3:3:0:0:
137,314,94945,1,0,3:3:0:0:
160,324,95019,2,0,B|204:333|204:333|194:322|194:322|228:327|228:327|215:319|215:319|290:331,1,150,8|0,3:3|3:3,3:3:0:0:
334,337,95315,6,0,P|274:279|261:253,1,100,8|0,3:2|3:3,3:3:0:0:
444,123,95611,2,0,P|423:203|407:228,1,100,8|0,3:3|3:3,3:3:0:0:
265,46,95908,1,0,3:3:0:0:
323,174,96056,1,0,3:3:0:0:
145,94,96204,1,8,3:3:0:0:
377,286,96352,1,0,3:3:0:0:
112,262,96500,1,0,3:3:0:0:
232,168,96648,1,0,3:3:0:0:
232,168,96723,1,0,3:3:0:0:
232,168,96797,2,0,P|256:235|288:256,1,100,8|0,3:3|3:3,3:3:0:0:
395,176,97019,1,0,3:3:0:0:
395,176,97093,6,0,P|459:204|477:231,1,100,8|0,3:2|3:3,3:3:0:0:
294,341,97389,2,0,L|191:373,1,100,8|0,3:3|3:3,3:3:0:0:
0,284,97685,2,0,L|91:331,1,100,0|0,3:3|3:3,3:3:0:0:
259,183,97908,1,0,3:3:0:0:
259,183,97982,2,0,L|201:268,1,100,8|0,3:3|3:3,3:3:0:0:
178,59,98278,1,0,3:3:0:0:
153,56,98352,1,0,3:3:0:0:
128,61,98426,1,0,3:3:0:0:
106,73,98500,1,0,3:3:0:0:
88,90,98574,2,0,B|75:122|75:122|55:122|55:122|35:168|59:194,1,100,8|8,3:3|3:3,3:3:0:0:
51,189,98797,1,0,3:3:0:0:
64,219,98871,6,0,P|81:283|66:321,1,100,4|0,3:2|3:3,3:3:0:0:
235,197,99167,2,0,P|224:148|241:102,1,100,8|0,3:3|3:3,3:3:0:0:
482,267,99463,2,0,P|392:353|298:347,1,200,0|8,3:3|3:3,3:3:0:0:
309,239,99908,2,0,P|343:273|389:258,1,100,0|0,3:3|3:3,3:3:0:0:
440,77,100204,1,0,3:3:0:0:
440,77,100278,1,0,3:3:0:0:
440,77,100352,2,0,P|406:43|361:59,1,100,8|0,3:3|3:3,3:3:0:0:
220,301,100648,6,0,P|155:339|98:337,1,100,4|0,3:2|3:3,3:3:0:0:
87,153,100945,2,0,P|32:100|18:45,1,100,8|0,3:3|3:3,3:3:0:0:
355,199,101241,2,0,P|461:139|452:33,1,200,0|8,3:3|3:3,3:3:0:0:
366,286,101685,1,0,3:3:0:0:
492,257,101834,1,0,3:2:0:0:
489,294,101908,1,0,3:3:0:0:
474,328,101982,1,0,3:3:0:0:
451,357,102056,1,0,3:3:0:0:
419,377,102130,2,0,B|330:352|264:376,1,150,8|0,3:3|3:3,3:3:0:0:
76,368,102426,6,0,L|166:291,1,100,4|0,3:2|3:3,3:3:0:0:
297,91,102723,2,0,L|179:56,1,100,8|0,3:3|3:3,3:3:0:0:
298,329,103019,2,0,P|399:319|486:232,1,200,0|8,3:3|3:3,3:3:0:0:
430,109,103463,2,0,P|406:173|374:207,2,100,0|0|4,3:3|3:3|3:2,3:3:0:0:
218,199,103908,1,0,3:3:0:0:
321,57,104056,1,4,3:2:0:0:
321,57,104130,1,0,3:3:0:0:
321,57,104204,5,0,3:2:0:0:
79,247,104352,2,0,P|51:120|63:52,1,200,8|0,3:3|3:3,3:3:0:0:
126,280,104797,2,0,P|165:156|209:103,1,200,8|0,3:3|3:3,3:3:0:0:
159,320,105241,2,8,P|226:257|272:241,2,100,8|8|0,3:3|3:3|3:1,3:3:0:0:
421,144,105685,1,8,3:3:0:0:
428,193,105759,1,0,3:3:0:0:
420,242,105833,1,0,3:3:0:0:
399,287,105907,1,0,3:3:0:0:
364,323,105982,6,0,P|238:340|173:284,1,150.000005722046,4|4,3:1|3:1,3:3:0:0:
56,62,106426,2,4,P|39:134|65:203,1,150.000005722046,4|4,3:1|3:1,3:1:0:0:
390,24,106871,2,0,P|406:96|380:165,1,150.000005722046,4|0,3:1|3:3,3:3:0:0:
149,42,107315,5,4,3:1:0:0:
250,331,107463,1,4,3:1:0:0:
261,59,107611,1,4,3:1:0:0:
147,382,107760,2,4,L|216:189,1,150.000005722046,8|0,3:3|3:1,3:1:0:0:
