osu file format v14

[General]
AudioFilename: audio.mp3
AudioLeadIn: 0
PreviewTime: 75852
Countdown: 0
SampleSet: Soft
StackLeniency: 1
Mode: 0
LetterboxInBreaks: 0
WidescreenStoryboard: 0

[Editor]
Bookmarks: 13205,31558,42852,54146,76734,93675,109205,120499,131793,154381,171322,186852,198146,212263,236263
DistanceSpacing: 0.13
BeatDivisor: 2
GridSize: 4
TimelineZoom: 1.4

[Metadata]
Title:Theater Endroll
TitleUnicode:テアトル・エンドロール
Artist:Minagu feat. Aitsuki Nakuru
ArtistUnicode:ミナグ feat. 藍月なくる
Creator:Hinsvar
Version:Insane
Source:
Tags:クラリムステラ Qulalimstella Nacollection!! 2 Japanese Pop J-Pop JPop Featured Artist FA Mappers' Guild MPG
BeatmapID:2780448
BeatmapSetID:1342280

[Difficulty]
HPDrainRate:5
CircleSize:4.1
OverallDifficulty:7
ApproachRate:8.7
SliderMultiplier:1.68
SliderTickRate:1

[Events]
//Background and Video events
0,0,"endroll.jpg",0,0
//Break Periods
2,31758,42207
2,109405,119854
2,187052,197501
//Storyboard Layer 0 (Background)
//Storyboard Layer 1 (Fail)
//Storyboard Layer 2 (Pass)
//Storyboard Layer 3 (Foreground)
//Storyboard Layer 4 (Overlay)
//Storyboard Sound Samples

[TimingPoints]
1911,352.941176470588,4,2,1,20,1,0
13205,-250,4,2,1,20,0,0
18146,-142.857142857143,4,2,1,60,0,0
18763,-142.857142857143,4,2,1,5,0,0
18852,-100,4,2,1,70,0,0
19734,-166.666666666667,4,2,1,70,0,0
20087,-100,4,2,1,70,0,0
21322,-142.857142857143,4,2,1,70,0,0
21675,-250.000000000001,4,2,1,70,0,0
22381,-142.857142857143,4,2,1,70,0,0
22910,-100,4,2,1,70,0,0
24499,-166.666666666667,4,2,1,70,0,0
25028,-100,4,2,1,75,0,0
25558,-333.333333333333,4,2,1,75,0,0
25822,-333.333333333333,4,2,1,5,0,0
25910,-83.3333333333333,4,2,1,75,0,0
26440,-125,4,2,1,75,0,0
26969,-333.333333333333,4,2,1,75,0,0
27234,-333.333333333333,4,2,1,5,0,0
27322,-62.5,4,2,1,80,0,0
27852,-100,4,2,1,80,0,0
28116,-100,4,2,1,5,0,0
28205,-125,4,2,1,80,0,0
28469,-125,4,2,1,5,0,0
28558,-166.666666666667,4,2,4,70,0,0
29881,-166.666666666667,4,2,4,5,0,0
29969,-666.666666666667,4,2,4,50,0,0
31469,-666.666666666667,4,2,4,5,0,0
31558,352.941176470588,4,2,1,50,1,0
42852,-250.000000000001,4,2,2,50,0,0
49116,-250.000000000001,4,2,2,5,0,0
49205,-166.666666666667,4,2,2,55,0,0
49822,-166.666666666667,4,2,2,5,0,0
49910,-250.000000000001,4,2,2,55,0,0
51322,-166.666666666667,4,2,2,55,0,0
52734,-333.333333333333,4,2,2,55,0,0
53352,-333.333333333333,4,2,2,5,0,0
53440,-142.857142857143,4,2,2,60,0,0
54057,-142.857142857143,4,2,2,5,0,0
54146,-100,4,2,1,60,0,0
54322,-100,4,2,1,70,0,0
55028,-166.666666666667,4,2,1,70,0,0
55381,-100,4,2,1,70,0,0
57146,-166.666666666667,4,2,1,70,0,0
57675,-125,4,2,1,70,0,0
58205,-83.3333333333333,4,2,1,70,0,0
58910,-100,4,2,1,70,0,0
59793,-250,4,2,1,65,0,0
61557,-100,4,2,1,65,0,0
61822,-100,4,2,1,5,0,0
61910,-125,4,2,1,65,0,0
62175,-125,4,2,1,5,0,0
62263,-166.666666666667,4,2,1,65,0,0
62528,-166.666666666667,4,2,1,5,0,0
62616,-166.666666666667,4,2,1,65,0,0
64028,-100,4,2,1,65,0,0
64469,-100,4,2,1,5,0,0
64557,-166.666666666667,4,2,1,65,0,0
64822,-166.666666666667,4,2,1,5,0,0
64910,-111.111111111111,4,2,1,65,0,0
64999,-111.111111111111,4,2,1,5,0,0
65087,-83.3333333333334,4,2,1,45,0,0
65352,-83.3333333333334,4,2,1,5,0,0
65440,-100,4,2,1,70,0,0
65969,-166.666666666667,4,2,1,70,0,0
66322,-125,4,2,1,70,0,0
66675,-100,4,2,1,70,0,0
67910,-125,4,2,1,70,0,0
68263,-166.666666666667,4,2,1,70,0,0
68969,-125,4,2,1,70,0,0
69499,-100,4,2,1,70,0,0
70205,-83.3333333333333,4,2,1,70,0,0
70293,-83.3333333333333,4,2,1,5,0,0
70557,-83.3333333333333,4,2,1,70,0,0
70646,-83.3333333333333,4,2,1,5,0,0
70910,-166.666666666667,4,2,1,60,0,0
71352,-166.666666666667,4,2,1,5,0,0
71440,-166.666666666667,4,2,1,60,0,0
71705,-166.666666666667,4,2,1,5,0,0
71793,-166.666666666667,4,2,1,60,0,0
72410,-166.666666666667,4,2,1,5,0,0
72499,-100,4,2,1,60,0,0
73205,-125,4,2,1,60,0,0
73557,-166.666666666667,4,2,1,60,0,0
73822,-166.666666666667,4,2,1,5,0,0
73910,-500.000000000003,4,2,1,60,0,0
75234,-500.000000000003,4,2,1,5,0,0
75322,-166.666666666667,4,2,1,60,0,0
76381,-166.666666666667,4,2,1,50,0,0
76646,-166.666666666667,4,2,1,5,0,0
76734,-83.3333333333333,4,2,1,80,0,1
77440,-125,4,2,1,80,0,1
78057,-125,4,2,1,5,0,1
78146,-100,4,2,1,80,0,1
80087,-166.666666666667,4,2,1,80,0,1
80793,-83.3333333333333,4,2,1,80,0,1
81675,-100,4,2,1,80,0,1
82381,-166.666666666667,4,2,1,80,0,1
82910,-100,4,2,1,80,0,1
84410,-100,4,2,1,5,0,1
84499,-100,4,2,1,80,0,1
85205,-83.3333333333333,4,2,1,80,0,1
85734,-100,4,2,1,80,0,1
86263,-125,4,2,1,80,0,1
86616,-83.3333333333333,4,2,1,80,0,1
87322,-100,4,2,1,80,0,1
88028,-250,4,2,1,80,0,1
88557,-100,4,2,1,80,0,1
89087,-125,4,2,1,80,0,1
89352,-125,4,2,1,5,0,1
89440,-125,4,2,1,80,0,1
89616,-100,4,2,1,80,0,1
90852,-83.3333333333333,4,2,1,80,0,1
91381,-125,4,2,1,80,0,1
91910,-100,4,2,1,80,0,1
92881,-100,4,2,1,5,0,1
92969,-100,4,2,1,80,0,1
93675,-125,4,2,1,80,0,1
94205,-100,4,2,1,80,0,1
94734,-125,4,2,1,80,0,1
95087,-83.3333333333333,4,2,1,80,0,1
96499,-71.4285714285714,4,2,1,80,0,1
97557,-100,4,2,1,80,0,1
97822,-100,4,2,1,5,0,1
97910,-100,4,2,1,80,0,1
100381,-166.666666666667,4,2,1,80,0,1
100646,-166.666666666667,4,2,1,5,0,1
100734,-83.3333333333333,4,2,1,80,0,1
101263,-100,4,2,1,80,0,1
101793,-125,4,2,1,80,0,1
102146,-100,4,2,1,80,0,1
102852,-166.666666666667,4,2,1,80,0,1
103205,-125,4,2,1,80,0,1
103469,-125,4,2,1,5,0,1
103557,-100,4,2,1,80,0,1
104175,-100,4,2,1,5,0,1
104263,-100,4,2,1,80,0,1
104881,-100,4,2,1,5,0,1
104969,-125,4,2,1,80,0,1
105587,-125,4,2,1,5,0,1
105675,-83.3333333333333,4,2,1,80,0,1
106028,-100,4,2,1,80,0,1
106293,-100,4,2,1,5,0,1
106381,-100,4,2,1,80,0,1
106910,-100,4,2,1,80,0,1
107440,-125,4,2,1,80,0,1
107793,-125,4,2,1,60,0,0
108852,-250,4,2,1,60,0,0
109205,352.941176470588,4,2,1,50,1,0
120499,-250,4,2,2,50,0,0
126763,-250,4,2,2,5,0,0
126852,-166.666666666667,4,2,2,55,0,0
127469,-166.666666666667,4,2,2,5,0,0
127557,-250.000000000001,4,2,2,55,0,0
128969,-166.666666666667,4,2,2,55,0,0
130381,-250.000000000001,4,2,2,55,0,0
130999,-250.000000000001,4,2,2,5,0,0
131087,-142.857142857143,4,2,2,60,0,0
131793,-100,4,2,1,60,0,0
131969,-100,4,2,1,70,0,0
132675,-166.666666666667,4,2,1,70,0,0
133028,-100,4,2,1,70,0,0
134793,-166.666666666667,4,2,1,70,0,0
135322,-125,4,2,1,70,0,0
135852,-83.3333333333333,4,2,1,70,0,0
136557,-100,4,2,1,70,0,0
137440,-250,4,2,1,65,0,0
139204,-100,4,2,1,65,0,0
139469,-100,4,2,1,5,0,0
139557,-125,4,2,1,65,0,0
139822,-125,4,2,1,5,0,0
139910,-166.666666666667,4,2,1,65,0,0
140175,-166.666666666667,4,2,1,5,0,0
140263,-166.666666666667,4,2,1,65,0,0
141675,-100,4,2,1,65,0,0
142116,-100,4,2,1,5,0,0
142204,-166.666666666667,4,2,1,65,0,0
142469,-166.666666666667,4,2,1,5,0,0
142557,-111.111111111111,4,2,1,65,0,0
142646,-111.111111111111,4,2,1,5,0,0
142734,-83.3333333333334,4,2,1,45,0,0
142999,-83.3333333333334,4,2,1,5,0,0
143087,-100,4,2,1,70,0,0
143616,-166.666666666667,4,2,1,70,0,0
143969,-125,4,2,1,70,0,0
144322,-100,4,2,1,70,0,0
145557,-125,4,2,1,70,0,0
145910,-166.666666666667,4,2,1,70,0,0
146616,-125,4,2,1,70,0,0
147146,-100,4,2,1,70,0,0
147852,-83.3333333333333,4,2,1,70,0,0
147940,-83.3333333333333,4,2,1,5,0,0
148204,-83.3333333333333,4,2,1,70,0,0
148293,-83.3333333333333,4,2,1,5,0,0
148557,-166.666666666667,4,2,1,60,0,0
148999,-166.666666666667,4,2,1,5,0,0
149087,-166.666666666667,4,2,1,60,0,0
149352,-166.666666666667,4,2,1,5,0,0
149440,-166.666666666667,4,2,1,60,0,0
150057,-166.666666666667,4,2,1,5,0,0
150146,-100,4,2,1,60,0,0
150852,-125,4,2,1,60,0,0
151204,-166.666666666667,4,2,1,60,0,0
151469,-166.666666666667,4,2,1,5,0,0
151557,-500.000000000003,4,2,1,60,0,0
152881,-500.000000000003,4,2,1,5,0,0
152969,-166.666666666667,4,2,1,60,0,0
154028,-166.666666666667,4,2,1,50,0,0
154293,-166.666666666667,4,2,1,5,0,0
154381,-83.3333333333333,4,2,1,80,0,1
155087,-125,4,2,1,80,0,1
155704,-125,4,2,1,5,0,1
155793,-100,4,2,1,80,0,1
157734,-166.666666666667,4,2,1,80,0,1
158440,-83.3333333333333,4,2,1,80,0,1
159322,-100,4,2,1,80,0,1
160028,-166.666666666667,4,2,1,80,0,1
160557,-100,4,2,1,80,0,1
162057,-100,4,2,1,5,0,1
162146,-100,4,2,1,80,0,1
162852,-83.3333333333333,4,2,1,80,0,1
163381,-100,4,2,1,80,0,1
163910,-125,4,2,1,80,0,1
164263,-83.3333333333333,4,2,1,80,0,1
164969,-100,4,2,1,80,0,1
165675,-250,4,2,1,80,0,1
166204,-100,4,2,1,80,0,1
166734,-125,4,2,1,80,0,1
166999,-125,4,2,1,5,0,1
167087,-125,4,2,1,80,0,1
167263,-100,4,2,1,80,0,1
168499,-83.3333333333333,4,2,1,80,0,1
169028,-125,4,2,1,80,0,1
169557,-100,4,2,1,80,0,1
170263,-100,4,2,1,80,0,1
170528,-100,4,2,1,5,0,1
170616,-100,4,2,1,80,0,1
171322,-125,4,2,1,80,0,1
171852,-100,4,2,1,80,0,1
172381,-125,4,2,1,80,0,1
172734,-83.3333333333333,4,2,1,80,0,1
174146,-71.4285714285714,4,2,1,80,0,1
175204,-100,4,2,1,80,0,1
175469,-100,4,2,1,5,0,1
175557,-100,4,2,1,80,0,1
178028,-166.666666666667,4,2,1,80,0,1
178293,-166.666666666667,4,2,1,5,0,1
178381,-83.3333333333333,4,2,1,80,0,1
178910,-100,4,2,1,80,0,1
179440,-125,4,2,1,80,0,1
179793,-100,4,2,1,80,0,1
180499,-166.666666666667,4,2,1,80,0,1
180852,-125,4,2,1,80,0,1
181116,-125,4,2,1,5,0,1
181204,-100,4,2,1,80,0,1
181822,-100,4,2,1,5,0,1
181910,-100,4,2,1,80,0,1
182528,-100,4,2,1,5,0,1
182616,-125,4,2,1,80,0,1
183234,-125,4,2,1,5,0,1
183322,-83.3333333333333,4,2,1,80,0,1
183675,-100,4,2,1,80,0,1
183940,-100,4,2,1,5,0,1
184028,-83.3333333333333,4,2,1,80,0,1
184557,-100,4,2,1,80,0,1
185087,-125,4,2,1,80,0,1
185440,-125,4,2,1,60,0,0
186499,-250,4,2,1,60,0,0
186852,352.941176470588,4,2,1,60,1,0
198146,-250.000000000001,4,2,1,60,0,0
208028,-166.666666666667,4,2,1,60,0,0
210852,-166.666666666667,4,2,1,60,0,0
211910,-166.666666666667,4,2,1,50,0,0
212175,-166.666666666667,4,2,1,5,0,0
212263,352.941176470588,4,2,1,80,1,1
212263,-83.3333333333333,4,2,1,80,0,1
212968,-125,4,2,1,80,0,1
213586,-125,4,2,1,5,0,1
213674,-100,4,2,1,80,0,1
215615,-166.666666666667,4,2,1,80,0,1
216321,-83.3333333333333,4,2,1,80,0,1
217204,-100,4,2,1,80,0,1
217910,-166.666666666667,4,2,1,80,0,1
218439,-100,4,2,1,80,0,1
219939,-100,4,2,1,5,0,1
220027,-100,4,2,1,80,0,1
220733,-83.3333333333333,4,2,1,80,0,1
221263,-100,4,2,1,80,0,1
221792,-125,4,2,1,80,0,1
222145,-83.3333333333333,4,2,1,80,0,1
222851,-100,4,2,1,80,0,1
223557,-250,4,2,1,80,0,1
224086,-100,4,2,1,80,0,1
224615,-125,4,2,1,80,0,1
224880,-125,4,2,1,5,0,1
224968,-125,4,2,1,80,0,1
225145,-100,4,2,1,80,0,1
226380,-83.3333333333333,4,2,1,80,0,1
226910,-125,4,2,1,80,0,1
227439,-100,4,2,1,80,0,1
228145,-125,4,2,1,80,0,1
228410,-125,4,2,1,5,0,1
228498,-125,4,2,1,80,0,1
229204,-125,4,2,1,80,0,1
229733,-100,4,2,1,80,0,1
230263,-125,4,2,1,80,0,1
230615,-83.3333333333333,4,2,1,80,0,1
232027,-71.4285714285714,4,2,1,80,0,1
232557,-71.4285714285714,4,2,1,80,0,1
232645,-71.4285714285714,4,2,1,5,0,1
232910,-71.4285714285714,4,2,1,80,0,1
232998,-71.4285714285714,4,2,1,5,0,1
233263,-250,4,2,1,75,0,0
235910,-250,4,2,3,60,0,0

[Colours]
Combo1 : 253,222,74
Combo2 : 134,197,249
Combo3 : 160,147,236
Combo4 : 105,232,235

[HitObjects]
110,186,13205,5,2,0:0:0:0:
113,199,13734,1,2,0:0:0:0:
117,212,14263,1,2,0:0:0:0:
227,294,14616,2,0,P|234:263|240:218,2,67.2,2|2|2,0:0|0:0|0:0,0:0:0:0:
163,340,15499,1,2,0:0:0:0:
163,340,16028,2,0,P|202:321|261:312,2,100.8,2|2|2,0:0|0:0|0:0,0:0:0:0:
76,374,18146,5,2,0:0:0:0:
61,383,18322,2,0,P|25:360|22:264,1,146.999995513916,2|0,0:0|0:0,0:0:0:0:
22,164,18852,6,0,B|91:217|91:217|191:193,2,168,4|8|2,3:2|0:0|0:0,0:0:0:0:
73,294,19734,2,0,P|82:273|91:240,1,50.3999984619141,0|8,3:0|0:0,0:0:0:0:
202,91,20087,2,0,P|244:133|252:244,1,168,2|0,0:0|0:0,0:0:0:0:
436,354,20616,2,0,P|437:254|490:191,1,168,8|0,0:0|0:0,0:0:0:0:
338,294,21146,1,2,0:0:0:0:
307,149,21322,2,0,P|285:137|227:138,1,58.7999982055665,8|0,0:0|0:0,0:0:0:0:
157,261,21675,6,0,P|176:260|200:253,2,33.6,2|0|8,0:0|0:0|0:0,0:0:0:0:
35,317,22205,1,2,0:0:0:0:
29,336,22293,1,2,0:0:0:0:
39,352,22381,2,0,P|61:288|56:235,1,117.599996411133,2|8,0:0|0:0,0:0:0:0:
248,125,22910,2,0,P|199:50|122:9,1,168,2|0,0:0|3:0,0:0:0:0:
29,130,23440,1,8,0:0:0:0:
189,290,23616,2,0,P|240:227|277:128,1,168,2|0,0:0|0:0,0:0:0:0:
233,34,24146,1,8,0:0:0:0:
233,34,24499,6,0,P|259:34|293:49,1,50.3999984619141,2|0,3:2|0:0,0:0:0:0:
356,108,24852,1,8,0:0:0:0:
304,289,25028,2,0,P|234:340|154:305,1,168,2|0,0:0|0:0,0:0:0:0:
91,175,25558,6,0,B|90:191|90:191|85:213,1,37.7999988464356,8|0,0:0|0:0,0:0:0:0:
103,242,25910,6,0,P|115:202|113:134,1,100.799996923828,2|0,0:0|3:0,0:0:0:0:
68,59,26263,1,8,0:0:0:0:
233,19,26440,2,0,P|306:23|373:62,1,134.4,2|0,0:0|3:0,0:0:0:0:
326,235,26969,6,0,B|313:218|313:218|309:192,1,37.7999988464356,10|0,0:0|0:0,0:0:0:0:
298,116,27322,6,0,P|286:164|216:216,1,134.4,2|0,3:2|0:0,0:0:0:0:
138,51,27675,1,8,0:0:0:0:
12,207,27852,6,0,P|29:236|124:276,1,126,2|0,0:0|0:0,0:0:0:0:
153,365,28205,2,0,P|193:324|250:321,1,100.8,2|0,0:0|0:0,0:0:0:0:
234,317,28558,6,0,B|292:357|366:345|422:292|458:203|368:143|292:176|302:241,1,377.999988464356,2|0,0:0|0:0,0:0:0:0:
294,235,29969,5,2,0:0:0:0:
286,234,30058,1,2,0:0:0:0:
277,230,30146,2,0,P|263:198|265:135,1,94.4999971160889,2|0,0:0|0:0,0:0:0:0:
263,138,31558,5,2,0:0:0:0:
341,129,42852,5,2,3:2:0:0:
341,129,43205,2,0,P|346:104|351:82,2,33.6,10|0|2,0:0|0:0|3:2,0:0:0:0:
278,220,43734,2,0,P|270:188|246:148,2,67.2,2|2|0,0:0|0:0|0:0,0:0:0:0:
241,297,44616,1,8,0:0:0:0:
49,258,44969,2,0,P|98:217|173:228,1,134.4,0|2,3:0|0:3,0:0:0:0:
275,337,46028,6,0,P|296:345|314:348,1,33.6,10|0,0:0|0:0,0:0:0:0:
406,277,46381,1,2,3:2:0:0:
406,277,46557,2,0,P|367:265|331:265,1,67.2,2|0,0:0|0:0,0:0:0:0:
255,138,47263,2,0,P|264:115|269:98,2,33.6,2|2|0,0:0|0:0|0:0,0:0:0:0:
136,84,47793,2,0,P|156:55|190:33,1,67.2,2|10,3:2|0:0,0:0:0:0:
286,3,48322,1,0,0:0:0:0:
393,89,48499,6,0,P|421:91|497:43,1,117.6,2|0,3:2|0:0,0:0:0:0:
492,24,49205,2,0,P|464:129|462:205,1,176.399994616699,2|0,3:2|0:0,0:0:0:0:
501,270,49910,6,0,P|497:309|484:340,1,67.2,2|0,0:0|0:0,0:0:0:0:
352,209,50616,2,0,P|329:234|301:252,1,67.2,2|8,3:2|0:0,0:0:0:0:
220,27,51322,6,0,P|178:59|117:53,1,100.799996923828,2|8,0:0|0:0,0:0:0:0:
21,144,51852,1,2,0:0:0:0:
32,159,52205,2,0,P|40:185|42:213,2,50.3999984619141,10|0|10,0:0|0:0|0:0,0:0:0:0:
119,307,52734,6,0,P|150:277|166:226,1,88.1999973083497,6|0,0:0|0:0,0:0:0:0:
153,198,53440,6,0,L|107:190,2,39.199998803711,2|0|0,0:0|0:0|0:0,0:0:0:0:
220,160,53793,2,0,L|266:152,2,39.199998803711,2|0|0,0:0|0:0|0:0,0:0:0:0:
165,106,54146,5,4,0:0:0:0:
247,14,54322,2,0,P|288:2|338:0,2,84,2|8|2,0:0|0:0|0:0,0:0:0:0:
73,115,54852,1,0,3:0:0:0:
226,209,55028,2,0,P|237:187|240:146,1,50.3999984619141,2|0,3:2|0:0,0:0:0:0:
387,29,55381,2,0,P|439:79|459:188,1,168,10|2,0:0|3:2,0:0:0:0:
412,249,55910,1,0,3:0:0:0:
387,29,56087,2,0,P|373:112|303:189,1,168,8|10,0:0|0:0,0:0:0:0:
237,224,56616,1,2,3:2:0:0:
183,88,56793,1,2,0:0:0:0:
4,149,56969,5,2,0:0:0:0:
52,231,57146,2,0,P|77:241|112:244,2,50.3999984619141,2|0|8,0:0|0:0|0:0,0:0:0:0:
77,72,57675,2,0,P|107:94|131:127,1,67.2,0|2,0:0|0:0,0:0:0:0:
198,277,58028,1,2,0:0:0:0:
317,18,58205,2,0,P|252:89|218:189,1,201.599993847656,10|2,0:0|0:0,0:0:0:0:
314,230,58734,1,0,0:0:0:0:
206,384,58910,2,0,P|280:355|384:336,1,168,10|8,0:0|0:0,0:0:0:0:
496,365,59440,1,10,0:0:0:0:
496,365,59793,6,0,P|460:305|465:241,1,134.4,2|8,0:0|0:0,0:0:0:0:
512,144,60675,1,2,0:0:0:0:
431,76,60852,1,2,0:0:0:0:
431,76,61205,1,2,0:0:0:0:
278,142,61381,1,2,0:0:0:0:
282,154,61469,1,2,0:0:0:0:
288,164,61557,2,0,P|294:110|283:33,1,126,2|0,0:0|0:0,0:0:0:0:
175,149,61910,2,0,P|185:177|222:246,1,100.8,2|0,0:0|0:0,0:0:0:0:
173,318,62263,2,0,P|182:325|258:341,1,75.5999976928712,2|0,0:0|0:0,0:0:0:0:
243,343,62616,5,2,3:2:0:0:
336,295,62793,1,2,3:2:0:0:
473,351,62969,2,0,P|472:303|455:251,1,100.799996923828,8|0,0:0|3:0,0:0:0:0:
356,150,63499,1,10,0:0:0:0:
356,150,63852,1,2,0:0:0:0:
370,155,63940,1,2,0:0:0:0:
384,159,64028,2,0,P|304:176|202:104,1,210,10|0,0:0|0:0,0:0:0:0:
109,241,64557,2,0,P|124:207|132:158,1,75.5999976928712,8|0,0:0|0:0,0:0:0:0:
131,169,64910,2,0,P|117:150|112:116,1,37.7999988464356,8|0,0:0|0:0,0:0:0:0:
267,18,65087,2,0,P|295:86|306:183,1,151.199995385742,12|0,0:0|0:0,0:0:0:0:
306,162,65440,5,2,3:2:0:0:
202,300,65616,1,0,3:0:0:0:
257,372,65793,1,8,0:0:0:0:
339,332,65969,2,0,P|368:321|390:319,2,50.3999984619141,2|0|2,0:0|0:0|0:0,0:0:0:0:
415,167,66499,1,2,0:0:0:0:
273,257,66675,2,0,B|192:228|192:228|133:151,1,168,10|2,0:0|0:0,0:0:0:0:
199,88,67205,1,0,0:0:0:0:
88,256,67381,2,0,B|51:178|51:178|63:82,1,168,10|10,0:0|0:0,0:0:0:0:
168,16,67910,2,0,P|172:40|198:80,1,67.2,2|2,3:2|0:0,0:0:0:0:
358,196,68263,5,2,0:0:0:0:
327,108,68440,2,0,P|331:82|347:55,2,50.3999984619141,2|0|8,0:0|0:0|0:0,0:0:0:0:
387,285,68969,2,0,P|412:272|438:230,1,67.2,2|0,0:0|0:0,0:0:0:0:
475,96,69322,1,2,0:0:0:0:
288,255,69499,2,0,P|212:229|136:178,1,168,10|2,0:0|0:0,0:0:0:0:
175,348,70028,1,0,0:0:0:0:
294,137,70205,6,0,P|294:114|286:82,1,50.3999984619141,10|0,0:0|0:0,0:0:0:0:
467,300,70557,2,0,P|453:321|436:339,1,50.3999984619141,10|0,0:0|0:0,0:0:0:0:
255,266,70910,6,0,P|315:226|386:226,1,125.999996154785,4|0,0:0|0:0,0:0:0:0:
367,221,71440,2,0,P|325:209|299:181,1,75.5999976928712,10|0,0:0|0:0,0:0:0:0:
302,187,71793,1,0,3:0:0:0:
401,311,71969,2,0,P|438:311|445:229,1,125.999996154785,8|0,0:0|0:0,0:0:0:0:
454,237,72499,1,2,0:0:0:0:
288,99,72852,6,0,P|290:60|308:5,1,84,10|0,0:0|0:0,0:0:0:0:
205,223,73205,2,0,P|177:243|125:257,1,67.2,2|8,0:0|0:0,0:0:0:0:
343,229,73557,2,0,P|378:248|414:284,1,75.5999976928712,2|0,0:0|0:0,0:0:0:0:
473,344,73910,6,0,P|417:354|393:296,1,126,6|0,0:0|0:0,0:0:0:0:
392,299,75322,5,8,0:0:0:0:
124,359,75852,1,10,0:0:0:0:
259,223,76205,1,8,0:0:0:0:
248,200,76381,2,0,P|241:172|251:121,1,75.5999976928712,4|0,0:0|0:0,0:0:0:0:
370,10,76734,6,0,P|377:101|335:211,1,201.599993847656,6|8,0:0|0:0,0:0:0:0:
170,281,77263,1,2,0:0:0:0:
165,290,77352,1,2,0:0:0:0:
162,303,77440,2,0,P|163:334|175:374,1,67.2,2|0,0:0|3:0,0:0:0:0:
388,290,77793,2,0,B|341:307|341:307|285:273,1,100.8,8|0,0:0|0:0,0:0:0:0:
297,280,78146,6,0,P|304:242|304:192,1,84,2|0,0:0|0:0,0:0:0:0:
210,231,78499,1,8,0:0:0:0:
404,125,78675,2,0,P|467:167|483:265,1,168,2|2,0:0|3:2,0:0:0:0:
452,353,79205,1,8,0:0:0:0:
452,353,79557,5,2,0:0:0:0:
396,141,79734,1,0,0:0:0:0:
307,307,79910,1,8,0:0:0:0:
339,216,80087,2,0,P|303:214|234:243,1,100.799996923828,2|2,0:0|3:2,0:0:0:0:
117,328,80616,1,8,0:0:0:0:
68,196,80793,6,0,P|80:113|140:4,1,201.599993847656,2|0,3:2|0:0,0:0:0:0:
295,172,81322,1,8,0:0:0:0:
177,116,81499,1,2,0:0:0:0:
280,261,81675,2,0,P|325:255|370:228,1,84,2|0,0:0|3:0,0:0:0:0:
312,37,82028,2,0,B|274:29|274:29|233:58,1,84,8|0,0:0|0:0,0:0:0:0:
121,224,82381,6,0,P|50:197|50:168,1,100.799996923828,2|8,0:0|0:0,0:0:0:0:
205,142,82910,2,0,P|161:107|110:-3,1,168,2|0,0:0|3:0,0:0:0:0:
326,107,83440,1,8,0:0:0:0:
342,22,83616,1,0,0:0:0:0:
430,185,83793,6,0,P|470:170|502:123,1,84,2|0,0:0|0:0,0:0:0:0:
293,231,84146,2,0,P|273:298|261:378,1,126,8|0,0:0|0:0,0:0:0:0:
199,275,84499,2,0,P|196:250|190:229,2,42,2|2|2,0:0|0:0|3:2,0:0:0:0:
18,357,84852,1,8,0:0:0:0:
18,357,85205,6,0,P|58:332|132:320,1,100.799996923828,2|0,3:2|0:0,0:0:0:0:
126,125,85557,1,8,0:0:0:0:
20,158,85734,2,0,P|64:205|175:233,1,168,2|0,0:0|3:0,0:0:0:0:
245,333,86263,2,0,B|259:308|259:308|247:263,1,67.2,8|0,0:0|0:0,0:0:0:0:
375,37,86616,6,0,P|328:78|303:136,1,100.799996923828,2|0,0:0|0:0,0:0:0:0:
442,96,86969,2,0,P|395:137|370:195,1,100.799996923828,8|0,0:0|0:0,0:0:0:0:
359,351,87322,2,0,P|399:373|448:383,2,84,2|0|8,0:0|3:0|0:0,0:0:0:0:
305,265,87852,1,0,0:0:0:0:
168,319,88028,6,0,P|142:344|124:378,1,67.2,2|8,0:0|0:0,0:0:0:0:
224,168,88557,1,2,0:0:0:0:
218,179,88646,1,2,0:0:0:0:
209,188,88734,2,0,P|179:205|112:208,1,84,2|0,0:0|3:0,0:0:0:0:
39,73,89087,2,0,B|86:61|86:61|134:85,1,100.8,8|0,0:0|0:0,0:0:0:0:
132,84,89440,5,2,0:0:0:0:
57,230,89616,2,0,P|49:189|63:150,1,84,0|8,0:0|0:0,0:0:0:0:
205,29,89969,2,0,P|274:82|267:170,2,168,2|2|2,0:0|3:2|0:0,0:0:0:0:
423,170,90852,6,0,P|391:206|327:217,1,100.799996923828,2|0,0:0|0:0,0:0:0:0:
153,125,91205,1,8,0:0:0:0:
282,288,91381,2,0,P|233:244|168:234,1,134.4,2|0,0:0|3:0,0:0:0:0:
32,315,91910,2,0,B|52:276|52:276|37:234,1,84,10|0,0:0|0:0,0:0:0:0:
210,352,92263,5,2,0:0:0:0:
185,249,92440,1,0,3:0:0:0:
376,287,92616,2,0,B|340:231|340:231|350:172,1,126,8|0,0:0|0:0,0:0:0:0:
427,213,92969,2,0,P|448:218|472:216,2,42,2|2|2,0:0|0:0|3:2,0:0:0:0:
389,378,93322,1,8,0:0:0:0:
389,378,93675,6,0,P|418:361|446:328,1,67.2,2|0,3:2|0:0,0:0:0:0:
335,198,94028,1,8,0:0:0:0:
195,337,94205,2,0,P|259:297|363:298,1,168,2|0,0:0|3:0,0:0:0:0:
473,243,94734,2,0,B|477:207|477:207|457:162,1,67.2,8|0,0:0|0:0,0:0:0:0:
366,23,95087,6,0,P|343:52|337:122,1,100.799996923828,2|0,0:0|0:0,0:0:0:0:
430,97,95440,1,8,0:0:0:0:
296,251,95616,2,0,P|223:193|199:75,1,201.599993847656,2|0,0:0|3:0,0:0:0:0:
301,19,96146,1,8,0:0:0:0:
301,19,96499,6,0,P|367:26|425:54,1,117.599996411133,2|0,0:0|0:0,0:0:0:0:
485,127,96852,1,8,0:0:0:0:
264,187,97028,2,0,P|222:289|304:362,1,235.199992822266,2|2,0:0|3:2,0:0:0:0:
459,229,97557,2,0,B|479:295|479:295|439:352,1,126,8|0,0:0|0:0,0:0:0:0:
446,341,97910,5,2,0:0:0:0:
256,192,98087,12,2,100028,0:0:0:0:
320,69,100381,6,0,B|355:59|355:59|402:90,1,75.5999976928712,8|0,0:0|0:0,0:0:0:0:
387,80,100734,6,0,P|361:127|353:189,1,100.799996923828,2|0,0:0|3:0,0:0:0:0:
454,154,101087,1,8,0:0:0:0:
275,271,101263,2,0,P|258:204|200:100,1,168,2|0,0:0|3:0,0:0:0:0:
75,32,101793,2,0,B|57:61|57:61|72:109,1,67.2,8|0,0:0|0:0,0:0:0:0:
182,250,102146,6,0,P|117:303|8:315,1,168,2|8,3:2|0:0,0:0:0:0:
36,318,102852,1,2,0:0:0:0:
0,217,103028,1,0,3:0:0:0:
135,79,103205,2,0,P|168:117|155:174,1,100.8,8|0,0:0|0:0,0:0:0:0:
162,164,103557,6,0,P|266:145|275:298,1,294,2|0,0:0|0:0,0:0:0:0:
274,292,104263,2,0,P|249:258|240:217,1,84,2|0,0:0|3:0,0:0:0:0:
386,125,104616,2,0,B|443:107|443:107|492:161,1,126,8|0,0:0|0:0,0:0:0:0:
488,157,104969,6,0,P|482:246|357:339,1,235.2,2|8,3:2|0:0,0:0:0:0:
375,329,105675,2,0,P|347:300|291:278,1,100.799996923828,2|0,0:0|3:0,0:0:0:0:
372,71,106028,2,0,B|361:132|361:132|304:85,1,126,8|0,0:0|0:0,0:0:0:0:
311,91,106381,5,2,0:0:0:0:
208,208,106557,1,0,3:0:0:0:
60,35,106734,1,8,0:0:0:0:
115,152,106910,2,0,P|161:102|174:3,1,168,2|0,0:0|3:0,0:0:0:0:
366,146,107440,2,0,B|341:171|341:171|306:182,1,67.2,8|0,0:0|0:0,0:0:0:0:
485,360,107793,6,0,P|430:311|370:321,2,134.4,2|0|0,0:0|3:0|3:0,0:0:0:0:
389,159,108852,2,0,P|382:138|380:124,2,22.4,0|0|0,3:0|3:0|3:0,0:0:0:0:
477,218,109205,5,4,0:0:0:0:
343,314,120499,5,2,3:2:0:0:
343,314,120852,2,0,P|360:310|376:300,2,33.6,10|0|2,0:0|0:0|3:2,0:0:0:0:
257,221,121381,2,0,P|288:221|336:236,2,67.2,2|2|0,0:0|0:0|0:0,0:0:0:0:
187,276,122263,1,8,0:0:0:0:
295,120,122616,2,0,P|292:88|207:28,1,134.4,0|2,3:0|0:3,0:0:0:0:
89,95,123675,6,0,P|72:92|52:81,1,33.6,10|0,0:0|0:0,0:0:0:0:
41,213,124028,1,2,3:2:0:0:
41,213,124204,2,0,P|72:193|102:187,1,67.2,2|0,0:0|0:0,0:0:0:0:
187,38,124910,2,0,P|223:45|248:61,1,67.2,2|0,0:0|0:0,0:0:0:0:
304,155,125440,1,2,3:2:0:0:
304,155,125793,2,0,P|314:140|324:119,1,33.6,8|0,0:0|0:0,0:0:0:0:
438,51,126146,6,0,P|418:107|425:171,1,117.6,2|0,3:2|0:0,0:0:0:0:
433,183,126852,2,0,P|352:129|257:118,1,176.399994616699,2|0,3:2|0:0,0:0:0:0:
216,61,127557,6,0,P|182:90|170:120,1,67.2,2|0,0:0|0:0,0:0:0:0:
73,259,128263,2,0,P|72:295|87:331,1,67.2,2|0,3:2|0:0,0:0:0:0:
216,199,128969,6,0,P|269:205|329:219,1,100.799996923828,2|8,0:0|0:0,0:0:0:0:
439,290,129499,1,2,0:0:0:0:
442,272,129852,2,0,P|413:270|382:282,2,50.3999984619141,8|0|8,0:0|0:0|0:0,0:0:0:0:
329,366,130381,6,0,P|310:312|302:247,1,117.6,6|0,0:0|0:0,0:0:0:0:
279,221,131087,6,0,P|259:219|229:210,2,39.199998803711,2|0|0,0:0|0:0|0:0,0:0:0:0:
348,190,131440,2,0,P|366:181|396:174,2,39.199998803711,2|0|0,0:0|0:0|0:0,0:0:0:0:
288,146,131793,5,4,0:0:0:0:
172,88,131969,2,0,P|161:53|155:-5,2,84,2|8|2,0:0|0:0|0:0,0:0:0:0:
110,231,132499,1,0,3:0:0:0:
31,142,132675,2,0,P|56:142|88:156,1,50.3999984619141,2|0,3:2|0:0,0:0:0:0:
214,317,133028,2,0,P|293:304|374:262,1,168,10|2,0:0|3:2,0:0:0:0:
450,156,133557,1,0,3:0:0:0:
370,264,133734,2,0,P|308:213|258:136,1,168,8|10,0:0|0:0,0:0:0:0:
349,8,134263,2,0,P|364:50|357:103,1,84,2|2,3:2|0:0,0:0:0:0:
186,225,134616,5,2,0:0:0:0:
77,170,134793,2,0,P|51:162|23:159,2,50.3999984619141,2|0|8,0:0|0:0|0:0,0:0:0:0:
171,310,135322,2,0,P|203:309|250:285,1,67.2,0|2,0:0|0:0,0:0:0:0:
289,185,135675,1,2,0:0:0:0:
391,353,135852,2,0,P|436:278|470:168,1,201.599993847656,10|2,0:0|0:0,0:0:0:0:
453,48,136381,1,0,0:0:0:0:
379,217,136557,2,0,P|439:285|519:307,1,168,10|8,0:0|0:0,0:0:0:0:
382,364,137087,1,2,0:0:0:0:
382,364,137440,6,0,P|310:344|245:338,1,134.4,2|8,0:0|0:0,0:0:0:0:
163,360,138322,1,2,0:0:0:0:
269,253,138499,1,2,0:0:0:0:
269,253,138852,1,2,0:0:0:0:
133,107,139028,1,2,0:0:0:0:
141,99,139116,1,2,0:0:0:0:
151,91,139204,2,0,P|171:143|190:228,1,126,2|0,0:0|0:0,0:0:0:0:
41,200,139557,2,0,P|81:227|115:278,1,100.8,2|0,0:0|0:0,0:0:0:0:
23,360,139910,2,0,P|58:351|100:366,1,75.5999976928712,2|0,0:0|0:0,0:0:0:0:
94,362,140263,5,2,3:2:0:0:
206,310,140440,1,2,3:2:0:0:
120,177,140616,2,0,P|108:125|110:74,1,100.799996923828,8|0,0:0|3:0,0:0:0:0:
251,191,141146,1,8,0:0:0:0:
251,191,141499,1,2,0:0:0:0:
252,176,141587,1,2,0:0:0:0:
255,163,141675,2,0,P|349:82|438:54,1,210,10|0,0:0|0:0,0:0:0:0:
500,173,142204,2,0,P|470:173|424:152,1,75.5999976928712,8|0,0:0|0:0,0:0:0:0:
428,155,142557,2,0,P|424:176|418:199,1,37.7999988464356,8|0,0:0|0:0,0:0:0:0:
318,314,142734,2,0,P|334:240|288:185,1,151.199995385742,14|0,0:0|0:0,0:0:0:0:
290,186,143087,5,2,3:2:0:0:
118,324,143263,1,0,3:2:0:0:
68,249,143440,1,8,0:0:0:0:
157,206,143616,2,0,P|169:180|177:135,2,50.3999984619141,2|0|2,0:0|0:0|0:0,0:0:0:0:
136,3,144146,1,2,0:0:0:0:
28,37,144322,2,0,P|97:72|194:82,1,168,8|0,0:0|0:0,0:0:0:0:
293,234,144852,1,0,0:0:0:0:
180,172,145028,2,0,P|210:113|307:82,1,168,10|10,0:0|0:0,0:0:0:0:
402,190,145557,2,0,P|435:204|469:209,1,67.2,2|2,3:2|0:0,0:0:0:0:
484,17,145910,5,2,0:0:0:0:
403,56,146087,2,0,P|396:74|393:114,2,50.3999984619141,2|0|8,0:0|0:0|0:0,0:0:0:0:
302,210,146616,2,0,P|297:190|273:142,1,67.2,2|0,0:0|0:0,0:0:0:0:
210,52,146969,1,2,0:0:0:0:
3,209,147146,2,0,P|30:119|83:46,1,168,10|2,0:0|0:0,0:0:0:0:
169,180,147675,1,0,0:0:0:0:
338,75,147852,6,0,P|364:68|403:64,1,50.3999984619141,10|0,0:0|0:0,0:0:0:0:
223,265,148204,2,0,P|245:242|268:223,1,50.3999984619141,10|0,0:0|0:0,0:0:0:0:
420,373,148557,6,0,P|415:319|439:243,1,125.999996154785,6|0,0:0|0:0,0:0:0:0:
434,250,149087,2,0,P|407:283|365:293,1,75.5999976928712,10|0,0:0|0:0,0:0:0:0:
376,292,149440,1,0,3:0:0:0:
305,163,149616,2,0,P|241:135|164:142,1,125.999996154785,10|0,0:0|0:0,0:0:0:0:
185,135,150146,1,2,0:0:0:0:
259,354,150499,6,0,P|288:328|309:280,1,84,8|2,0:0|0:0,0:0:0:0:
385,149,150852,2,0,P|397:179|398:213,1,67.2,2|8,0:0|0:0,0:0:0:0:
512,321,151204,2,0,P|478:320|430:335,1,75.5999976928712,2|0,0:0|0:0,0:0:0:0:
438,330,151557,6,0,P|392:308|320:319,1,126,6|0,0:0|0:0,0:0:0:0:
320,318,152969,5,8,0:0:0:0:
178,74,153499,1,10,0:0:0:0:
310,219,153852,1,8,0:0:0:0:
333,233,154028,2,0,P|333:188|343:152,1,75.5999976928712,4|0,0:0|0:0,0:0:0:0:
403,21,154381,6,0,P|311:80|210:82,1,201.599993847656,6|8,0:0|0:0,0:0:0:0:
42,151,154910,1,2,0:0:0:0:
36,159,154999,1,2,0:0:0:0:
38,168,155087,2,0,P|64:189|114:195,1,67.2,2|0,0:0|3:0,0:0:0:0:
180,369,155440,2,0,B|178:320|178:320|216:260,1,100.8,8|0,0:0|0:0,0:0:0:0:
206,275,155793,6,0,P|215:228|209:186,1,84,2|0,0:0|0:0,0:0:0:0:
313,310,156146,1,8,0:0:0:0:
411,233,156322,2,0,P|354:204|329:102,1,168,2|2,0:0|3:2,0:0:0:0:
382,19,156852,1,8,0:0:0:0:
382,19,157204,5,2,0:0:0:0:
245,51,157381,1,0,0:0:0:0:
337,236,157557,1,8,0:0:0:0:
410,170,157734,2,0,P|362:153|312:148,1,100.799996923828,2|2,0:0|3:2,0:0:0:0:
162,215,158263,1,8,0:0:0:0:
339,325,158440,6,0,P|245:369|143:366,1,201.599993847656,2|0,3:2|0:0,0:0:0:0:
83,168,158969,1,8,0:0:0:0:
200,287,159146,1,2,0:0:0:0:
298,253,159322,2,0,P|310:213|313:160,1,84,2|0,0:0|0:0,0:0:0:0:
159,8,159675,2,0,B|149:50|149:50|166:93,1,84,8|0,0:0|0:0,0:0:0:0:
337,70,160028,6,0,P|295:80|235:119,1,100.799996923828,2|8,0:0|0:0,0:0:0:0:
70,26,160557,2,0,P|28:83|16:191,1,168,2|0,0:0|3:0,0:0:0:0:
206,320,161087,1,8,0:0:0:0:
167,215,161263,1,0,0:0:0:0:
12,327,161440,6,0,P|53:313|102:301,1,84,2|0,0:0|0:0,0:0:0:0:
256,150,161793,2,0,B|306:183|306:183|372:165,1,126,8|0,0:0|0:0,0:0:0:0:
320,55,162146,2,0,P|319:76|324:97,2,42,2|2|0,0:0|0:0|3:2,0:0:0:0:
458,206,162499,1,8,0:0:0:0:
458,206,162852,6,0,P|460:149|442:96,1,100.799996923828,2|0,3:2|0:0,0:0:0:0:
355,277,163204,1,8,0:0:0:0:
184,190,163381,2,0,P|202:149|299:72,1,168,2|0,0:0|3:0,0:0:0:0:
139,13,163910,2,0,B|168:5|168:5|212:25,1,67.2,8|0,0:0|0:0,0:0:0:0:
435,176,164263,6,0,P|474:160|519:99,1,100.799996923828,2|0,0:0|0:0,0:0:0:0:
373,104,164616,2,0,P|412:88|457:27,1,100.799996923828,8|0,0:0|0:0,0:0:0:0:
241,225,164969,2,0,P|215:183|215:137,2,84,2|0|8,0:0|3:0|0:0,0:0:0:0:
332,279,165499,1,0,0:0:0:0:
245,370,165675,6,0,P|218:378|171:384,1,67.2,2|8,0:0|0:0,0:0:0:0:
61,257,166204,1,2,0:0:0:0:
52,247,166293,1,2,0:0:0:0:
49,234,166381,2,0,P|63:195|103:150,1,84,2|0,0:0|3:0,0:0:0:0:
113,13,166734,2,0,B|159:40|159:40|207:26,1,100.8,8|0,0:0|0:0,0:0:0:0:
204,26,167087,5,2,0:0:0:0:
351,72,167263,2,0,P|315:93|273:97,1,84,0|8,0:0|0:0,0:0:0:0:
210,219,167616,2,0,P|270:237|355:308,2,168,2|2|2,0:0|3:2|0:0,0:0:0:0:
85,357,168499,6,0,P|114:352|170:309,1,100.799996923828,2|0,0:0|0:0,0:0:0:0:
44,159,168852,1,8,0:0:0:0:
151,103,169028,2,0,P|196:134|184:219,1,134.4,2|0,0:0|3:0,0:0:0:0:
336,324,169557,2,0,B|380:332|380:332|422:308,1,84,10|0,0:0|0:0,0:0:0:0:
502,169,169910,5,2,0:0:0:0:
435,93,170087,1,0,3:0:0:0:
314,165,170263,2,0,B|259:184|259:184|218:122,1,126,8|0,0:0|0:0,0:0:0:0:
299,50,170616,2,0,P|298:70|292:91,2,42,2|2|2,0:0|0:0|3:2,0:0:0:0:
154,229,170969,1,8,0:0:0:0:
154,229,171322,6,0,P|148:200|123:154,1,67.2,2|0,3:2|0:0,0:0:0:0:
64,90,171675,1,8,0:0:0:0:
220,304,171852,2,0,P|272:225|346:185,1,168,2|0,0:0|3:0,0:0:0:0:
329,69,172381,2,0,B|349:96|349:96|399:77,1,67.2,8|0,0:0|0:0,0:0:0:0:
492,279,172734,6,0,P|455:315|385:305,1,100.799996923828,2|0,0:0|0:0,0:0:0:0:
342,229,173087,1,8,0:0:0:0:
155,362,173263,2,0,P|186:289|203:143,1,201.599993847656,2|0,0:0|3:0,0:0:0:0:
33,19,173793,1,8,0:0:0:0:
33,19,174146,6,0,P|71:52|96:118,1,117.599996411133,2|0,3:2|0:0,0:0:0:0:
19,241,174499,1,10,0:0:0:0:
182,358,174675,2,0,P|299:306|422:312,1,235.199992822266,2|2,0:0|3:2,0:0:0:0:
222,157,175204,2,0,B|258:206|258:206|329:188,1,126,8|0,0:0|0:0,0:0:0:0:
320,190,175557,5,2,0:0:0:0:
256,192,175734,12,2,177675,0:0:0:0:
247,294,178028,6,0,B|270:263|270:263|240:230,1,75.5999976928712,8|0,0:0|0:0,0:0:0:0:
245,235,178381,6,0,P|259:194|287:136,1,100.799996923828,2|0,0:0|3:0,0:0:0:0:
155,260,178734,1,8,0:0:0:0:
68,108,178910,2,0,P|65:190|9:249,1,168,2|0,0:0|3:0,0:0:0:0:
238,345,179440,2,0,B|202:361|202:361|168:339,1,67.2,8|0,0:0|0:0,0:0:0:0:
372,152,179793,6,0,P|296:149|243:225,1,168,2|8,3:2|0:0,0:0:0:0:
243,216,180499,1,2,0:0:0:0:
182,141,180675,1,0,3:0:0:0:
306,34,180852,2,0,B|355:24|355:24|405:58,1,100.8,8|0,0:0|0:0,0:0:0:0:
396,52,181204,6,0,P|362:170|469:297,1,294,2|0,0:0|0:0,0:0:0:0:
458,289,181910,2,0,P|460:250|482:194,1,84,2|0,0:0|3:0,0:0:0:0:
265,280,182263,2,0,B|282:225|282:225|265:137,1,126,8|0,0:0|0:0,0:0:0:0:
269,157,182616,6,0,P|198:165|157:324,1,235.2,2|8,3:2|0:0,0:0:0:0:
148,308,183322,2,0,P|187:299|225:246,1,100.799996923828,2|0,0:0|3:0,0:0:0:0:
145,60,183675,2,0,B|201:37|201:37|254:80,1,126,8|0,0:0|0:0,0:0:0:0:
252,78,184028,5,2,3:2:0:0:
340,142,184204,1,0,3:0:0:0:
417,21,184381,1,8,0:0:0:0:
499,179,184557,2,0,P|503:263|460:354,1,168,2|0,0:0|3:0,0:0:0:0:
325,276,185087,2,0,B|327:241|327:241|348:207,1,67.2,8|0,0:0|0:0,0:0:0:0:
393,96,185440,6,0,P|332:127|265:111,2,134.4,2|0|0,0:0|3:0|3:0,0:0:0:0:
266,13,186499,2,0,P|255:10|244:8,2,22.4,0|0|0,3:0|3:0|3:0,0:0:0:0:
266,13,186852,5,2,0:0:0:0:
76,248,198146,5,2,0:0:0:0:
100,339,198852,1,2,0:3:0:0:
329,210,199557,1,2,0:0:0:0:
308,302,200263,1,2,0:3:0:0:
102,93,200969,5,2,0:0:0:0:
178,194,201322,1,2,0:0:0:0:
187,227,201499,1,2,0:0:0:0:
377,26,202381,5,2,0:0:0:0:
317,84,202557,1,2,0:0:0:0:
358,157,202734,1,2,0:0:0:0:
112,13,203087,5,2,0:3:0:0:
115,24,203263,1,2,0:0:0:0:
173,85,203440,1,2,0:0:0:0:
143,163,203616,1,2,0:0:0:0:
59,158,203793,5,2,0:0:0:0:
39,71,204499,1,2,0:3:0:0:
241,225,205204,1,2,0:0:0:0:
241,225,205381,2,0,P|243:190|252:154,1,67.2,0|0,3:0|3:0,0:0:0:0:
257,147,206087,5,2,0:0:0:0:
339,134,206263,1,2,0:0:0:0:
411,176,206440,1,2,0:0:0:0:
458,246,206616,5,8,0:0:0:0:
302,363,206969,1,2,0:0:0:0:
195,249,207322,2,0,P|143:231|90:230,1,100.8,2|0,0:3|3:0,0:0:0:0:
34,270,208028,5,2,0:0:0:0:
256,192,208204,12,0,209440,0:0:0:0:
292,130,210852,5,10,0:0:0:0:
340,254,211028,1,0,3:0:0:0:
302,124,211381,1,8,0:0:0:0:
311,118,211734,1,8,0:0:0:0:
187,185,211910,6,0,P|165:186|121:139,1,75.5999976928712,4|0,3:2|0:0,0:0:0:0:
143,73,212263,6,0,P|162:187|170:275,1,201.599993847656,6|8,0:0|0:0,0:0:0:0:
340,365,212792,1,2,0:0:0:0:
332,357,212880,1,2,0:0:0:0:
334,347,212968,2,0,P|377:328|417:320,1,67.2,2|0,0:0|3:0,0:0:0:0:
417,133,213321,2,0,B|363:146|363:146|307:98,1,100.8,8|0,0:0|0:0,0:0:0:0:
328,116,213674,6,0,P|307:153|297:210,1,84,2|0,0:0|0:0,0:0:0:0:
375,273,214027,1,8,0:0:0:0:
169,321,214204,2,0,P|141:242|206:188,1,168,2|2,0:0|3:2,0:0:0:0:
278,367,214733,1,8,0:0:0:0:
278,367,215086,5,2,0:0:0:0:
340,193,215263,1,0,0:0:0:0:
278,367,215439,1,8,0:0:0:0:
137,283,215615,2,0,P|190:284|253:265,1,100.799996923828,2|2,0:0|3:2,0:0:0:0:
201,184,216145,1,8,0:0:0:0:
381,312,216321,6,0,P|333:237|338:116,1,201.599993847656,2|0,3:2|3:2,0:0:0:0:
435,168,216851,1,8,0:0:0:0:
501,11,217027,1,2,0:0:0:0:
353,43,217204,2,0,P|313:37|273:11,1,84,2|0,0:0|3:0,0:0:0:0:
192,206,217557,2,0,B|203:165|203:165|180:117,1,84,8|0,0:0|0:0,0:0:0:0:
69,8,217910,6,0,P|49:57|39:105,1,100.799996923828,2|8,0:0|0:0,0:0:0:0:
68,309,218439,2,0,P|130:249|224:246,1,168,2|0,0:0|3:0,0:0:0:0:
376,296,218968,1,8,0:0:0:0:
345,196,219145,1,0,0:0:0:0:
492,251,219321,6,0,P|493:293|477:350,1,84,2|0,0:0|0:0,0:0:0:0:
246,361,219674,2,0,P|234:294|236:233,1,126,8|0,0:0|0:0,0:0:0:0:
337,297,220027,2,0,P|336:319|326:344,2,42,2|2|2,0:0|0:0|3:2,0:0:0:0:
181,178,220380,1,8,0:0:0:0:
181,178,220733,6,0,P|204:143|268:106,1,100.799996923828,2|0,3:2|0:0,0:0:0:0:
162,267,221086,1,8,0:0:0:0:
53,354,221263,2,0,P|48:297|-2:190,1,168,2|0,0:0|3:0,0:0:0:0:
88,74,221792,2,0,B|100:104|100:104|139:127,1,67.2,8|0,0:0|0:0,0:0:0:0:
319,97,222145,6,0,P|348:59|365:6,1,100.799996923828,2|0,0:0|0:0,0:0:0:0:
402,150,222498,2,0,P|431:112|448:59,1,100.799996923828,8|0,0:0|0:0,0:0:0:0:
248,200,222851,2,0,P|206:189|160:187,2,84,2|0|8,0:0|3:0|0:0,0:0:0:0:
278,297,223380,1,0,0:0:0:0:
394,381,223557,6,0,P|413:352|420:314,1,67.2,2|8,0:0|0:0,0:0:0:0:
461,143,224086,1,2,0:0:0:0:
470,151,224175,1,2,0:0:0:0:
477,161,224263,2,0,P|443:173|374:177,1,84,2|0,0:0|3:0,0:0:0:0:
268,9,224615,2,0,B|244:50|244:50|256:115,1,100.8,8|0,0:0|0:0,0:0:0:0:
253,102,224968,5,2,0:0:0:0:
198,185,225145,2,0,P|236:201|278:205,1,84,0|8,3:0|0:0,0:0:0:0:
95,38,225498,2,0,P|61:91|25:205,2,168,2|2|2,0:0|3:2|0:0,0:0:0:0:
227,95,226380,6,0,P|243:120|246:193,1,100.799996923828,2|0,0:0|0:0,0:0:0:0:
153,353,226733,1,8,0:0:0:0:
258,297,226910,2,0,P|341:282|399:295,1,134.4,2|0,0:0|3:0,0:0:0:0:
443,108,227439,2,0,B|408:135|408:135|354:118,1,84,10|0,0:0|0:0,0:0:0:0:
213,30,227792,5,2,0:0:0:0:
126,63,227968,1,0,3:1:0:0:
230,247,228145,2,0,B|251:203|251:203|225:147,1,100.8,8|0,0:0|0:0,0:0:0:0:
122,208,228498,2,0,P|142:216|172:217,2,33.6,2|2|2,0:0|0:0|3:2,0:0:0:0:
250,366,228851,1,8,0:0:0:0:
250,366,229204,6,0,P|284:359|317:344,1,67.2,2|0,3:2|0:0,0:0:0:0:
366,181,229557,1,8,0:0:0:0:
512,368,229733,2,0,P|451:326|447:234,1,168,2|0,0:0|3:0,0:0:0:0:
501,149,230263,2,0,B|509:116|509:116|498:79,1,67.2,8|0,0:0|0:0,0:0:0:0:
317,9,230615,6,0,P|300:53|311:130,1,100.799996923828,2|0,0:0|0:0,0:0:0:0:
369,197,230968,1,8,0:0:0:0:
197,91,231145,2,0,B|105:59|105:59|30:138,1,201.599993847656,2|0,0:0|3:0,0:0:0:0:
7,265,231674,1,8,0:0:0:0:
7,265,232027,6,0,P|60:263|121:235,2,117.599996411133,2|0|8,3:2|0:0|0:0,0:0:0:0:
210,364,232557,6,0,P|230:338|258:315,1,58.7999982055665,2|0,3:2|0:0,0:0:0:0:
161,77,232910,2,0,P|186:96|219:110,1,58.7999982055665,2|0,3:2|0:0,0:0:0:0:
480,192,233263,6,0,B|384:79|240:157|272:228|128:304|32:193,1,504,6|0,3:2|0:0,0:0:0:0:
30,180,236027,6,0,P|47:169|67:169,2,22.4,0|0|2,1:0|1:0|1:2,0:0:0:0:
