osu file format v14

[General]
AudioFilename: audio.mp3
AudioLeadIn: 0
PreviewTime: 75852
Countdown: 0
SampleSet: Soft
StackLeniency: 0.9
Mode: 0
LetterboxInBreaks: 0
WidescreenStoryboard: 1

[Editor]
Bookmarks: 13205,31558,42852,54146,76734,93675,109205,120499,131793,154381,171322,186852,198146,212263,236263
DistanceSpacing: 0.13
BeatDivisor: 2
GridSize: 8
TimelineZoom: 0.5999998

[Metadata]
Title:Theater Endroll
TitleUnicode:テアトル・エンドロール
Artist:Minagu feat. Aitsuki Nakuru
ArtistUnicode:ミナグ feat. 藍月なくる
Creator:Hinsvar
Version:Easy
Source:
Tags:クラリムステラ Qulalimstella Nacollection!! 2 Japanese Pop J-Pop JPop Featured Artist FA Mappers' Guild MPG
BeatmapID:2790985
BeatmapSetID:1342280

[Difficulty]
HPDrainRate:3
CircleSize:2.8
OverallDifficulty:3
ApproachRate:4.3
SliderMultiplier:0.96
SliderTickRate:1

[Events]
//Background and Video events
0,0,"endroll.jpg",0,0
//Break Periods
2,31758,41569
2,109405,119216
2,187051,196863
//Storyboard Layer 0 (Background)
//Storyboard Layer 1 (Fail)
//Storyboard Layer 2 (Pass)
//Storyboard Layer 3 (Foreground)
//Storyboard Layer 4 (Overlay)
//Storyboard Sound Samples

[TimingPoints]
1911,352.941176470588,4,2,1,20,1,0
13205,-125,4,2,1,20,0,0
18146,-125,4,2,1,60,0,0
18852,-100,4,2,1,70,0,0
25028,-100,4,2,1,75,0,0
27322,-100,4,2,1,80,0,0
28558,-100,4,2,1,70,0,0
29969,-100,4,2,1,50,0,0
31558,352.941176470588,4,2,1,50,1,0
42852,-111.111111111111,4,2,2,50,0,0
49205,-111.111111111111,4,2,2,55,0,0
54146,-100,4,2,1,60,0,0
54322,-100,4,2,1,70,0,0
59793,-100,4,2,1,65,0,0
65087,-100,4,2,1,45,0,0
65440,-100,4,2,1,70,0,0
70910,-100,4,2,1,60,0,0
76381,-100,4,2,1,50,0,0
76734,-95.2380952380952,4,2,1,80,0,1
107793,-100,4,2,1,60,0,0
109205,352.941176470588,4,2,1,50,1,0
120499,-111.111111111111,4,2,2,50,0,0
126852,-111.111111111111,4,2,2,55,0,0
131793,-100,4,2,1,60,0,0
131969,-100,4,2,1,70,0,0
137440,-100,4,2,1,65,0,0
142734,-100,4,2,1,45,0,0
143087,-100,4,2,1,70,0,0
148557,-100,4,2,1,60,0,0
154028,-100,4,2,1,50,0,0
154381,-95.2380952380952,4,2,1,80,0,1
185440,-100,4,2,1,60,0,0
186852,352.941176470588,4,2,1,60,1,0
198146,-111.111111111111,4,2,1,60,0,0
210852,-100,4,2,1,60,0,0
211910,-100,4,2,1,50,0,0
212263,352.941176470588,4,2,1,80,1,1
212263,-95.2380952380952,4,2,1,80,0,1
233263,-100,4,2,1,75,0,0
235910,-100,4,2,3,60,0,0

[Colours]
Combo1 : 253,222,74
Combo2 : 134,197,249
Combo3 : 160,147,236
Combo4 : 105,232,235

[HitObjects]
355,244,13205,6,0,P|412:228|473:227,2,115.2,2|2|2,0:0|0:0|0:0,0:0:0:0:
302,319,14616,1,2,0:0:0:0:
219,360,14969,2,0,P|163:350|116:310,1,115.2,2|2,0:0|0:0,0:0:0:0:
200,188,16028,2,0,P|211:132|209:71,2,115.2,2|2|2,0:0|0:0|0:0,0:0:0:0:
200,188,18852,6,0,P|242:167|304:157,2,96,4|8|2,3:2|0:0|0:0,0:0:0:0:
105,315,20087,2,0,P|61:264|51:130,1,192,2|2,0:0|0:0,0:0:0:0:
162,35,21322,1,8,0:0:0:0:
230,102,21675,6,0,P|279:109|331:109,2,96,2|8|2,0:0|0:0|0:0,0:0:0:0:
140,233,22910,2,0,P|189:308|293:328,1,192,2|2,0:0|0:0,0:0:0:0:
417,243,24146,1,8,0:0:0:0:
457,156,24499,6,0,P|452:91|433:8,2,144,2|2|8,3:2|0:0|0:0,0:0:0:0:
362,133,25910,2,0,P|313:94|219:56,2,144,2|2|10,0:0|0:0|0:0,0:0:0:0:
341,227,27322,2,0,P|295:267|207:250,1,144,2|2,3:2|0:0,0:0:0:0:
149,188,28205,1,2,0:0:0:0:
184,98,28558,1,2,0:0:0:0:
256,192,28734,12,2,30146,0:0:0:0:
331,130,31558,5,2,0:0:0:0:
54,117,42852,5,2,3:2:0:0:
132,170,43205,2,0,P|159:230|177:296,1,129.599996044922,10|2,0:0|0:0,0:0:0:0:
243,358,44087,2,0,P|340:340|420:257,1,215.999993408203,2|0,0:0|3:0,0:0:0:0:
340,85,45675,5,0,0:0:0:0:
274,153,46028,1,10,0:0:0:0:
195,100,46381,2,0,P|131:78|63:80,1,129.599996044922,0|0,3:0|0:0,0:0:0:0:
11,152,47263,1,2,0:0:0:0:
49,240,47616,2,0,P|109:261|174:261,1,129.599996044922,2|10,0:0|0:0,0:0:0:0:
247,200,48499,6,0,P|240:112|238:19,1,172.799994726563,2|2,3:2|3:2,0:0:0:0:
414,97,49910,2,0,P|411:183|404:269,1,172.799994726563,2|2,0:0|3:2,0:0:0:0:
240,366,51322,6,0,P|209:326|120:315,1,129.599996044922,2|2,0:0|0:0,0:0:0:0:
47,349,52205,1,10,0:0:0:0:
7,212,52734,1,6,0:0:0:0:
7,212,54146,6,0,P|26:170|33:98,2,96,4|8|0,0:0|0:0|0:0,0:0:0:0:
105,336,55381,2,0,P|153:296|295:260,1,192,10|8,0:0|0:0,0:0:0:0:
346,324,56440,1,10,0:0:0:0:
473,230,56969,6,0,P|486:187|492:111,1,96,2|0,0:0|0:0,0:0:0:0:
424,68,57675,2,0,P|360:63|285:27,1,144,0|10,0:0|0:0,0:0:0:0:
163,169,58910,2,0,P|194:233|213:314,1,144,10|10,0:0|0:0,0:0:0:0:
134,361,59793,6,0,P|57:313|27:215,1,192,2|8,0:0|0:0,0:0:0:0:
85,144,60852,1,2,0:0:0:0:
168,191,61205,2,0,P|212:187|268:173,1,96,2|2,0:0|0:0,0:0:0:0:
327,104,61910,2,0,P|378:109|418:146,1,96,2|2,0:0|0:0,0:0:0:0:
442,227,62616,5,2,3:2:0:0:
402,314,62969,2,0,B|338:340|338:340|258:295,1,144,8|10,0:0|0:0,0:0:0:0:
209,157,64028,2,0,B|143:120|143:120|79:146,2,144,10|8|12,0:0|0:0|0:0,0:0:0:0:
161,240,65440,5,2,3:2:0:0:
204,325,65793,2,0,P|254:338|310:336,1,96,8|2,0:0|0:0,0:0:0:0:
432,284,66675,2,0,P|430:222|395:85,1,192,10|10,0:0|0:0,0:0:0:0:
337,22,67734,1,10,0:0:0:0:
233,141,68263,6,0,P|195:166|138:186,2,96,2|0|2,0:0|0:0|0:0,0:0:0:0:
101,52,69499,2,0,P|56:71|30:135,1,96,10|2,0:0|0:0,0:0:0:0:
10,203,70205,1,10,0:0:0:0:
81,266,70557,1,10,0:0:0:0:
168,226,70910,6,0,P|237:210|326:209,2,144,4|10|8,0:0|0:0|0:0,0:0:0:0:
66,348,72499,1,2,0:0:0:0:
22,262,72852,2,0,P|20:219|50:169,2,96,10|2|2,0:0|0:0|0:0,0:0:0:0:
116,243,73910,5,6,0:0:0:0:
116,243,75322,2,0,P|184:222|283:230,2,144,8|10|4,0:0|0:0|0:0,0:0:0:0:
48,167,76734,6,0,P|49:89|75:16,1,151.199995385742,6|2,0:0|0:0,0:0:0:0:
213,108,77793,1,8,0:0:0:0:
290,43,78146,2,0,P|357:34|427:89,1,151.199995385742,2|2,0:0|0:0,0:0:0:0:
454,176,79028,1,2,3:2:0:0:
321,275,79557,6,0,P|281:217|270:125,2,151.199995385742,2|2|8,0:0|0:0|0:0,0:0:0:0:
444,115,81322,1,8,0:0:0:0:
380,36,81675,2,0,B|334:19|334:19|272:35,1,100.799996923828,2|8,0:0|0:0,0:0:0:0:
203,94,82381,6,0,P|128:96|104:19,2,151.199995385742,2|2|8,0:0|0:0|0:0,0:0:0:0:
267,172,83793,2,0,P|265:228|252:274,1,100.799996923828,2|8,0:0|0:0,0:0:0:0:
181,341,84499,1,2,0:0:0:0:
98,283,84852,1,8,0:0:0:0:
118,184,85205,6,0,P|98:114|47:41,2,151.199995385742,2|2|8,3:2|0:0|0:0,0:0:0:0:
211,222,86616,1,2,0:0:0:0:
273,143,86969,1,8,0:0:0:0:
442,251,87675,1,8,0:0:0:0:
498,167,88028,6,0,P|492:92|471:14,2,151.199995385742,2|2|8,0:0|0:0|0:0,0:0:0:0:
435,246,89440,2,0,P|371:203|280:211,1,151.199995385742,2|2,0:0|0:0,0:0:0:0:
231,278,90322,1,2,3:2:0:0:
150,132,90852,6,0,P|99:87|29:44,2,151.199995385742,2|2|10,0:0|0:0|0:0,0:0:0:0:
40,301,92616,1,8,0:0:0:0:
119,362,92969,2,0,P|170:360|219:333,1,100.799996923828,2|8,0:0|0:0,0:0:0:0:
239,240,93675,6,0,P|239:176|273:86,2,151.199995385742,2|2|8,3:2|0:0|0:0,0:0:0:0:
318,302,95087,2,0,B|396:320|396:320|456:258,1,151.199995385742,2|2,0:0|0:0,0:0:0:0:
479,174,95969,1,2,3:2:0:0:
358,58,96499,6,0,P|334:128|317:227,1,151.199995385742,2|2,0:0|0:0,0:0:0:0:
333,303,97381,1,2,3:2:0:0:
256,192,97910,12,0,99322,0:0:0:0:
112,180,100734,6,0,P|103:104|72:20,2,151.199995385742,2|2|8,0:0|0:0|0:0,0:0:0:0:
43,254,102146,2,0,P|33:304|69:354,1,100.799996923828,2|8,3:2|0:0,0:0:0:0:
154,369,102852,1,2,0:0:0:0:
209,284,103205,1,8,0:0:0:0:
294,337,103557,6,0,P|398:338|500:315,1,201.599993847656,2|2,0:0|0:0,0:0:0:0:
507,217,104616,1,0,0:0:0:0:
469,123,104969,2,0,P|365:122|263:145,1,201.599993847656,2|2,3:2|0:0,0:0:0:0:
235,237,106028,1,8,0:0:0:0:
143,197,106381,6,0,P|65:226|25:291,2,151.199995385742,2|2|8,0:0|0:0|0:0,0:0:0:0:
192,279,107793,2,0,P|274:317|393:264,1,192,2|0,0:0|3:0,0:0:0:0:
465,124,109205,5,4,0:0:0:0:
375,363,120499,5,2,3:2:0:0:
433,288,120852,2,0,P|421:234|380:160,1,129.599996044922,10|2,0:0|0:0,0:0:0:0:
439,89,121734,2,0,P|384:39|224:56,1,215.999993408203,2|0,0:0|3:0,0:0:0:0:
90,145,123322,5,0,0:0:0:0:
30,219,123675,1,10,0:0:0:0:
63,307,124028,2,0,P|133:323|209:314,1,129.599996044922,2|0,3:2|0:0,0:0:0:0:
240,238,124910,1,2,0:0:0:0:
319,185,125263,2,0,P|373:193|406:264,1,129.599996044922,2|8,0:0|0:0,0:0:0:0:
358,336,126146,6,0,P|275:357|179:356,1,172.799994726563,2|2,3:2|3:2,0:0:0:0:
91,193,127557,2,0,P|126:115|188:41,1,172.799994726563,2|2,0:0|3:2,0:0:0:0:
368,83,128969,6,0,P|416:127|401:205,1,129.599996044922,2|2,0:0|0:0,0:0:0:0:
351,260,129852,1,8,0:0:0:0:
228,188,130381,1,6,0:0:0:0:
228,188,131793,6,0,P|233:141|252:90,2,96,4|8|0,0:0|0:0|3:0,0:0:0:0:
112,296,133028,2,0,P|61:233|50:113,1,192,10|8,0:0|0:0,0:0:0:0:
90,39,134087,1,10,0:0:0:0:
199,154,134616,6,0,P|245:171|292:167,1,96,2|2,0:0|0:0,0:0:0:0:
356,97,135322,2,0,P|424:106|481:164,1,144,0|10,0:0|0:0,0:0:0:0:
376,342,136557,2,0,P|308:333|251:275,1,144,10|2,0:0|0:0,0:0:0:0:
201,202,137440,6,0,P|110:187|13:253,1,192,2|8,0:0|0:0,0:0:0:0:
56,325,138499,1,2,0:0:0:0:
142,366,138852,2,0,P|184:345|238:304,1,96,2|2,0:0|0:0,0:0:0:0:
197,224,139557,2,0,P|216:182|275:151,1,96,2|2,0:0|0:0,0:0:0:0:
337,207,140263,5,2,0:0:0:0:
426,172,140616,2,0,B|443:104|443:104|413:27,1,144,8|8,0:0|0:0,0:0:0:0:
271,100,141675,2,0,B|254:168|254:168|280:236,2,144,10|8|14,0:0|0:0|0:0,0:0:0:0:
206,28,143087,5,2,0:0:0:0:
127,83,143440,2,0,P|111:123|103:192,1,96,8|2,0:0|0:0,0:0:0:0:
257,212,144322,2,0,P|229:294|128:389,1,192,8|10,0:0|0:0,0:0:0:0:
74,324,145381,1,10,0:0:0:0:
37,169,145910,6,0,P|42:123|54:73,2,96,2|0|2,0:0|0:0|0:0,0:0:0:0:
170,254,147146,2,0,P|243:216|305:107,1,192,10|10,0:0|0:0,0:0:0:0:
335,35,148204,1,10,0:0:0:0:
427,60,148557,6,0,P|478:111|491:190,2,144,6|10|10,0:0|0:0|0:0,0:0:0:0:
327,183,150146,1,2,0:0:0:0:
241,138,150499,2,0,P|194:138|137:153,2,96,8|2|2,0:0|0:0|0:0,0:0:0:0:
291,56,151557,5,6,0:0:0:0:
291,56,152969,2,0,P|305:128|311:220,2,144,8|10|4,0:0|0:0|0:0,0:0:0:0:
202,17,154381,6,0,P|128:19|32:49,1,151.199995385742,6|2,0:0|0:0,0:0:0:0:
13,200,155440,1,8,0:0:0:0:
35,298,155793,2,0,P|93:344|167:354,1,151.199995385742,2|2,0:0|0:0,0:0:0:0:
247,292,156675,1,2,3:2:0:0:
387,202,157204,6,0,P|429:261|437:344,2,151.199995385742,2|2|8,0:0|0:0|0:0,0:0:0:0:
243,60,158969,1,8,0:0:0:0:
191,146,159322,2,0,B|141:159|141:159|80:129,1,100.799996923828,2|8,0:0|0:0,0:0:0:0:
42,52,160028,6,0,P|113:29|206:27,2,151.199995385742,2|2|8,0:0|0:0|0:0,0:0:0:0:
4,145,161440,2,0,P|6:196|29:244,1,100.799996923828,2|8,0:0|0:0,0:0:0:0:
117,284,162146,1,2,0:0:0:0:
190,215,162499,1,8,0:0:0:0:
272,272,162852,6,0,P|332:295|424:303,2,151.199995385742,2|2|8,3:2|0:0|0:0,0:0:0:0:
228,181,164263,1,2,0:0:0:0:
303,113,164616,1,8,0:0:0:0:
469,227,165322,1,8,0:0:0:0:
424,317,165675,6,0,P|355:345|279:364,2,151.199995385742,2|2|8,0:0|0:0|0:0,0:0:0:0:
359,238,167087,2,0,P|339:181|334:73,1,151.199995385742,2|2,0:0|0:0,0:0:0:0:
405,22,167969,1,2,3:2:0:0:
504,155,168499,6,0,P|498:236|466:322,2,151.199995385742,2|2|10,0:0|0:0|0:0,0:0:0:0:
335,44,170263,1,8,0:0:0:0:
261,112,170616,2,0,B|246:163|246:163|272:221,1,100.799996923828,2|8,0:0|0:0,0:0:0:0:
244,305,171322,6,0,P|188:343|70:360,2,151.199995385742,2|2|8,3:2|0:0|0:0,0:0:0:0:
289,214,172734,2,0,B|306:133|306:133|264:78,1,151.199995385742,2|2,0:0|0:0,0:0:0:0:
177,27,173616,1,2,3:2:0:0:
43,125,174146,6,0,P|33:197|64:274,1,151.199995385742,2|2,3:2|0:0,0:0:0:0:
136,335,175028,1,2,3:2:0:0:
256,192,175557,12,0,176969,0:0:0:0:
333,41,178381,6,0,P|405:62|474:103,2,151.199995385742,2|2|8,0:0|0:0|0:0,0:0:0:0:
234,65,179793,2,0,P|206:113|190:168,1,100.799996923828,2|8,3:2|0:0,0:0:0:0:
265,226,180499,1,2,0:0:0:0:
195,299,180852,1,8,0:0:0:0:
274,360,181204,6,0,P|375:374|479:371,1,201.599993847656,2|2,0:0|0:0,0:0:0:0:
494,272,182263,1,8,0:0:0:0:
475,172,182616,2,0,P|374:157|270:160,1,201.599993847656,2|2,3:2|0:0,0:0:0:0:
208,235,183675,1,8,0:0:0:0:
128,171,184028,6,0,P|109:118|165:9,2,151.199995385742,2|2|8,3:2|0:0|0:0,0:0:0:0:
119,266,185440,2,0,P|31:296|30:214,2,192,2|0|2,0:0|3:0|0:0,0:0:0:0:
129,160,198146,6,0,P|82:121|7:91,2,129.599996044922,2|2|0,0:0|0:0|0:0,0:0:0:0:
150,252,199557,2,0,P|257:309|414:284,1,259.199992089844,2|0,0:0|0:0,0:0:0:0:
458,229,200969,1,2,0:0:0:0:
458,229,202381,2,0,P|426:150|414:41,1,172.799994726563,2|2,0:0|0:3,0:0:0:0:
334,10,203440,1,2,0:0:0:0:
274,84,203793,5,2,0:0:0:0:
274,84,205204,2,0,P|220:58|131:52,2,129.599996044922,2|0|2,0:0|3:0|0:0,0:0:0:0:
317,168,206616,2,0,P|254:213|150:246,1,172.799994726563,8|2,0:0|0:3,0:0:0:0:
256,192,208028,12,0,209440,0:0:0:0:
436,292,210852,6,0,P|458:238|483:146,2,144,10|8|4,0:0|0:0|3:2,0:0:0:0:
345,335,212263,6,0,P|277:299|192:286,1,151.199995385742,6|2,0:0|0:0,0:0:0:0:
52,354,213321,1,8,0:0:0:0:
13,261,213674,2,0,P|26:186|52:114,1,151.199995385742,2|2,0:0|0:0,0:0:0:0:
115,37,214557,1,2,3:2:0:0:
236,126,215086,6,0,P|308:121|366:62,2,151.199995385742,2|2|8,0:0|0:0|0:0,0:0:0:0:
42,67,216851,1,8,0:0:0:0:
89,155,217204,2,0,B|94:204|94:204|71:268,1,100.799996923828,2|8,0:0|0:0,0:0:0:0:
117,344,217910,6,0,P|181:371|276:360,2,151.199995385742,2|2|8,0:0|0:0|0:0,0:0:0:0:
104,243,219321,1,2,0:0:0:0:
188,187,219674,1,8,0:0:0:0:
272,242,220027,2,0,B|322:255|322:255|376:212,1,100.799996923828,2|8,0:0|0:0,0:0:0:0:
392,128,220733,6,0,P|350:71|272:15,2,151.199995385742,2|2|8,3:2|0:0|0:0,0:0:0:0:
336,212,222145,1,2,0:0:0:0:
416,273,222498,1,8,0:0:0:0:
236,365,223204,1,8,0:0:0:0:
193,273,223557,6,0,P|197:205|228:120,2,151.199995385742,2|2|8,0:0|0:0|0:0,0:0:0:0:
108,328,224968,2,0,P|59:276|54:188,1,151.199995385742,2|2,0:0|0:0,0:0:0:0:
119,124,225851,1,2,3:2:0:0:
247,229,226380,6,0,P|314:231|386:186,2,151.199995385742,2|2|10,0:0|0:0|0:0,0:0:0:0:
172,41,228145,1,8,0:0:0:0:
86,94,228498,2,0,B|63:140|63:140|76:192,1,100.799996923828,2|8,0:0|0:0,0:0:0:0:
131,271,229204,6,0,P|99:326|21:375,2,151.199995385742,2|2|8,3:2|0:0|0:0,0:0:0:0:
205,203,230615,2,0,B|277:186|277:186|333:254,1,151.199995385742,2|2,0:0|0:0,0:0:0:0:
356,342,231498,1,2,3:2:0:0:
488,241,232027,6,0,P|499:162|482:77,1,151.199995385742,2|2,3:2|3:2,0:0:0:0:
402,36,232910,1,2,3:2:0:0:
317,82,233263,1,6,3:2:0:0:
256,192,233439,12,2,236263,1:2:0:0:
