osu file format v14

[General]
AudioFilename: Yumemiru! Shinjiru! Mirai Kanaete! - MLP FiM Japanese OP 3 - ! ! !.mp3
AudioLeadIn: 0
PreviewTime: 114870
Countdown: 0
SampleSet: Normal
StackLeniency: 0.7
Mode: 3
LetterboxInBreaks: 0
SpecialStyle: 0
WidescreenStoryboard: 0

[Editor]
DistanceSpacing: 0.5
BeatDivisor: 4
GridSize: 8
TimelineZoom: 2.699999

[Metadata]
Title:Yumemiru! Shinjiru! Mirai Kanaete!
TitleUnicode:夢見る!信じる!未来叶えて!
Artist:Mimori Suzuko
ArtistUnicode:三森 すずこ
Creator:Rivals_7
Version:Hard
Source:マイリトルポニー ~トモダチは魔法~
Tags:My Little Pony Masatomo Ōta EFFY Shihori MLP FiM friendship is magic tomodachi wa mahou 3rd japanese opening hasbro dhx media vancouver bushiroad pony canyon lauren faust pinkie pie twilight sparkle applejack rarity fluttershy rainbow dash spike
BeatmapID:811967
BeatmapSetID:370502

[Difficulty]
HPDrainRate:7.5
CircleSize:4
OverallDifficulty:7.5
ApproachRate:5
SliderMultiplier:1.4
SliderTickRate:1

[Events]
//Background and Video events
0,0,"osu__bg_by_fillynix_artz-d9jz551 (Medium).jpg",0,0
//Break Periods
//Storyboard Layer 0 (Background)
//Storyboard Layer 1 (Fail)
//Storyboard Layer 2 (Pass)
//Storyboard Layer 3 (Foreground)
//Storyboard Sound Samples

[TimingPoints]
593,346.820809248555,4,1,1,35,1,0
1113,346.820450606586,4,1,1,35,1,0
12211,-100,4,1,1,35,0,1
22615,-100,4,1,1,35,0,0
57991,-100,4,1,1,35,0,1
68742,-100,4,1,1,35,0,0
69089,-100,4,1,1,35,0,1
79841,-100,4,1,1,35,0,0
80188,-100,4,1,1,35,0,1
90419,-100,4,1,1,35,0,0
114870,-100,4,1,1,35,0,1
125621,-100,4,1,1,35,0,0
125968,-100,4,1,1,35,0,1
137066,-100,4,1,1,35,0,0
139668,346.820450606586,4,1,1,35,1,0
155101,346.820450606586,4,1,1,35,1,0
179031,-100,4,1,1,35,0,1
189436,-100,4,1,1,35,0,0
189783,-100,4,1,1,35,0,1
201921,-100,4,1,1,35,0,0

[HitObjects]
320,192,593,5,0,0:0:0:0:
192,192,679,1,0,0:0:0:0:
448,192,766,1,0,0:0:0:80:LR4_SnareKKF.wav
64,192,766,1,0,0:0:0:80:normal-hitclap.wav
64,192,1113,128,0,2326:0:0:0:30:normal-hitfinish.wav
320,192,1113,1,0,0:0:0:30:normal-hitfinish.wav
192,192,1459,1,0,0:0:0:0:
448,192,1806,1,0,0:0:0:60:LR_CymbalSSD.wav
192,192,1980,1,0,0:0:0:0:
320,192,2326,1,0,0:0:0:30:normal-hitfinish.wav
448,192,2326,128,0,3887:0:0:0:30:normal-hitfinish.wav
192,192,2673,1,0,0:0:0:0:
64,192,2847,1,0,0:0:0:0:
192,192,3020,1,0,0:0:0:0:
320,192,3193,1,0,0:0:0:60:LR_CymbalSSD.wav
64,192,3367,1,0,0:0:0:0:
192,192,3540,1,0,0:0:0:0:
320,192,3887,1,0,0:0:0:30:normal-hitfinish.wav
64,192,3887,128,0,4928:0:0:0:30:normal-hitfinish.wav
192,192,4234,1,0,0:0:0:0:
448,192,4581,1,0,0:0:0:60:LR_CymbalSSD.wav
320,192,4928,1,0,0:0:0:70:LR_Drum Hit Clap Sn.wav
192,192,5014,1,0,0:0:0:100:LR_Drum Rpd x2.wav
320,192,5101,1,0,0:0:0:90:LR_Tom Hit.wav
192,192,5274,1,0,0:0:0:40:LR_CymbalSSD.wav
448,192,5274,1,0,0:0:0:40:LR_CymbalSSD.wav
320,192,5621,1,0,0:0:0:30:LR_CymbalFSU.wav
64,192,5621,1,0,0:0:0:30:LR_CymbalFSU.wav
192,192,5968,1,0,0:0:0:60:LR_CymbalSSD.wav
448,192,5968,1,0,0:0:0:30:LR_CymbalFSU.wav
320,192,6141,1,0,0:0:0:70:LR_Drum Hit Clap Sn.wav
192,192,6228,1,0,0:0:0:100:LR_Drum Rpd x2.wav
448,192,6315,1,0,0:0:0:80:LR_CymbalCCR.wav
64,192,6315,1,0,0:0:0:50:LR_CymbalSSD.wav
320,192,6488,1,0,0:0:0:100:LR_Drum Rpd x2.wav
64,192,6575,1,0,0:0:0:88:LR_Tom Hit.wav
320,192,6662,128,0,7875:0:0:0:77:LR_Tom Drop.wav
448,192,6662,1,0,0:0:0:48:normal-hitwhistle.wav
64,192,7008,1,0,0:0:0:50:normal-hitclap.wav
192,192,7008,1,0,0:0:0:40:LR4_SnareKKF.wav
64,192,7355,1,0,0:0:0:48:normal-hitwhistle.wav
448,192,7702,1,0,0:0:0:50:normal-hitclap.wav
192,192,7702,1,0,0:0:0:40:LR4_SnareKKF.wav
64,192,7875,128,0,9436:0:0:0:0:
448,192,8049,1,0,0:0:0:48:normal-hitwhistle.wav
192,192,8396,1,0,0:0:0:50:normal-hitclap.wav
320,192,8396,1,0,0:0:0:40:LR4_SnareKKF.wav
448,192,8569,1,0,0:0:0:90:LR_Tom Hit.wav
192,192,8743,1,0,0:0:0:84:LR_Tom Normal.wav
448,192,8916,1,0,0:0:0:80:LR_Drum Rpd x2.wav
320,192,9003,1,0,0:0:0:70:LR_Drum Hit Clap Sn.wav
192,192,9089,128,0,9436:0:0:0:80:LR_Drum Rpd x2.wav
448,192,9436,1,0,0:0:0:88:LR_Tom Hit.wav
320,192,9523,1,0,0:0:0:44:LR_Tom Hit.wav
192,192,9610,1,0,0:0:0:88:LR_Tom Hit.wav
64,192,9696,1,0,0:0:0:44:LR_Tom Hit.wav
448,192,9783,1,0,0:0:0:90:normal-hitclap.wav
320,192,9783,1,0,0:0:0:90:LR4_SnareKKF.wav
64,192,10130,1,0,0:0:0:44:LR_Tom Hit.wav
192,192,10217,1,0,0:0:0:88:LR_Tom Hit.wav
320,192,10303,1,0,0:0:0:44:LR_Tom Hit.wav
448,192,10390,1,0,0:0:0:88:LR_Tom Hit.wav
192,192,10477,1,0,0:0:0:90:LR4_SnareKKF.wav
64,192,10477,1,0,0:0:0:50:normal-hitclap.wav
320,192,10650,1,0,0:0:0:100:LR_Drum Rpd x2.wav
192,192,10737,1,0,0:0:0:88:LR_Tom Hit.wav
64,192,10823,128,0,11170:0:0:0:77:LR_Tom Drop.wav
448,192,10823,1,0,0:0:0:48:normal-hitwhistle.wav
192,192,11170,128,0,11517:0:0:0:100:LR_Tom Hit.wav
320,192,11170,1,0,0:0:0:40:normal-hitwhistle.wav
320,192,11517,128,0,11864:0:0:0:100:LR_Tom Hit.wav
448,192,11517,1,0,0:0:0:40:normal-hitwhistle.wav
64,192,11864,1,0,0:0:0:100:LR_Tom Hit.wav
448,192,11864,128,0,12211:0:0:0:40:normal-hitwhistle.wav
192,192,12211,1,0,0:0:0:24:normal-hitwhistle.wav
64,192,12211,1,0,0:0:0:24:normal-hitwhistle.wav
448,192,12558,1,0,0:0:0:56:normal-hitclap.wav
320,192,12558,1,0,0:0:0:30:LR4_SnareKKF.wav
192,192,12904,1,0,0:0:0:24:normal-hitwhistle.wav
64,192,12904,1,0,0:0:0:24:normal-hitwhistle.wav
320,192,13078,1,0,0:0:0:0:
448,192,13251,1,0,0:0:0:50:LR4_SnareKKF.wav
64,192,13251,1,0,0:0:0:46:normal-hitclap.wav
192,192,13425,1,0,0:0:0:0:
320,192,13598,1,0,0:0:0:24:normal-hitwhistle.wav
448,192,13598,1,0,0:0:0:24:normal-hitwhistle.wav
64,192,13771,1,0,0:0:0:0:
192,192,13945,1,0,0:0:0:56:normal-hitclap.wav
320,192,13945,1,0,0:0:0:30:LR4_SnareKKF.wav
448,192,14118,1,0,0:0:0:0:
64,192,14292,1,0,0:0:0:24:normal-hitwhistle.wav
192,192,14292,1,0,0:0:0:24:normal-hitwhistle.wav
320,192,14465,1,0,0:0:0:0:
448,192,14638,1,0,0:0:0:50:LR4_SnareKKF.wav
192,192,14638,1,0,0:0:0:46:normal-hitclap.wav
64,192,14725,1,0,0:0:0:0:
448,192,14812,1,0,0:0:0:0:
320,192,14899,1,0,0:0:0:0:
64,192,14985,1,0,0:0:0:24:normal-hitwhistle.wav
192,192,14985,1,0,0:0:0:24:normal-hitwhistle.wav
320,192,15332,1,0,0:0:0:56:normal-hitclap.wav
64,192,15332,1,0,0:0:0:30:LR4_SnareKKF.wav
448,192,15679,1,0,0:0:0:24:normal-hitwhistle.wav
64,192,15679,1,0,0:0:0:24:normal-hitwhistle.wav
192,192,15852,1,0,0:0:0:70:LR_Drum Hit Clap Sn.wav
320,192,15939,1,0,0:0:0:100:LR_Drum Rpd x2.wav
192,192,16026,1,0,0:0:0:50:LR4_SnareKKF.wav
64,192,16026,1,0,0:0:0:46:normal-hitclap.wav
320,192,16199,1,0,0:0:0:70:LR_Drum Hit Clap Sn.wav
192,192,16286,1,0,0:0:0:100:LR_Drum Rpd x2.wav
448,192,16373,1,0,0:0:0:30:LR_CymbalSSD.wav
320,192,16373,1,0,0:0:0:30:LR_CymbalSSD.wav
64,192,16719,1,0,0:0:0:23:LR_CymbalFSU.wav
448,192,16719,1,0,0:0:0:23:LR_CymbalFSU.wav
320,192,16893,1,0,0:0:0:0:
192,192,16893,1,0,0:0:0:0:
448,192,17066,1,0,0:0:0:45:LR_CymbalSSD.wav
64,192,17066,1,0,0:0:0:23:LR_CymbalFSU.wav
320,192,17240,1,0,0:0:0:70:LR_Drum Hit Clap Sn.wav
192,192,17326,1,0,0:0:0:100:LR_Drum Rpd x2.wav
64,192,17413,1,0,0:0:0:60:LR_CymbalCCR.wav
448,192,17413,1,0,0:0:0:36:LR_CymbalSSD.wav
192,192,17586,1,0,0:0:0:100:LR_Drum Rpd x2.wav
320,192,17673,1,0,0:0:0:88:LR_Tom Hit.wav
64,192,17760,128,0,18280:0:0:0:77:LR_Tom Drop.wav
448,192,17760,1,0,0:0:0:48:normal-hitwhistle.wav
320,192,17933,1,0,0:0:0:32:normal-hitwhistle.wav
192,192,18107,1,0,0:0:0:56:normal-hitclap.wav
448,192,18107,1,0,0:0:0:30:LR4_SnareKKF.wav
320,192,18280,1,0,0:0:0:0:
448,192,18367,1,0,0:0:0:0:
320,192,18454,128,0,18627:0:0:0:48:normal-hitwhistle.wav
192,192,18627,128,0,18800:0:0:0:0:
448,192,18800,128,0,18974:0:0:0:50:LR4_SnareKKF.wav
64,192,18800,1,0,0:0:0:46:normal-hitclap.wav
320,192,18974,128,0,19321:0:0:0:0:
192,192,19147,1,0,0:0:0:48:normal-hitwhistle.wav
64,192,19321,128,0,19494:0:0:0:32:normal-hitwhistle.wav
192,192,19494,128,0,19667:0:0:0:56:normal-hitclap.wav
448,192,19494,1,0,0:0:0:30:LR4_SnareKKF.wav
64,192,19667,128,0,20188:0:0:0:0:
320,192,19841,1,0,0:0:0:48:normal-hitwhistle.wav
192,192,20014,1,0,0:0:0:0:
320,192,20188,1,0,0:0:0:50:LR4_SnareKKF.wav
448,192,20188,1,0,0:0:0:46:normal-hitclap.wav
192,192,20361,1,0,0:0:0:0:
448,192,20534,1,0,0:0:0:80:LR_Tom Hit.wav
192,192,20621,1,0,0:0:0:60:LR_Tom Hit.wav
320,192,20708,1,0,0:0:0:60:LR_Tom Hit.wav
64,192,20795,1,0,0:0:0:60:LR_Tom Hit.wav
192,192,20881,1,0,0:0:0:30:normal-hitfinish.wav
448,192,20881,1,0,0:0:0:30:normal-hitfinish.wav
64,192,21228,1,0,0:0:0:40:LR_Tom Drop.wav
320,192,21315,1,0,0:0:0:30:LR_Tom Drop.wav
192,192,21401,1,0,0:0:0:40:LR_Drum Hit Clap Sn.wav
448,192,21488,1,0,0:0:0:30:LR_Tom Drop.wav
64,192,21575,1,0,0:0:0:30:normal-hitfinish.wav
320,192,21575,1,0,0:0:0:30:normal-hitfinish.wav
448,192,21748,1,0,0:0:0:0:
320,192,21835,1,0,0:0:0:0:
192,192,21922,1,0,0:0:0:55:LR_Tom Hit.wav
64,192,21922,1,0,0:0:0:25:normal-hitwhistle.wav
192,192,22095,1,0,0:0:0:70:LR_Tom Hit.wav
320,192,22095,1,0,0:0:0:30:normal-hitwhistle.wav
320,192,22269,1,0,0:0:0:85:LR_Tom Hit.wav
448,192,22269,1,0,0:0:0:35:normal-hitwhistle.wav
64,192,22442,1,0,0:0:0:100:LR_Tom Hit.wav
192,192,22442,1,0,0:0:0:40:normal-hitwhistle.wav
64,192,22789,1,0,0:0:0:90:LR_Drum Rpd x2.wav
192,192,22875,1,0,0:0:0:90:LR_Drum Rpd x2.wav
320,192,22962,1,0,0:0:0:70:LR_Drum Hit Clap Sn.wav
448,192,23136,1,0,0:0:0:85:LR_Tom Normal.wav
320,192,23222,1,0,0:0:0:60:LR_Tom Hit.wav
64,192,23309,128,0,23829:0:0:0:30:normal-hitfinish.wav
192,192,23309,1,0,0:0:0:30:normal-hitfinish.wav
448,192,23569,1,0,0:0:0:48:normal-hitwhistle.wav
192,192,23656,1,0,0:0:0:90:LR_Drum Rpd x2.wav
448,192,23829,1,0,0:0:0:48:normal-hitwhistle.wav
320,192,24003,1,0,0:0:0:60:LR_Hat Synth.wav
448,192,24176,1,0,0:0:0:24:normal-hitwhistle.wav
192,192,24176,1,0,0:0:0:24:normal-hitwhistle.wav
320,192,24349,1,0,0:0:0:90:LR_Drum Rpd x2.wav
64,192,24349,1,0,0:0:0:24:LR4_SnareKKF.wav
192,192,24523,1,0,0:0:0:48:normal-hitwhistle.wav
64,192,24696,1,0,0:0:0:24:normal-hitwhistle.wav
448,192,24696,128,0,25217:0:0:0:24:normal-hitwhistle.wav
320,192,24956,1,0,0:0:0:48:normal-hitwhistle.wav
64,192,25043,1,0,0:0:0:90:LR_Drum Rpd x2.wav
320,192,25217,1,0,0:0:0:48:normal-hitwhistle.wav
192,192,25390,1,0,0:0:0:60:LR_Hat Synth.wav
64,192,25563,1,0,0:0:0:24:normal-hitwhistle.wav
320,192,25563,1,0,0:0:0:24:normal-hitwhistle.wav
448,192,25737,1,0,0:0:0:90:LR_Drum Rpd x2.wav
192,192,25737,1,0,0:0:0:24:LR4_SnareKKF.wav
320,192,25910,1,0,0:0:0:48:normal-hitwhistle.wav
64,192,26084,128,0,26604:0:0:0:24:normal-hitwhistle.wav
448,192,26084,1,0,0:0:0:24:normal-hitwhistle.wav
192,192,26344,1,0,0:0:0:48:normal-hitwhistle.wav
448,192,26430,1,0,0:0:0:90:LR_Drum Rpd x2.wav
192,192,26604,1,0,0:0:0:48:normal-hitwhistle.wav
448,192,26777,1,0,0:0:0:60:LR_Hat Synth.wav
320,192,26951,1,0,0:0:0:24:normal-hitwhistle.wav
64,192,26951,1,0,0:0:0:24:normal-hitwhistle.wav
448,192,27124,1,0,0:0:0:90:LR_Drum Rpd x2.wav
192,192,27124,1,0,0:0:0:24:LR4_SnareKKF.wav
320,192,27297,128,0,27991:0:0:0:80:LR_CymbalSSD.wav
64,192,27297,1,0,0:0:0:48:normal-hitwhistle.wav
192,192,27644,1,0,0:0:0:55:LR_CymbalCCR.wav
64,192,27644,128,0,27991:0:0:0:48:normal-hitwhistle.wav
448,192,27991,1,0,0:0:0:80:LR_CymbalSSD.wav
192,192,27991,1,0,0:0:0:48:normal-hitwhistle.wav
64,192,28338,1,0,0:0:0:45:LR_Drum Rpd x2.wav
320,192,28338,1,0,0:0:0:45:LR_Drum Rpd x2.wav
448,192,28511,1,0,0:0:0:30:LR_Drum Hit Clap Sn.wav
192,192,28511,1,0,0:0:0:30:LR_Drum Hit Clap Sn.wav
320,192,28685,1,0,0:0:0:90:LR_Drum Rpd x2.wav
448,192,28771,1,0,0:0:0:90:LR_Drum Rpd x2.wav
64,192,28858,128,0,29378:0:0:0:30:normal-hitfinish.wav
192,192,28858,1,0,0:0:0:30:normal-hitfinish.wav
320,192,29118,1,0,0:0:0:48:normal-hitwhistle.wav
192,192,29205,1,0,0:0:0:90:LR_Drum Rpd x2.wav
448,192,29378,1,0,0:0:0:48:normal-hitwhistle.wav
192,192,29552,1,0,0:0:0:60:LR_Hat Synth.wav
448,192,29725,1,0,0:0:0:24:normal-hitwhistle.wav
320,192,29725,1,0,0:0:0:24:normal-hitwhistle.wav
192,192,29899,1,0,0:0:0:90:LR_Drum Rpd x2.wav
64,192,29899,1,0,0:0:0:24:LR4_SnareKKF.wav
320,192,30072,1,0,0:0:0:48:normal-hitwhistle.wav
192,192,30245,1,0,0:0:0:24:normal-hitwhistle.wav
448,192,30245,128,0,30766:0:0:0:24:normal-hitwhistle.wav
64,192,30506,1,0,0:0:0:48:normal-hitwhistle.wav
320,192,30592,1,0,0:0:0:90:LR_Drum Rpd x2.wav
192,192,30766,1,0,0:0:0:48:normal-hitwhistle.wav
320,192,30939,1,0,0:0:0:60:LR_Hat Synth.wav
64,192,31112,1,0,0:0:0:24:normal-hitwhistle.wav
192,192,31112,1,0,0:0:0:24:normal-hitwhistle.wav
448,192,31286,1,0,0:0:0:90:LR_Drum Rpd x2.wav
320,192,31286,1,0,0:0:0:24:LR4_SnareKKF.wav
192,192,31459,1,0,0:0:0:48:normal-hitwhistle.wav
448,192,31633,1,0,0:0:0:24:normal-hitwhistle.wav
64,192,31633,128,0,31980:0:0:0:24:normal-hitwhistle.wav
320,192,31893,1,0,0:0:0:48:normal-hitwhistle.wav
192,192,31980,1,0,0:0:0:90:LR_Drum Rpd x2.wav
448,192,32153,1,0,0:0:0:48:normal-hitwhistle.wav
64,192,32326,1,0,0:0:0:60:LR_Hat Synth.wav
448,192,32500,1,0,0:0:0:24:normal-hitwhistle.wav
192,192,32500,1,0,0:0:0:24:normal-hitwhistle.wav
64,192,32673,1,0,0:0:0:90:LR_Drum Rpd x2.wav
320,192,32673,1,0,0:0:0:24:LR4_SnareKKF.wav
192,192,32847,1,0,0:0:0:80:LR_CymbalSSD.wav
448,192,32847,128,0,33540:0:0:0:48:normal-hitwhistle.wav
320,192,33193,128,0,33540:0:0:0:55:LR_CymbalCCR.wav
64,192,33193,1,0,0:0:0:48:normal-hitwhistle.wav
192,192,33540,1,0,0:0:0:80:LR_CymbalSSD.wav
64,192,33540,1,0,0:0:0:48:normal-hitwhistle.wav
192,192,33887,1,0,0:0:0:45:LR_Drum Rpd x2.wav
448,192,33887,1,0,0:0:0:45:LR_Drum Rpd x2.wav
320,192,34060,1,0,0:0:0:30:LR_Drum Hit Clap Sn.wav
64,192,34060,1,0,0:0:0:30:LR_Drum Hit Clap Sn.wav
192,192,34234,1,0,0:0:0:90:LR_Drum Rpd x2.wav
64,192,34407,128,0,34927:0:0:0:30:normal-hitfinish.wav
320,192,34407,1,0,0:0:0:30:normal-hitfinish.wav
448,192,34667,1,0,0:0:0:48:normal-hitwhistle.wav
192,192,34754,1,0,0:0:0:90:LR_Drum Rpd x2.wav
320,192,34927,1,0,0:0:0:48:normal-hitwhistle.wav
448,192,35101,1,0,0:0:0:60:LR_Hat Synth.wav
64,192,35274,1,0,0:0:0:24:normal-hitwhistle.wav
192,192,35274,1,0,0:0:0:24:normal-hitwhistle.wav
448,192,35448,1,0,0:0:0:90:LR_Drum Rpd x2.wav
320,192,35448,1,0,0:0:0:24:LR4_SnareKKF.wav
64,192,35621,1,0,0:0:0:48:normal-hitwhistle.wav
448,192,35795,1,0,0:0:0:24:normal-hitwhistle.wav
192,192,35795,128,0,36315:0:0:0:24:normal-hitwhistle.wav
320,192,36055,1,0,0:0:0:48:normal-hitwhistle.wav
64,192,36141,1,0,0:0:0:90:LR_Drum Rpd x2.wav
448,192,36315,1,0,0:0:0:48:normal-hitwhistle.wav
320,192,36488,1,0,0:0:0:60:LR_Hat Synth.wav
192,192,36662,1,0,0:0:0:24:normal-hitwhistle.wav
448,192,36662,1,0,0:0:0:24:normal-hitwhistle.wav
64,192,36835,1,0,0:0:0:90:LR_Drum Rpd x2.wav
320,192,36835,1,0,0:0:0:24:LR4_SnareKKF.wav
192,192,37008,1,0,0:0:0:48:normal-hitwhistle.wav
64,192,37182,128,0,37529:0:0:0:24:normal-hitwhistle.wav
448,192,37182,1,0,0:0:0:24:normal-hitwhistle.wav
320,192,37442,1,0,0:0:0:48:normal-hitwhistle.wav
448,192,37529,1,0,0:0:0:90:LR_Drum Rpd x2.wav
192,192,37702,1,0,0:0:0:48:normal-hitwhistle.wav
320,192,37875,1,0,0:0:0:60:LR_Hat Synth.wav
448,192,38049,1,0,0:0:0:24:normal-hitwhistle.wav
192,192,38049,1,0,0:0:0:24:normal-hitwhistle.wav
320,192,38222,1,0,0:0:0:90:LR_Drum Rpd x2.wav
64,192,38222,1,0,0:0:0:24:LR4_SnareKKF.wav
448,192,38396,128,0,39089:0:0:0:80:LR_CymbalSSD.wav
192,192,38396,1,0,0:0:0:48:normal-hitwhistle.wav
320,192,38743,1,0,0:0:0:55:LR_CymbalCCR.wav
64,192,38743,128,0,39089:0:0:0:48:normal-hitwhistle.wav
320,192,39089,1,0,0:0:0:80:LR_CymbalSSD.wav
192,192,39089,1,0,0:0:0:48:normal-hitwhistle.wav
320,192,39436,1,0,0:0:0:45:LR_Drum Rpd x2.wav
448,192,39436,1,0,0:0:0:45:LR_Drum Rpd x2.wav
64,192,39610,1,0,0:0:0:30:LR_Drum Hit Clap Sn.wav
192,192,39610,1,0,0:0:0:30:LR_Drum Hit Clap Sn.wav
320,192,39783,1,0,0:0:0:90:LR_Drum Rpd x2.wav
192,192,39870,1,0,0:0:0:90:LR_Drum Rpd x2.wav
64,192,39956,1,0,0:0:0:30:normal-hitfinish.wav
448,192,39956,128,0,40477:0:0:0:30:normal-hitfinish.wav
320,192,40217,1,0,0:0:0:48:normal-hitwhistle.wav
192,192,40303,1,0,0:0:0:90:LR_Drum Rpd x2.wav
64,192,40477,1,0,0:0:0:48:normal-hitwhistle.wav
192,192,40650,1,0,0:0:0:60:LR_Hat Synth.wav
64,192,40823,1,0,0:0:0:24:normal-hitwhistle.wav
320,192,40823,1,0,0:0:0:24:normal-hitwhistle.wav
448,192,40997,1,0,0:0:0:90:LR_Drum Rpd x2.wav
192,192,40997,1,0,0:0:0:24:LR4_SnareKKF.wav
320,192,41170,1,0,0:0:0:48:normal-hitwhistle.wav
64,192,41344,128,0,41864:0:0:0:24:normal-hitwhistle.wav
192,192,41344,1,0,0:0:0:24:normal-hitwhistle.wav
448,192,41604,1,0,0:0:0:48:normal-hitwhistle.wav
192,192,41690,1,0,0:0:0:90:LR_Drum Rpd x2.wav
320,192,41864,1,0,0:0:0:48:normal-hitwhistle.wav
64,192,42037,1,0,0:0:0:60:LR_Hat Synth.wav
320,192,42211,1,0,0:0:0:24:normal-hitwhistle.wav
192,192,42211,1,0,0:0:0:24:normal-hitwhistle.wav
448,192,42384,1,0,0:0:0:90:LR_Drum Rpd x2.wav
64,192,42384,1,0,0:0:0:24:LR4_SnareKKF.wav
320,192,42558,1,0,0:0:0:48:normal-hitwhistle.wav
192,192,42731,128,0,43078:0:0:0:24:normal-hitwhistle.wav
448,192,42731,1,0,0:0:0:24:normal-hitwhistle.wav
448,192,42991,1,0,0:0:0:48:normal-hitwhistle.wav
64,192,43078,1,0,0:0:0:90:LR_Drum Rpd x2.wav
320,192,43251,1,0,0:0:0:48:normal-hitwhistle.wav
448,192,43425,1,0,0:0:0:60:LR_Hat Synth.wav
64,192,43598,1,0,0:0:0:48:normal-hitwhistle.wav
192,192,43685,1,0,0:0:0:60:LR_Drum Hit Clap Sn.wav
448,192,43771,1,0,0:0:0:90:LR_Drum Rpd x2.wav
320,192,43858,1,0,0:0:0:60:LR_Drum Hit Clap Sn.wav
192,192,43945,1,0,0:0:0:80:LR_CymbalSSD.wav
64,192,43945,128,0,44638:0:0:0:48:normal-hitwhistle.wav
192,192,44292,128,0,44638:0:0:0:55:LR_CymbalCCR.wav
320,192,44292,1,0,0:0:0:48:normal-hitwhistle.wav
320,192,44638,1,0,0:0:0:80:LR_CymbalSSD.wav
448,192,44638,128,0,44985:0:0:0:48:normal-hitwhistle.wav
64,192,44985,1,0,0:0:0:45:LR_Drum Rpd x2.wav
192,192,44985,1,0,0:0:0:45:LR_Drum Rpd x2.wav
320,192,45159,1,0,0:0:0:30:LR_Drum Hit Clap Sn.wav
448,192,45159,1,0,0:0:0:30:LR_Drum Hit Clap Sn.wav
192,192,45332,1,0,0:0:0:90:LR_Drum Rpd x2.wav
64,192,45506,128,0,46199:0:0:0:20:normal-hitfinish.wav
448,192,45506,1,0,0:0:0:20:normal-hitfinish.wav
320,192,45506,1,0,0:0:0:20:normal-hitfinish.wav
448,192,45852,1,0,0:0:0:60:LR_Hat Synth.wav
320,192,46026,1,0,0:0:0:48:normal-hitwhistle.wav
448,192,46199,128,0,46893:0:0:0:24:normal-hitwhistle.wav
192,192,46199,1,0,0:0:0:24:normal-hitwhistle.wav
64,192,46546,1,0,0:0:0:90:LR_Drum Rpd x2.wav
320,192,46719,1,0,0:0:0:48:normal-hitwhistle.wav
64,192,46893,128,0,47240:0:0:0:30:LR_CymbalFSU.wav
192,192,46893,1,0,0:0:0:30:LR_CymbalFSU.wav
448,192,47240,128,0,47586:0:0:0:40:LR_CymbalSSD.wav
320,192,47240,1,0,0:0:0:40:LR_CymbalSSD.wav
192,192,47586,1,0,0:0:0:30:LR_CymbalFSU.wav
64,192,47586,128,0,47933:0:0:0:30:LR_CymbalFSU.wav
448,192,47933,1,0,0:0:0:90:LR_Drum Rpd x2.wav
320,192,47933,1,0,0:0:0:24:LR4_SnareKKF.wav
192,192,48107,1,0,0:0:0:0:
64,192,48280,1,0,0:0:0:16:normal-hitwhistle.wav
320,192,48280,1,0,0:0:0:16:normal-hitwhistle.wav
448,192,48280,128,0,48974:0:0:0:16:normal-hitwhistle.wav
64,192,48627,1,0,0:0:0:90:LR_Drum Rpd x2.wav
192,192,48800,1,0,0:0:0:48:normal-hitwhistle.wav
320,192,48974,1,0,0:0:0:25:normal-hitwhistle.wav
64,192,48974,128,0,49667:0:0:0:25:normal-hitwhistle.wav
192,192,49321,1,0,0:0:0:90:LR_Drum Rpd x2.wav
320,192,49494,1,0,0:0:0:48:normal-hitwhistle.wav
448,192,49667,1,0,0:0:0:25:LR_CymbalFSU.wav
192,192,49667,1,0,0:0:0:25:LR_CymbalFSU.wav
320,192,49841,1,0,0:0:0:25:LR_CymbalFSU.wav
64,192,49841,1,0,0:0:0:25:LR_CymbalFSU.wav
448,192,50188,1,0,0:0:0:70:LR_CymbalSSD.wav
320,192,50188,1,0,0:0:0:25:LR_CymbalCCR.wav
64,192,50534,1,0,0:0:0:25:LR_CymbalCCR.wav
320,192,50534,128,0,51055:0:0:0:35:LR_CymbalSSD.wav
192,192,50534,1,0,0:0:0:35:LR_CymbalSSD.wav
192,192,51055,1,0,0:0:0:16:normal-hitwhistle.wav
64,192,51055,1,0,0:0:0:16:normal-hitwhistle.wav
448,192,51055,128,0,51748:0:0:0:16:normal-hitwhistle.wav
64,192,51401,1,0,0:0:0:60:LR_Hat Synth.wav
192,192,51575,1,0,0:0:0:48:normal-hitwhistle.wav
64,192,51748,128,0,52442:0:0:0:24:normal-hitwhistle.wav
320,192,51748,1,0,0:0:0:24:normal-hitwhistle.wav
448,192,52095,1,0,0:0:0:90:LR_Drum Rpd x2.wav
320,192,52269,1,0,0:0:0:48:normal-hitwhistle.wav
192,192,52442,128,0,52789:0:0:0:30:LR_CymbalFSU.wav
448,192,52442,1,0,0:0:0:30:LR_CymbalFSU.wav
320,192,52789,1,0,0:0:0:40:LR_CymbalSSD.wav
448,192,52789,128,0,53136:0:0:0:40:LR_CymbalSSD.wav
64,192,53136,128,0,53482:0:0:0:30:LR_CymbalFSU.wav
192,192,53136,1,0,0:0:0:30:LR_CymbalFSU.wav
320,192,53482,1,0,0:0:0:90:LR_Drum Rpd x2.wav
448,192,53482,1,0,0:0:0:24:LR4_SnareKKF.wav
192,192,53829,128,0,54003:0:0:0:16:normal-hitwhistle.wav
448,192,53829,1,0,0:0:0:16:normal-hitwhistle.wav
64,192,53829,1,0,0:0:0:16:normal-hitwhistle.wav
320,192,54003,128,0,54176:0:0:0:0:
64,192,54176,128,0,54349:0:0:0:90:LR_Drum Rpd x2.wav
192,192,54349,128,0,54523:0:0:0:48:normal-hitwhistle.wav
448,192,54523,128,0,54696:0:0:0:48:normal-hitwhistle.wav
64,192,54696,128,0,54870:0:0:0:50:LR_Hat Synth.wav
448,192,54870,128,0,55043:0:0:0:90:LR_Drum Rpd x2.wav
192,192,55043,128,0,55216:0:0:0:0:
320,192,55216,1,0,0:0:0:24:normal-hitwhistle.wav
448,192,55216,1,0,0:0:0:24:normal-hitwhistle.wav
192,192,55303,1,0,0:0:0:0:
64,192,55390,1,0,0:0:0:0:
320,192,55477,1,0,0:0:0:0:
448,192,55563,1,0,0:0:0:90:LR_Drum Rpd x2.wav
192,192,55563,1,0,0:0:0:24:LR4_SnareKKF.wav
64,192,55650,1,0,0:0:0:0:
320,192,55737,1,0,0:0:0:0:
192,192,55823,1,0,0:0:0:0:
448,192,55910,1,0,0:0:0:24:normal-hitwhistle.wav
320,192,55910,1,0,0:0:0:24:normal-hitwhistle.wav
64,192,55997,1,0,0:0:0:0:
192,192,56084,1,0,0:0:0:48:normal-hitwhistle.wav
448,192,56170,1,0,0:0:0:0:
320,192,56257,1,0,0:0:0:90:LR_Drum Rpd x2.wav
64,192,56344,1,0,0:0:0:0:
192,192,56430,1,0,0:0:0:48:normal-hitwhistle.wav
320,192,56517,1,0,0:0:0:75:LR_Drum Rpd x2.wav
64,192,56777,1,0,0:0:0:40:LR_Tom Normal.wav
192,192,56777,1,0,0:0:0:40:LR_Tom Normal.wav
448,192,56951,1,0,0:0:0:40:LR_Tom Normal.wav
320,192,56951,1,0,0:0:0:40:LR_Tom Normal.wav
192,192,57124,1,0,0:0:0:35:LR_Tom Drop.wav
64,192,57124,1,0,0:0:0:35:LR_Tom Drop.wav
448,192,57297,1,0,0:0:0:35:LR_Tom Drop.wav
320,192,57297,1,0,0:0:0:35:LR_Tom Drop.wav
64,192,57471,1,0,0:0:0:70:LR_Drum Hit Clap Sn.wav
192,192,57558,1,0,0:0:0:90:LR_Drum Rpd x2.wav
448,192,57644,1,0,0:0:0:70:LR_Drum Hit Clap Sn.wav
320,192,57731,1,0,0:0:0:90:LR_Drum Rpd x2.wav
64,192,57818,1,0,0:0:0:60:LR_Tom Normal.wav
192,192,57904,1,0,0:0:0:38:LR_Tom Drop.wav
320,192,57991,1,0,0:0:0:60:normal-hitfinish.wav
448,192,57991,1,0,0:0:0:48:normal-hitwhistle.wav
192,192,58164,1,0,0:0:0:100:LR_Hat Synth.wav
64,192,58338,1,0,0:0:0:56:normal-hitclap.wav
448,192,58338,1,0,0:0:0:30:LR4_SnareKKF.wav
320,192,58511,1,0,0:0:0:60:LR_Hat Synth.wav
192,192,58685,1,0,0:0:0:24:normal-hitwhistle.wav
64,192,58685,1,0,0:0:0:24:normal-hitwhistle.wav
448,192,58858,1,0,0:0:0:100:LR_Hat Synth.wav
320,192,59032,1,0,0:0:0:50:LR4_SnareKKF.wav
64,192,59032,1,0,0:0:0:46:normal-hitclap.wav
192,192,59205,1,0,0:0:0:60:LR_Hat Synth.wav
64,192,59378,1,0,0:0:0:24:normal-hitwhistle.wav
448,192,59378,1,0,0:0:0:24:normal-hitwhistle.wav
320,192,59552,1,0,0:0:0:100:LR_Hat Synth.wav
192,192,59725,1,0,0:0:0:56:normal-hitclap.wav
448,192,59725,1,0,0:0:0:30:LR4_SnareKKF.wav
64,192,59899,1,0,0:0:0:60:LR_Hat Synth.wav
320,192,60072,1,0,0:0:0:24:normal-hitwhistle.wav
192,192,60072,1,0,0:0:0:24:normal-hitwhistle.wav
448,192,60245,1,0,0:0:0:100:LR_Hat Synth.wav
320,192,60419,1,0,0:0:0:50:LR4_SnareKKF.wav
64,192,60419,1,0,0:0:0:46:normal-hitclap.wav
192,192,60592,1,0,0:0:0:60:LR_Hat Synth.wav
448,192,60766,1,0,0:0:0:24:normal-hitwhistle.wav
320,192,60766,1,0,0:0:0:24:normal-hitwhistle.wav
64,192,60939,1,0,0:0:0:100:LR_Hat Synth.wav
192,192,61112,1,0,0:0:0:56:normal-hitclap.wav
320,192,61112,1,0,0:0:0:30:LR4_SnareKKF.wav
64,192,61286,1,0,0:0:0:60:LR_Hat Synth.wav
320,192,61459,1,0,0:0:0:24:normal-hitwhistle.wav
448,192,61459,1,0,0:0:0:24:normal-hitwhistle.wav
192,192,61633,1,0,0:0:0:100:LR_Hat Synth.wav
320,192,61719,1,0,0:0:0:80:LR_Drum Hit Clap Sn.wav
64,192,61806,1,0,0:0:0:50:LR4_SnareKKF.wav
192,192,61806,1,0,0:0:0:46:normal-hitclap.wav
448,192,61979,1,0,0:0:0:60:LR_Hat Synth.wav
320,192,62066,1,0,0:0:0:80:LR_Drum Hit Clap Sn.wav
192,192,62153,1,0,0:0:0:30:LR_CymbalSSD.wav
64,192,62153,128,0,62500:0:0:0:30:LR_CymbalSSD.wav
448,192,62500,128,0,62847:0:0:0:23:LR_CymbalFSU.wav
320,192,62500,1,0,0:0:0:23:LR_CymbalFSU.wav
192,192,62673,1,0,0:0:0:0:
64,192,62847,1,0,0:0:0:45:LR_CymbalSSD.wav
320,192,62847,1,0,0:0:0:23:LR_CymbalFSU.wav
192,192,63020,1,0,0:0:0:80:LR_Drum Hit Clap Sn.wav
320,192,63107,1,0,0:0:0:80:LR_Drum Hit Clap Sn.wav
64,192,63193,1,0,0:0:0:60:LR_CymbalCCR.wav
448,192,63193,1,0,0:0:0:36:LR_CymbalSSD.wav
192,192,63280,1,0,0:0:0:0:
320,192,63367,1,0,0:0:0:100:LR_Drum Rpd x2.wav
192,192,63453,1,0,0:0:0:88:LR_Tom Hit.wav
448,192,63540,1,0,0:0:0:77:LR_Tom Drop.wav
64,192,63540,1,0,0:0:0:48:normal-hitwhistle.wav
448,192,63714,1,0,0:0:0:100:LR_Hat Synth.wav
320,192,63887,1,0,0:0:0:56:normal-hitclap.wav
64,192,63887,1,0,0:0:0:30:LR4_SnareKKF.wav
448,192,64060,1,0,0:0:0:100:LR_Hat Synth.wav
64,192,64234,1,0,0:0:0:24:normal-hitwhistle.wav
192,192,64234,1,0,0:0:0:24:normal-hitwhistle.wav
320,192,64407,1,0,0:0:0:100:LR_Hat Synth.wav
448,192,64581,1,0,0:0:0:50:LR4_SnareKKF.wav
192,192,64581,1,0,0:0:0:46:normal-hitclap.wav
64,192,64754,1,0,0:0:0:100:LR_Hat Synth.wav
320,192,64927,1,0,0:0:0:24:normal-hitwhistle.wav
192,192,64927,1,0,0:0:0:24:normal-hitwhistle.wav
64,192,65101,1,0,0:0:0:100:LR_Hat Synth.wav
448,192,65274,1,0,0:0:0:56:normal-hitclap.wav
192,192,65274,1,0,0:0:0:30:LR4_SnareKKF.wav
320,192,65448,1,0,0:0:0:100:LR_Hat Synth.wav
64,192,65621,1,0,0:0:0:24:normal-hitwhistle.wav
448,192,65621,1,0,0:0:0:24:normal-hitwhistle.wav
192,192,65795,1,0,0:0:0:40:LR_Drum Hit Clap Sn.wav
64,192,65968,1,0,0:0:0:50:LR4_SnareKKF.wav
320,192,65968,1,0,0:0:0:46:normal-hitclap.wav
192,192,66141,1,0,0:0:0:50:LR_Hat Synth.wav
448,192,66315,128,0,66662:0:0:0:40:LR_Tom Hit.wav
320,192,66315,128,0,66662:0:0:0:40:LR_Tom Hit.wav
64,192,66662,1,0,0:0:0:30:normal-hitfinish.wav
192,192,66662,1,0,0:0:0:30:normal-hitfinish.wav
64,192,67008,128,0,67355:0:0:0:20:LR_Tom Drop.wav
192,192,67008,128,0,67355:0:0:0:20:LR_Tom Drop.wav
320,192,67355,1,0,0:0:0:30:normal-hitfinish.wav
448,192,67355,1,0,0:0:0:30:normal-hitfinish.wav
64,192,67702,1,0,0:0:0:55:LR_Tom Hit.wav
320,192,67702,1,0,0:0:0:25:normal-hitwhistle.wav
320,192,67875,1,0,0:0:0:70:LR_Tom Hit.wav
448,192,68049,1,0,0:0:0:85:LR_Tom Hit.wav
192,192,68049,1,0,0:0:0:35:normal-hitwhistle.wav
192,192,68222,1,0,0:0:0:100:LR_Tom Hit.wav
320,192,68396,1,0,0:0:0:100:LR_Tom Hit.wav
64,192,68396,1,0,0:0:0:40:normal-hitwhistle.wav
320,192,68569,1,0,0:0:0:90:LR_Drum Rpd x2.wav
448,192,68742,1,0,0:0:0:35:LR_Drum Hit Clap Sn.wav
192,192,68742,1,0,0:0:0:35:LR_Drum Hit Clap Sn.wav
192,192,68916,1,0,0:0:0:85:LR_Tom Normal.wav
448,192,69089,1,0,0:0:0:60:normal-hitfinish.wav
320,192,69089,1,0,0:0:0:48:normal-hitwhistle.wav
64,192,69263,1,0,0:0:0:100:LR_Hat Synth.wav
192,192,69436,1,0,0:0:0:56:normal-hitclap.wav
448,192,69436,1,0,0:0:0:30:LR4_SnareKKF.wav
64,192,69610,1,0,0:0:0:60:LR_Hat Synth.wav
320,192,69783,1,0,0:0:0:24:normal-hitwhistle.wav
192,192,69783,1,0,0:0:0:24:normal-hitwhistle.wav
448,192,69956,1,0,0:0:0:100:LR_Hat Synth.wav
64,192,70130,1,0,0:0:0:50:LR4_SnareKKF.wav
320,192,70130,1,0,0:0:0:46:normal-hitclap.wav
192,192,70303,1,0,0:0:0:60:LR_Hat Synth.wav
320,192,70477,1,0,0:0:0:24:normal-hitwhistle.wav
448,192,70477,1,0,0:0:0:24:normal-hitwhistle.wav
192,192,70650,1,0,0:0:0:100:LR_Hat Synth.wav
64,192,70823,1,0,0:0:0:56:normal-hitclap.wav
320,192,70823,1,0,0:0:0:30:LR4_SnareKKF.wav
448,192,70997,1,0,0:0:0:60:LR_Hat Synth.wav
64,192,71170,1,0,0:0:0:24:normal-hitwhistle.wav
192,192,71170,1,0,0:0:0:24:normal-hitwhistle.wav
320,192,71344,1,0,0:0:0:100:LR_Hat Synth.wav
448,192,71517,1,0,0:0:0:50:LR4_SnareKKF.wav
64,192,71517,1,0,0:0:0:46:normal-hitclap.wav
320,192,71690,1,0,0:0:0:60:LR_Hat Synth.wav
64,192,71864,1,0,0:0:0:24:normal-hitwhistle.wav
192,192,71864,1,0,0:0:0:24:normal-hitwhistle.wav
448,192,72037,1,0,0:0:0:100:LR_Hat Synth.wav
320,192,72211,1,0,0:0:0:56:normal-hitclap.wav
64,192,72211,1,0,0:0:0:30:LR4_SnareKKF.wav
192,192,72384,1,0,0:0:0:60:LR_Hat Synth.wav
448,192,72558,1,0,0:0:0:24:normal-hitwhistle.wav
320,192,72558,1,0,0:0:0:24:normal-hitwhistle.wav
64,192,72731,1,0,0:0:0:100:LR_Hat Synth.wav
320,192,72818,1,0,0:0:0:80:LR_Drum Hit Clap Sn.wav
448,192,72904,1,0,0:0:0:50:LR4_SnareKKF.wav
192,192,72904,1,0,0:0:0:46:normal-hitclap.wav
320,192,73078,1,0,0:0:0:60:LR_Hat Synth.wav
192,192,73164,1,0,0:0:0:80:LR_Drum Hit Clap Sn.wav
64,192,73251,128,0,73598:0:0:0:30:LR_CymbalSSD.wav
448,192,73251,1,0,0:0:0:30:LR_CymbalSSD.wav
320,192,73598,1,0,0:0:0:23:LR_CymbalFSU.wav
448,192,73598,128,0,73945:0:0:0:23:LR_CymbalFSU.wav
64,192,73771,1,0,0:0:0:48:normal-hitwhistle.wav
192,192,73945,1,0,0:0:0:45:LR_CymbalSSD.wav
320,192,73945,1,0,0:0:0:25:LR_CymbalFSU.wav
64,192,74118,1,0,0:0:0:80:LR_Drum Hit Clap Sn.wav
192,192,74205,1,0,0:0:0:80:LR_Drum Hit Clap Sn.wav
320,192,74292,1,0,0:0:0:60:LR_CymbalCCR.wav
448,192,74292,1,0,0:0:0:36:LR_CymbalSSD.wav
192,192,74378,1,0,0:0:0:0:
64,192,74465,1,0,0:0:0:100:LR_Drum Rpd x2.wav
448,192,74552,1,0,0:0:0:88:LR_Tom Hit.wav
320,192,74638,1,0,0:0:0:77:LR_Tom Drop.wav
64,192,74638,1,0,0:0:0:48:normal-hitwhistle.wav
192,192,74812,1,0,0:0:0:100:LR_Hat Synth.wav
64,192,74985,1,0,0:0:0:56:normal-hitclap.wav
320,192,74985,1,0,0:0:0:30:LR4_SnareKKF.wav
448,192,75159,1,0,0:0:0:100:LR_Hat Synth.wav
320,192,75332,1,0,0:0:0:24:normal-hitwhistle.wav
192,192,75332,1,0,0:0:0:24:normal-hitwhistle.wav
448,192,75505,1,0,0:0:0:100:LR_Hat Synth.wav
320,192,75679,1,0,0:0:0:50:LR4_SnareKKF.wav
64,192,75679,1,0,0:0:0:46:normal-hitclap.wav
192,192,75852,1,0,0:0:0:100:LR_Hat Synth.wav
320,192,76026,1,0,0:0:0:24:normal-hitwhistle.wav
448,192,76026,1,0,0:0:0:24:normal-hitwhistle.wav
64,192,76199,1,0,0:0:0:100:LR_Hat Synth.wav
448,192,76373,1,0,0:0:0:56:normal-hitclap.wav
192,192,76373,1,0,0:0:0:30:LR4_SnareKKF.wav
320,192,76546,1,0,0:0:0:100:LR_Hat Synth.wav
192,192,76719,1,0,0:0:0:24:normal-hitwhistle.wav
64,192,76719,1,0,0:0:0:24:normal-hitwhistle.wav
448,192,76893,1,0,0:0:0:40:LR_Drum Hit Clap Sn.wav
320,192,77066,1,0,0:0:0:50:LR4_SnareKKF.wav
64,192,77066,1,0,0:0:0:46:normal-hitclap.wav
192,192,77240,1,0,0:0:0:50:LR_Hat Synth.wav
448,192,77413,1,0,0:0:0:80:LR_Tom Hit.wav
320,192,77500,1,0,0:0:0:60:LR_Tom Hit.wav
192,192,77586,1,0,0:0:0:60:LR_Tom Hit.wav
64,192,77673,1,0,0:0:0:60:LR_Tom Hit.wav
320,192,77760,1,0,0:0:0:30:normal-hitfinish.wav
448,192,77760,1,0,0:0:0:30:normal-hitfinish.wav
64,192,78107,1,0,0:0:0:40:LR_Tom Drop.wav
192,192,78193,1,0,0:0:0:30:LR_Tom Drop.wav
320,192,78280,1,0,0:0:0:40:LR_Drum Hit Clap Sn.wav
448,192,78367,1,0,0:0:0:30:LR_Tom Drop.wav
64,192,78453,1,0,0:0:0:30:normal-hitfinish.wav
192,192,78453,1,0,0:0:0:30:normal-hitfinish.wav
320,192,78627,1,0,0:0:0:60:LR_Tom Drop.wav
448,192,78800,1,0,0:0:0:100:LR_Tom Hit.wav
192,192,78800,1,0,0:0:0:40:normal-hitwhistle.wav
320,192,78974,1,0,0:0:0:80:LR_Drum Rpd x2.wav
192,192,79147,1,0,0:0:0:100:LR_Tom Hit.wav
64,192,79147,1,0,0:0:0:40:normal-hitwhistle.wav
320,192,79321,1,0,0:0:0:48:normal-hitwhistle.wav
448,192,79494,1,0,0:0:0:100:LR_Tom Hit.wav
64,192,79494,1,0,0:0:0:40:normal-hitwhistle.wav
192,192,79667,1,0,0:0:0:90:LR_Drum Rpd x2.wav
320,192,79754,1,0,0:0:0:90:LR_Drum Rpd x2.wav
448,192,79841,1,0,0:0:0:70:LR_Drum Hit Clap Sn.wav
64,192,80014,1,0,0:0:0:85:LR_Tom Normal.wav
192,192,80188,1,0,0:0:0:60:normal-hitfinish.wav
448,192,80188,1,0,0:0:0:48:normal-hitwhistle.wav
192,192,80534,1,0,0:0:0:56:normal-hitclap.wav
64,192,80534,1,0,0:0:0:30:LR4_SnareKKF.wav
320,192,80881,1,0,0:0:0:24:normal-hitwhistle.wav
448,192,80881,1,0,0:0:0:24:normal-hitwhistle.wav
192,192,81055,1,0,0:0:0:0:
64,192,81228,1,0,0:0:0:50:LR4_SnareKKF.wav
320,192,81228,1,0,0:0:0:46:normal-hitclap.wav
448,192,81401,1,0,0:0:0:0:
64,192,81575,1,0,0:0:0:24:normal-hitwhistle.wav
192,192,81575,1,0,0:0:0:24:normal-hitwhistle.wav
320,192,81748,1,0,0:0:0:0:
192,192,81922,1,0,0:0:0:56:normal-hitclap.wav
448,192,81922,1,0,0:0:0:30:LR4_SnareKKF.wav
64,192,82095,1,0,0:0:0:0:
448,192,82268,1,0,0:0:0:24:normal-hitwhistle.wav
320,192,82268,1,0,0:0:0:24:normal-hitwhistle.wav
192,192,82442,1,0,0:0:0:0:
320,192,82615,1,0,0:0:0:50:LR4_SnareKKF.wav
64,192,82615,1,0,0:0:0:46:normal-hitclap.wav
448,192,82702,1,0,0:0:0:0:
64,192,82789,1,0,0:0:0:0:
192,192,82875,1,0,0:0:0:0:
320,192,82962,1,0,0:0:0:24:normal-hitwhistle.wav
448,192,82962,1,0,0:0:0:24:normal-hitwhistle.wav
320,192,83309,1,0,0:0:0:56:normal-hitclap.wav
64,192,83309,1,0,0:0:0:30:LR4_SnareKKF.wav
64,192,83656,1,0,0:0:0:24:normal-hitwhistle.wav
192,192,83656,1,0,0:0:0:24:normal-hitwhistle.wav
320,192,83829,1,0,0:0:0:70:LR_Drum Hit Clap Sn.wav
192,192,83916,1,0,0:0:0:100:LR_Drum Rpd x2.wav
448,192,84003,1,0,0:0:0:50:LR4_SnareKKF.wav
320,192,84003,1,0,0:0:0:46:normal-hitclap.wav
192,192,84176,1,0,0:0:0:70:LR_Drum Hit Clap Sn.wav
320,192,84263,1,0,0:0:0:100:LR_Drum Rpd x2.wav
192,192,84349,1,0,0:0:0:30:LR_CymbalSSD.wav
64,192,84349,1,0,0:0:0:30:LR_CymbalSSD.wav
448,192,84696,1,0,0:0:0:23:LR_CymbalFSU.wav
320,192,84696,1,0,0:0:0:23:LR_CymbalFSU.wav
192,192,84870,1,0,0:0:0:0:
64,192,84870,1,0,0:0:0:0:
448,192,85043,1,0,0:0:0:45:LR_CymbalSSD.wav
320,192,85043,1,0,0:0:0:23:LR_CymbalFSU.wav
192,192,85216,1,0,0:0:0:70:LR_Drum Hit Clap Sn.wav
320,192,85303,1,0,0:0:0:100:LR_Drum Rpd x2.wav
192,192,85390,1,0,0:0:0:60:LR_CymbalCCR.wav
64,192,85390,1,0,0:0:0:36:LR_CymbalSSD.wav
320,192,85563,1,0,0:0:0:100:LR_Drum Rpd x2.wav
192,192,85650,1,0,0:0:0:88:LR_Tom Hit.wav
448,192,85737,128,0,86257:0:0:0:77:LR_Tom Drop.wav
320,192,85737,1,0,0:0:0:48:normal-hitwhistle.wav
64,192,85910,1,0,0:0:0:32:normal-hitwhistle.wav
320,192,86084,1,0,0:0:0:56:normal-hitclap.wav
192,192,86084,1,0,0:0:0:30:LR4_SnareKKF.wav
64,192,86257,1,0,0:0:0:0:
320,192,86344,1,0,0:0:0:0:
192,192,86430,128,0,86604:0:0:0:48:normal-hitwhistle.wav
320,192,86604,128,0,86777:0:0:0:0:
64,192,86777,128,0,86951:0:0:0:50:LR4_SnareKKF.wav
448,192,86777,1,0,0:0:0:46:normal-hitclap.wav
192,192,86951,128,0,87297:0:0:0:0:
320,192,87124,1,0,0:0:0:48:normal-hitwhistle.wav
448,192,87297,128,0,87471:0:0:0:32:normal-hitwhistle.wav
64,192,87471,1,0,0:0:0:56:normal-hitclap.wav
320,192,87471,128,0,87644:0:0:0:30:LR4_SnareKKF.wav
448,192,87644,128,0,87991:0:0:0:0:
192,192,87818,1,0,0:0:0:48:normal-hitwhistle.wav
320,192,87991,1,0,0:0:0:0:
192,192,88164,1,0,0:0:0:50:LR4_SnareKKF.wav
64,192,88164,1,0,0:0:0:46:normal-hitclap.wav
320,192,88338,1,0,0:0:0:0:
448,192,88511,1,0,0:0:0:80:LR_Tom Hit.wav
192,192,88598,1,0,0:0:0:60:LR_Tom Hit.wav
320,192,88685,1,0,0:0:0:60:LR_Tom Hit.wav
64,192,88771,1,0,0:0:0:60:LR_Tom Hit.wav
448,192,88858,1,0,0:0:0:30:normal-hitfinish.wav
320,192,88858,1,0,0:0:0:30:normal-hitfinish.wav
64,192,89205,1,0,0:0:0:40:LR_Tom Drop.wav
320,192,89292,1,0,0:0:0:30:LR_Tom Drop.wav
192,192,89378,1,0,0:0:0:40:LR_Drum Hit Clap Sn.wav
448,192,89465,1,0,0:0:0:30:LR_Tom Drop.wav
64,192,89552,1,0,0:0:0:30:normal-hitfinish.wav
192,192,89552,1,0,0:0:0:30:normal-hitfinish.wav
320,192,89725,1,0,0:0:0:0:
192,192,89812,1,0,0:0:0:0:
320,192,89899,1,0,0:0:0:55:LR_Tom Hit.wav
448,192,89899,1,0,0:0:0:25:normal-hitwhistle.wav
192,192,90072,1,0,0:0:0:70:LR_Tom Hit.wav
64,192,90072,1,0,0:0:0:30:normal-hitwhistle.wav
192,192,90245,1,0,0:0:0:85:LR_Tom Hit.wav
320,192,90245,1,0,0:0:0:35:normal-hitwhistle.wav
320,192,90419,1,0,0:0:0:100:LR_Tom Hit.wav
448,192,90419,1,0,0:0:0:40:normal-hitwhistle.wav
448,192,90766,1,0,0:0:0:90:LR_Drum Rpd x2.wav
320,192,90852,1,0,0:0:0:90:LR_Drum Rpd x2.wav
64,192,90939,1,0,0:0:0:35:LR_Drum Hit Clap Sn.wav
192,192,90939,1,0,0:0:0:35:LR_Drum Hit Clap Sn.wav
448,192,91112,1,0,0:0:0:85:LR_Tom Normal.wav
64,192,91286,1,0,0:0:0:45:LR_Hat Synth.wav
192,192,91633,1,0,0:0:0:28:LR3_Hat CRS.wav
448,192,91806,1,0,0:0:0:30:LR_Hat Synth.wav
192,192,91979,1,0,0:0:0:28:LR3_Hat CRS.wav
320,192,92153,1,0,0:0:0:30:LR_Hat Synth.wav
64,192,92326,1,0,0:0:0:28:LR3_Hat CRS.wav
192,192,92500,1,0,0:0:0:18:LR3_Hat CRS.wav
320,192,92673,1,0,0:0:0:28:LR3_Hat CRS.wav
64,192,92847,1,0,0:0:0:30:LR_Hat Synth.wav
448,192,93020,1,0,0:0:0:28:LR3_Hat CRS.wav
320,192,93193,1,0,0:0:0:30:LR_Hat Synth.wav
192,192,93367,1,0,0:0:0:28:LR3_Hat CRS.wav
448,192,93540,1,0,0:0:0:30:LR_Hat Synth.wav
64,192,93714,1,0,0:0:0:28:LR3_Hat CRS.wav
320,192,93887,1,0,0:0:0:18:LR3_Hat CRS.wav
64,192,94060,1,0,0:0:0:28:LR3_Hat CRS.wav
320,192,94234,1,0,0:0:0:30:LR_Hat Synth.wav
448,192,94407,1,0,0:0:0:45:LR3_Hat CRS.wav
192,192,94581,1,0,0:0:0:30:LR_Hat Synth.wav
64,192,94754,1,0,0:0:0:40:LR_Tom Hit.wav
448,192,94754,1,0,0:0:0:40:LR_Tom Hit.wav
192,192,94927,1,0,0:0:0:56:LR_Drum Hit Clap Sn.wav
320,192,95014,1,0,0:0:0:90:LR_Drum Rpd x2.wav
448,192,95101,1,0,0:0:0:90:LR_Drum Rpd x2.wav
320,192,95274,1,0,0:0:0:80:LR_CymbalSSD.wav
64,192,95274,128,0,95968:0:0:0:48:normal-hitwhistle.wav
192,192,95621,1,0,0:0:0:55:LR_CymbalCCR.wav
448,192,95621,128,0,95968:0:0:0:48:normal-hitwhistle.wav
320,192,95968,1,0,0:0:0:80:LR_CymbalSSD.wav
192,192,95968,1,0,0:0:0:48:normal-hitwhistle.wav
192,192,96315,1,0,0:0:0:45:LR_Drum Rpd x2.wav
64,192,96315,1,0,0:0:0:45:LR_Drum Rpd x2.wav
320,192,96488,1,0,0:0:0:30:LR_Drum Hit Clap Sn.wav
448,192,96488,1,0,0:0:0:30:LR_Drum Hit Clap Sn.wav
192,192,96662,1,0,0:0:0:90:LR_Drum Rpd x2.wav
320,192,96748,1,0,0:0:0:90:LR_Drum Rpd x2.wav
64,192,96835,128,0,97355:0:0:0:30:normal-hitfinish.wav
448,192,96835,1,0,0:0:0:30:normal-hitfinish.wav
192,192,97095,1,0,0:0:0:48:normal-hitwhistle.wav
320,192,97182,1,0,0:0:0:90:LR_Drum Rpd x2.wav
448,192,97355,1,0,0:0:0:48:normal-hitwhistle.wav
320,192,97529,1,0,0:0:0:60:LR_Hat Synth.wav
448,192,97702,1,0,0:0:0:24:normal-hitwhistle.wav
192,192,97702,1,0,0:0:0:24:normal-hitwhistle.wav
64,192,97875,1,0,0:0:0:90:LR_Drum Rpd x2.wav
320,192,97875,1,0,0:0:0:24:LR4_SnareKKF.wav
448,192,98049,1,0,0:0:0:48:normal-hitwhistle.wav
192,192,98222,1,0,0:0:0:24:normal-hitwhistle.wav
320,192,98222,128,0,98742:0:0:0:24:normal-hitwhistle.wav
448,192,98482,1,0,0:0:0:48:normal-hitwhistle.wav
64,192,98569,1,0,0:0:0:90:LR_Drum Rpd x2.wav
192,192,98742,1,0,0:0:0:48:normal-hitwhistle.wav
448,192,98916,1,0,0:0:0:60:LR_Hat Synth.wav
192,192,99089,1,0,0:0:0:24:normal-hitwhistle.wav
320,192,99089,1,0,0:0:0:24:normal-hitwhistle.wav
448,192,99263,1,0,0:0:0:90:LR_Drum Rpd x2.wav
64,192,99263,1,0,0:0:0:24:LR4_SnareKKF.wav
320,192,99436,1,0,0:0:0:48:normal-hitwhistle.wav
448,192,99610,1,0,0:0:0:24:normal-hitwhistle.wav
192,192,99610,128,0,99956:0:0:0:24:normal-hitwhistle.wav
64,192,99870,1,0,0:0:0:48:normal-hitwhistle.wav
448,192,99956,1,0,0:0:0:90:LR_Drum Rpd x2.wav
320,192,100130,1,0,0:0:0:48:normal-hitwhistle.wav
64,192,100303,1,0,0:0:0:60:LR_Hat Synth.wav
448,192,100477,1,0,0:0:0:48:normal-hitwhistle.wav
320,192,100563,1,0,0:0:0:50:LR_Drum Hit Clap Sn.wav
64,192,100650,1,0,0:0:0:90:LR_Drum Rpd x2.wav
192,192,100737,1,0,0:0:0:50:LR_Drum Hit Clap Sn.wav
320,192,100823,1,0,0:0:0:80:LR_CymbalSSD.wav
448,192,100823,128,0,101517:0:0:0:48:normal-hitwhistle.wav
192,192,101170,1,0,0:0:0:55:LR_CymbalCCR.wav
320,192,101170,128,0,101517:0:0:0:48:normal-hitwhistle.wav
64,192,101517,1,0,0:0:0:80:LR_CymbalSSD.wav
192,192,101517,1,0,0:0:0:48:normal-hitwhistle.wav
320,192,101864,1,0,0:0:0:45:LR_Drum Rpd x2.wav
448,192,101864,1,0,0:0:0:45:LR_Drum Rpd x2.wav
192,192,102037,1,0,0:0:0:30:LR_Drum Hit Clap Sn.wav
64,192,102037,1,0,0:0:0:30:LR_Drum Hit Clap Sn.wav
320,192,102211,1,0,0:0:0:90:LR_Drum Rpd x2.wav
448,192,102384,128,0,103078:0:0:0:20:normal-hitfinish.wav
64,192,102384,1,0,0:0:0:20:normal-hitfinish.wav
192,192,102384,1,0,0:0:0:20:normal-hitfinish.wav
64,192,102731,1,0,0:0:0:60:LR_Hat Synth.wav
192,192,102904,1,0,0:0:0:48:normal-hitwhistle.wav
64,192,103078,128,0,103771:0:0:0:24:normal-hitwhistle.wav
320,192,103078,1,0,0:0:0:24:normal-hitwhistle.wav
448,192,103425,1,0,0:0:0:90:LR_Drum Rpd x2.wav
192,192,103598,1,0,0:0:0:48:normal-hitwhistle.wav
448,192,103771,128,0,104118:0:0:0:30:LR_CymbalFSU.wav
320,192,103771,1,0,0:0:0:30:LR_CymbalFSU.wav
192,192,104118,1,0,0:0:0:40:LR_CymbalSSD.wav
64,192,104118,128,0,104465:0:0:0:40:LR_CymbalSSD.wav
320,192,104465,1,0,0:0:0:30:LR_CymbalFSU.wav
448,192,104465,128,0,104812:0:0:0:30:LR_CymbalFSU.wav
64,192,104812,1,0,0:0:0:90:LR_Drum Rpd x2.wav
192,192,104812,1,0,0:0:0:24:LR4_SnareKKF.wav
320,192,104985,1,0,0:0:0:0:
192,192,105159,1,0,0:0:0:16:normal-hitwhistle.wav
448,192,105159,1,0,0:0:0:16:normal-hitwhistle.wav
64,192,105159,128,0,105852:0:0:0:16:normal-hitwhistle.wav
448,192,105505,1,0,0:0:0:90:LR_Drum Rpd x2.wav
320,192,105679,1,0,0:0:0:48:normal-hitwhistle.wav
192,192,105852,1,0,0:0:0:25:normal-hitwhistle.wav
448,192,105852,128,0,106546:0:0:0:25:normal-hitwhistle.wav
320,192,106199,1,0,0:0:0:90:LR_Drum Rpd x2.wav
192,192,106373,1,0,0:0:0:48:normal-hitwhistle.wav
64,192,106546,1,0,0:0:0:25:LR_CymbalFSU.wav
320,192,106546,1,0,0:0:0:25:LR_CymbalFSU.wav
448,192,106719,1,0,0:0:0:25:LR_CymbalFSU.wav
192,192,106719,1,0,0:0:0:25:LR_CymbalFSU.wav
192,192,107066,1,0,0:0:0:70:LR_CymbalSSD.wav
64,192,107066,1,0,0:0:0:25:LR_CymbalCCR.wav
320,192,107413,1,0,0:0:0:25:LR_CymbalCCR.wav
448,192,107413,1,0,0:0:0:35:LR_CymbalSSD.wav
192,192,107413,128,0,107933:0:0:0:35:LR_CymbalSSD.wav
64,192,107933,128,0,108627:0:0:0:24:normal-hitwhistle.wav
320,192,107933,1,0,0:0:0:24:normal-hitwhistle.wav
448,192,108280,1,0,0:0:0:60:LR_Hat Synth.wav
320,192,108453,1,0,0:0:0:48:normal-hitwhistle.wav
192,192,108627,1,0,0:0:0:24:normal-hitwhistle.wav
448,192,108627,128,0,109320:0:0:0:24:normal-hitwhistle.wav
64,192,108974,1,0,0:0:0:90:LR_Drum Rpd x2.wav
192,192,109147,1,0,0:0:0:48:normal-hitwhistle.wav
320,192,109320,128,0,109667:0:0:0:30:LR_CymbalFSU.wav
64,192,109320,1,0,0:0:0:30:LR_CymbalFSU.wav
192,192,109667,1,0,0:0:0:40:LR_CymbalSSD.wav
64,192,109667,128,0,110014:0:0:0:40:LR_CymbalSSD.wav
448,192,110014,128,0,110361:0:0:0:30:LR_CymbalFSU.wav
320,192,110014,1,0,0:0:0:30:LR_CymbalFSU.wav
64,192,110361,1,0,0:0:0:90:LR_Drum Rpd x2.wav
192,192,110361,1,0,0:0:0:24:LR4_SnareKKF.wav
448,192,110708,1,0,0:0:0:16:normal-hitwhistle.wav
320,192,110708,128,0,110881:0:0:0:16:normal-hitwhistle.wav
64,192,110708,1,0,0:0:0:16:normal-hitwhistle.wav
192,192,110881,128,0,111055:0:0:0:0:
448,192,111055,128,0,111228:0:0:0:90:LR_Drum Rpd x2.wav
320,192,111228,128,0,111401:0:0:0:48:normal-hitwhistle.wav
64,192,111401,128,0,111575:0:0:0:48:normal-hitwhistle.wav
320,192,111575,128,0,111748:0:0:0:50:LR_Hat Synth.wav
192,192,111748,128,0,111922:0:0:0:90:LR_Drum Rpd x2.wav
448,192,111922,128,0,112095:0:0:0:48:normal-hitwhistle.wav
192,192,112095,1,0,0:0:0:35:LR_Drum Rpd x2.wav
64,192,112095,1,0,0:0:0:35:LR_Drum Rpd x2.wav
320,192,112182,1,0,0:0:0:0:
448,192,112268,1,0,0:0:0:48:normal-hitwhistle.wav
192,192,112355,1,0,0:0:0:0:
64,192,112442,1,0,0:0:0:90:LR_Drum Rpd x2.wav
320,192,112442,1,0,0:0:0:24:LR4_SnareKKF.wav
448,192,112529,1,0,0:0:0:0:
64,192,112615,1,0,0:0:0:48:normal-hitwhistle.wav
192,192,112702,1,0,0:0:0:0:
448,192,112789,1,0,0:0:0:35:LR_Drum Rpd x2.wav
320,192,112789,1,0,0:0:0:35:LR_Drum Rpd x2.wav
64,192,112875,1,0,0:0:0:0:
192,192,112962,1,0,0:0:0:48:normal-hitwhistle.wav
448,192,113049,1,0,0:0:0:0:
320,192,113136,1,0,0:0:0:90:LR_Drum Rpd x2.wav
64,192,113222,1,0,0:0:0:0:
192,192,113309,1,0,0:0:0:48:normal-hitwhistle.wav
320,192,113396,1,0,0:0:0:75:LR_Drum Rpd x2.wav
64,192,113656,1,0,0:0:0:40:LR_Tom Normal.wav
192,192,113656,1,0,0:0:0:40:LR_Tom Normal.wav
64,192,113829,1,0,0:0:0:40:LR_Tom Normal.wav
320,192,113829,1,0,0:0:0:40:LR_Tom Normal.wav
192,192,114003,1,0,0:0:0:40:LR_Tom Hit.wav
448,192,114003,1,0,0:0:0:40:LR_Tom Hit.wav
320,192,114176,1,0,0:0:0:40:LR_Tom Hit.wav
448,192,114176,1,0,0:0:0:40:LR_Tom Hit.wav
64,192,114436,1,0,0:0:0:50:LR_Tom Hit.wav
320,192,114436,1,0,0:0:0:50:LR_Tom Hit.wav
448,192,114696,1,0,0:0:0:100:LR_Tom Hit.wav
448,192,114783,1,0,0:0:0:80:LR_Tom Hit.wav
64,192,114870,1,0,0:0:0:60:normal-hitfinish.wav
192,192,114870,1,0,0:0:0:48:normal-hitwhistle.wav
320,192,115043,1,0,0:0:0:100:LR_Hat Synth.wav
64,192,115216,1,0,0:0:0:56:normal-hitclap.wav
448,192,115216,1,0,0:0:0:30:LR4_SnareKKF.wav
192,192,115390,1,0,0:0:0:60:LR_Hat Synth.wav
448,192,115563,1,0,0:0:0:24:normal-hitwhistle.wav
320,192,115563,1,0,0:0:0:24:normal-hitwhistle.wav
192,192,115737,1,0,0:0:0:100:LR_Hat Synth.wav
448,192,115910,1,0,0:0:0:50:LR4_SnareKKF.wav
64,192,115910,1,0,0:0:0:46:normal-hitclap.wav
320,192,116083,1,0,0:0:0:60:LR_Hat Synth.wav
192,192,116257,1,0,0:0:0:24:normal-hitwhistle.wav
64,192,116257,1,0,0:0:0:24:normal-hitwhistle.wav
320,192,116430,1,0,0:0:0:100:LR_Hat Synth.wav
64,192,116604,1,0,0:0:0:56:normal-hitclap.wav
448,192,116604,1,0,0:0:0:30:LR4_SnareKKF.wav
320,192,116777,1,0,0:0:0:60:LR_Hat Synth.wav
192,192,116951,1,0,0:0:0:24:normal-hitwhistle.wav
64,192,116951,1,0,0:0:0:24:normal-hitwhistle.wav
320,192,117124,1,0,0:0:0:100:LR_Hat Synth.wav
448,192,117297,1,0,0:0:0:50:LR4_SnareKKF.wav
64,192,117297,1,0,0:0:0:46:normal-hitclap.wav
320,192,117471,1,0,0:0:0:60:LR_Hat Synth.wav
192,192,117644,1,0,0:0:0:24:normal-hitwhistle.wav
448,192,117644,1,0,0:0:0:24:normal-hitwhistle.wav
64,192,117818,1,0,0:0:0:100:LR_Hat Synth.wav
448,192,117991,1,0,0:0:0:56:normal-hitclap.wav
320,192,117991,1,0,0:0:0:30:LR4_SnareKKF.wav
192,192,118164,1,0,0:0:0:60:LR_Hat Synth.wav
448,192,118338,1,0,0:0:0:24:normal-hitwhistle.wav
64,192,118338,1,0,0:0:0:24:normal-hitwhistle.wav
320,192,118511,1,0,0:0:0:100:LR_Hat Synth.wav
192,192,118598,1,0,0:0:0:80:LR_Drum Hit Clap Sn.wav
448,192,118685,1,0,0:0:0:50:LR4_SnareKKF.wav
320,192,118685,1,0,0:0:0:46:normal-hitclap.wav
64,192,118858,1,0,0:0:0:60:LR_Hat Synth.wav
192,192,118945,1,0,0:0:0:80:LR_Drum Hit Clap Sn.wav
448,192,119031,1,0,0:0:0:30:LR_CymbalSSD.wav
320,192,119031,128,0,119378:0:0:0:30:LR_CymbalSSD.wav
192,192,119378,1,0,0:0:0:23:LR_CymbalFSU.wav
64,192,119378,128,0,119725:0:0:0:23:LR_CymbalFSU.wav
320,192,119552,1,0,0:0:0:0:
448,192,119725,1,0,0:0:0:45:LR_CymbalSSD.wav
192,192,119899,1,0,0:0:0:80:LR_Drum Hit Clap Sn.wav
320,192,119985,1,0,0:0:0:80:LR_Drum Hit Clap Sn.wav
64,192,120072,1,0,0:0:0:60:LR_CymbalCCR.wav
448,192,120072,1,0,0:0:0:36:LR_CymbalSSD.wav
320,192,120159,1,0,0:0:0:0:
64,192,120245,1,0,0:0:0:100:LR_Drum Rpd x2.wav
192,192,120332,1,0,0:0:0:88:LR_Tom Hit.wav
448,192,120419,1,0,0:0:0:77:LR_Tom Drop.wav
320,192,120419,1,0,0:0:0:48:normal-hitwhistle.wav
320,192,120592,1,0,0:0:0:100:LR_Hat Synth.wav
192,192,120766,1,0,0:0:0:56:normal-hitclap.wav
448,192,120766,1,0,0:0:0:30:LR4_SnareKKF.wav
64,192,120939,1,0,0:0:0:100:LR_Hat Synth.wav
448,192,121112,1,0,0:0:0:24:normal-hitwhistle.wav
320,192,121112,1,0,0:0:0:24:normal-hitwhistle.wav
192,192,121286,1,0,0:0:0:100:LR_Hat Synth.wav
64,192,121459,1,0,0:0:0:50:LR4_SnareKKF.wav
320,192,121459,1,0,0:0:0:46:normal-hitclap.wav
448,192,121633,1,0,0:0:0:100:LR_Hat Synth.wav
64,192,121806,1,0,0:0:0:24:normal-hitwhistle.wav
320,192,121806,1,0,0:0:0:24:normal-hitwhistle.wav
192,192,121979,1,0,0:0:0:100:LR_Hat Synth.wav
320,192,122153,1,0,0:0:0:56:normal-hitclap.wav
64,192,122153,1,0,0:0:0:30:LR4_SnareKKF.wav
448,192,122326,1,0,0:0:0:100:LR_Hat Synth.wav
64,192,122500,1,0,0:0:0:24:normal-hitwhistle.wav
192,192,122500,1,0,0:0:0:24:normal-hitwhistle.wav
320,192,122673,1,0,0:0:0:40:LR_Drum Hit Clap Sn.wav
192,192,122846,1,0,0:0:0:50:LR4_SnareKKF.wav
448,192,122846,1,0,0:0:0:46:normal-hitclap.wav
320,192,123020,1,0,0:0:0:70:LR_Hat Synth.wav
192,192,123193,128,0,123540:0:0:0:40:LR_Tom Hit.wav
64,192,123193,128,0,123540:0:0:0:40:LR_Tom Hit.wav
320,192,123540,1,0,0:0:0:30:normal-hitfinish.wav
448,192,123540,1,0,0:0:0:30:normal-hitfinish.wav
320,192,123887,128,0,124234:0:0:0:20:LR_Tom Drop.wav
448,192,123887,128,0,124234:0:0:0:20:LR_Tom Drop.wav
64,192,124234,1,0,0:0:0:30:normal-hitfinish.wav
192,192,124234,1,0,0:0:0:30:normal-hitfinish.wav
448,192,124581,1,0,0:0:0:55:LR_Tom Hit.wav
192,192,124581,1,0,0:0:0:25:normal-hitwhistle.wav
448,192,124754,1,0,0:0:0:70:LR_Tom Hit.wav
320,192,124927,1,0,0:0:0:85:LR_Tom Hit.wav
64,192,124927,1,0,0:0:0:35:normal-hitwhistle.wav
64,192,125101,1,0,0:0:0:100:LR_Tom Hit.wav
448,192,125274,1,0,0:0:0:100:LR_Tom Hit.wav
192,192,125274,1,0,0:0:0:40:normal-hitwhistle.wav
448,192,125448,1,0,0:0:0:90:LR_Drum Rpd x2.wav
320,192,125621,1,0,0:0:0:35:LR_Drum Hit Clap Sn.wav
64,192,125621,1,0,0:0:0:35:LR_Drum Hit Clap Sn.wav
64,192,125794,1,0,0:0:0:85:LR_Tom Normal.wav
320,192,125968,1,0,0:0:0:60:normal-hitfinish.wav
192,192,125968,1,0,0:0:0:48:normal-hitwhistle.wav
448,192,126141,1,0,0:0:0:100:LR_Hat Synth.wav
64,192,126315,1,0,0:0:0:56:normal-hitclap.wav
320,192,126315,1,0,0:0:0:30:LR4_SnareKKF.wav
448,192,126488,1,0,0:0:0:60:LR_Hat Synth.wav
320,192,126662,1,0,0:0:0:24:normal-hitwhistle.wav
192,192,126662,1,0,0:0:0:24:normal-hitwhistle.wav
64,192,126835,1,0,0:0:0:100:LR_Hat Synth.wav
448,192,127008,1,0,0:0:0:50:LR4_SnareKKF.wav
192,192,127008,1,0,0:0:0:46:normal-hitclap.wav
320,192,127182,1,0,0:0:0:60:LR_Hat Synth.wav
192,192,127355,1,0,0:0:0:24:normal-hitwhistle.wav
64,192,127355,1,0,0:0:0:24:normal-hitwhistle.wav
320,192,127529,1,0,0:0:0:100:LR_Hat Synth.wav
448,192,127702,1,0,0:0:0:56:normal-hitclap.wav
192,192,127702,1,0,0:0:0:30:LR4_SnareKKF.wav
64,192,127875,1,0,0:0:0:60:LR_Hat Synth.wav
448,192,128049,1,0,0:0:0:24:normal-hitwhistle.wav
320,192,128049,1,0,0:0:0:24:normal-hitwhistle.wav
192,192,128222,1,0,0:0:0:100:LR_Hat Synth.wav
64,192,128396,1,0,0:0:0:50:LR4_SnareKKF.wav
448,192,128396,1,0,0:0:0:46:normal-hitclap.wav
192,192,128569,1,0,0:0:0:60:LR_Hat Synth.wav
320,192,128742,1,0,0:0:0:24:normal-hitwhistle.wav
448,192,128742,1,0,0:0:0:24:normal-hitwhistle.wav
64,192,128916,1,0,0:0:0:100:LR_Hat Synth.wav
448,192,129089,1,0,0:0:0:56:normal-hitclap.wav
192,192,129089,1,0,0:0:0:30:LR4_SnareKKF.wav
320,192,129263,1,0,0:0:0:60:LR_Hat Synth.wav
64,192,129436,1,0,0:0:0:24:normal-hitwhistle.wav
192,192,129436,1,0,0:0:0:24:normal-hitwhistle.wav
448,192,129609,1,0,0:0:0:100:LR_Hat Synth.wav
320,192,129783,1,0,0:0:0:50:LR4_SnareKKF.wav
64,192,129783,1,0,0:0:0:46:normal-hitclap.wav
192,192,129956,1,0,0:0:0:60:LR_Hat Synth.wav
448,192,130130,128,0,130477:0:0:0:30:LR_CymbalSSD.wav
64,192,130130,1,0,0:0:0:30:LR_CymbalSSD.wav
64,192,130477,128,0,130823:0:0:0:23:LR_CymbalFSU.wav
192,192,130477,1,0,0:0:0:23:LR_CymbalFSU.wav
320,192,130650,1,0,0:0:0:48:normal-hitwhistle.wav
448,192,130823,1,0,0:0:0:45:LR_CymbalSSD.wav
320,192,130997,1,0,0:0:0:80:LR_Drum Hit Clap Sn.wav
192,192,131083,1,0,0:0:0:80:LR_Drum Hit Clap Sn.wav
64,192,131170,1,0,0:0:0:60:LR_CymbalCCR.wav
448,192,131170,1,0,0:0:0:36:LR_CymbalSSD.wav
320,192,131257,1,0,0:0:0:0:
192,192,131344,1,0,0:0:0:100:LR_Drum Rpd x2.wav
320,192,131430,1,0,0:0:0:88:LR_Tom Hit.wav
192,192,131517,1,0,0:0:0:77:LR_Tom Drop.wav
64,192,131517,1,0,0:0:0:48:normal-hitwhistle.wav
64,192,131690,1,0,0:0:0:100:LR_Hat Synth.wav
448,192,131864,1,0,0:0:0:56:normal-hitclap.wav
320,192,131864,1,0,0:0:0:30:LR4_SnareKKF.wav
192,192,132037,1,0,0:0:0:100:LR_Hat Synth.wav
64,192,132211,1,0,0:0:0:24:normal-hitwhistle.wav
448,192,132211,1,0,0:0:0:24:normal-hitwhistle.wav
320,192,132384,1,0,0:0:0:100:LR_Hat Synth.wav
64,192,132557,1,0,0:0:0:50:LR4_SnareKKF.wav
192,192,132557,1,0,0:0:0:46:normal-hitclap.wav
320,192,132731,1,0,0:0:0:100:LR_Hat Synth.wav
192,192,132904,1,0,0:0:0:24:normal-hitwhistle.wav
64,192,132904,1,0,0:0:0:24:normal-hitwhistle.wav
448,192,133078,1,0,0:0:0:100:LR_Hat Synth.wav
320,192,133251,1,0,0:0:0:56:normal-hitclap.wav
192,192,133251,1,0,0:0:0:30:LR4_SnareKKF.wav
64,192,133425,1,0,0:0:0:100:LR_Hat Synth.wav
320,192,133598,1,0,0:0:0:24:normal-hitwhistle.wav
448,192,133598,1,0,0:0:0:24:normal-hitwhistle.wav
64,192,133771,1,0,0:0:0:40:LR_Drum Hit Clap Sn.wav
448,192,133945,1,0,0:0:0:50:LR4_SnareKKF.wav
192,192,133945,1,0,0:0:0:46:normal-hitclap.wav
320,192,134118,1,0,0:0:0:50:LR_Hat Synth.wav
64,192,134292,1,0,0:0:0:80:LR_Tom Hit.wav
192,192,134378,1,0,0:0:0:60:LR_Tom Hit.wav
320,192,134465,1,0,0:0:0:60:LR_Tom Hit.wav
448,192,134552,1,0,0:0:0:60:LR_Tom Hit.wav
64,192,134638,1,0,0:0:0:30:normal-hitfinish.wav
192,192,134638,1,0,0:0:0:30:normal-hitfinish.wav
448,192,134985,1,0,0:0:0:40:LR_Tom Drop.wav
320,192,135072,1,0,0:0:0:30:LR_Tom Drop.wav
192,192,135159,1,0,0:0:0:40:LR_Drum Hit Clap Sn.wav
64,192,135245,1,0,0:0:0:30:LR_Tom Drop.wav
448,192,135332,1,0,0:0:0:30:normal-hitfinish.wav
320,192,135332,1,0,0:0:0:30:normal-hitfinish.wav
192,192,135505,1,0,0:0:0:60:LR_Tom Drop.wav
64,192,135679,1,0,0:0:0:100:LR_Tom Hit.wav
320,192,135679,1,0,0:0:0:40:normal-hitwhistle.wav
192,192,135852,1,0,0:0:0:80:LR_Drum Rpd x2.wav
448,192,136026,1,0,0:0:0:100:LR_Tom Hit.wav
64,192,136026,1,0,0:0:0:40:normal-hitwhistle.wav
320,192,136199,1,0,0:0:0:48:normal-hitwhistle.wav
64,192,136372,1,0,0:0:0:100:LR_Tom Hit.wav
192,192,136372,1,0,0:0:0:40:normal-hitwhistle.wav
448,192,136546,1,0,0:0:0:90:LR_Drum Rpd x2.wav
320,192,136633,1,0,0:0:0:90:LR_Drum Rpd x2.wav
64,192,136719,1,0,0:0:0:70:LR_Drum Hit Clap Sn.wav
448,192,136893,1,0,0:0:0:85:LR_Tom Normal.wav
192,192,137066,128,0,138280:0:0:0:49:LR3_FxSVRc.wav
64,192,137066,128,0,138280:0:0:0:49:LR3_FxSVRc.wav
448,192,138280,1,0,0:0:0:80:LR_Tom Hit.wav
320,192,138338,1,0,0:0:0:80:LR_Tom Hit.wav
192,192,138396,1,0,0:0:0:60:LR_Tom Normal.wav
64,192,138453,1,0,0:0:0:40:LR_Tom Drop.wav
192,192,138627,1,0,0:0:0:33:LR_Drum Hit Clap Sn.wav
448,192,138627,1,0,0:0:0:33:LR_Drum Hit Clap Sn.wav
64,192,138887,1,0,0:0:0:0:
448,192,138974,1,0,0:0:0:40:LR_Tom Drop.wav
192,192,139060,1,0,0:0:0:0:
320,192,139147,1,0,0:0:0:66:LR_Drum Hit Clap Sn.wav
64,192,139234,1,0,0:0:0:0:
448,192,139320,1,0,0:0:0:40:LR_Tom Drop.wav
192,192,139407,1,0,0:0:0:60:LR_Tom Normal.wav
320,192,139494,128,0,139667:0:0:0:80:LR_Tom Hit.wav
192,192,139668,1,0,0:0:0:0:
448,192,139668,1,0,0:0:0:0:
64,192,139668,128,0,140014:0:0:0:0:
320,192,140014,1,0,0:0:0:66:LR_Drum Hit Clap Sn.wav
192,192,140188,1,0,0:0:0:33:LR_Drum Hit Clap Sn.wav
64,192,140188,1,0,0:0:0:33:LR_Drum Hit Clap Sn.wav
320,192,140361,1,0,0:0:0:66:LR_Drum Rpd x2.wav
64,192,140535,1,0,0:0:0:24:normal-hitwhistle.wav
448,192,140535,1,0,0:0:0:24:normal-hitwhistle.wav
192,192,140708,1,0,0:0:0:66:LR_Drum Rpd x2.wav
448,192,140881,1,0,0:0:0:24:normal-hitwhistle.wav
320,192,140881,1,0,0:0:0:24:normal-hitwhistle.wav
64,192,141055,1,0,0:0:0:22:LR_Drum Hit Clap Sn.wav
448,192,141055,128,0,141402:0:0:0:22:LR_Drum Hit Clap Sn.wav
192,192,141055,1,0,0:0:0:22:LR_Drum Hit Clap Sn.wav
64,192,141402,1,0,0:0:0:66:LR_Drum Rpd x2.wav
320,192,141575,1,0,0:0:0:33:LR_Drum Hit Clap Sn.wav
448,192,141575,1,0,0:0:0:33:LR_Drum Hit Clap Sn.wav
192,192,141748,1,0,0:0:0:66:LR_Drum Rpd x2.wav
64,192,141922,1,0,0:0:0:24:normal-hitwhistle.wav
448,192,141922,1,0,0:0:0:24:normal-hitwhistle.wav
320,192,142095,128,0,142269:0:0:0:33:LR_Drum Hit Clap Sn.wav
192,192,142095,1,0,0:0:0:33:LR_Drum Hit Clap Sn.wav
192,192,142442,1,0,0:0:0:22:LR_Drum Hit Clap Sn.wav
448,192,142442,1,0,0:0:0:22:LR_Drum Hit Clap Sn.wav
64,192,142442,128,0,142789:0:0:0:22:LR_Drum Hit Clap Sn.wav
448,192,142789,1,0,0:0:0:66:LR_Drum Rpd x2.wav
192,192,142962,1,0,0:0:0:33:LR_Drum Hit Clap Sn.wav
64,192,142962,1,0,0:0:0:33:LR_Drum Hit Clap Sn.wav
320,192,143136,1,0,0:0:0:0:
64,192,143309,1,0,0:0:0:24:normal-hitwhistle.wav
448,192,143309,1,0,0:0:0:24:normal-hitwhistle.wav
320,192,143483,1,0,0:0:0:48:normal-hitwhistle.wav
64,192,143656,1,0,0:0:0:33:LR_Drum Hit Clap Sn.wav
192,192,143656,1,0,0:0:0:33:LR_Drum Hit Clap Sn.wav
64,192,143829,1,0,0:0:0:16:normal-hitwhistle.wav
320,192,143829,1,0,0:0:0:16:normal-hitwhistle.wav
448,192,143829,128,0,144003:0:0:0:16:normal-hitwhistle.wav
320,192,144176,128,0,144350:0:0:0:24:normal-hitwhistle.wav
64,192,144176,1,0,0:0:0:24:normal-hitwhistle.wav
192,192,144523,1,0,0:0:0:16:normal-hitwhistle.wav
64,192,144523,128,0,144870:0:0:0:16:normal-hitwhistle.wav
448,192,144523,1,0,0:0:0:16:normal-hitwhistle.wav
448,192,144870,1,0,0:0:0:66:LR_Drum Rpd x2.wav
192,192,144957,1,0,0:0:0:66:LR_Drum Rpd x2.wav
320,192,145043,1,0,0:0:0:48:normal-hitwhistle.wav
64,192,145130,1,0,0:0:0:66:LR_Drum Rpd x2.wav
320,192,145217,1,0,0:0:0:66:LR_Drum Rpd x2.wav
192,192,145303,1,0,0:0:0:66:LR_Drum Hit Clap Sn.wav
448,192,145390,1,0,0:0:0:24:normal-hitwhistle.wav
64,192,145390,1,0,0:0:0:24:normal-hitwhistle.wav
192,192,145563,1,0,0:0:0:24:normal-hitwhistle.wav
320,192,145563,1,0,0:0:0:24:normal-hitwhistle.wav
448,192,145737,1,0,0:0:0:33:LR_Drum Rpd x2.wav
64,192,145737,1,0,0:0:0:33:LR_Drum Rpd x2.wav
192,192,145910,128,0,146257:0:0:0:33:LR_Drum Hit Clap Sn.wav
320,192,145910,128,0,146257:0:0:0:33:LR_Drum Hit Clap Sn.wav
448,192,146257,1,0,0:0:0:24:normal-hitwhistle.wav
64,192,146257,1,0,0:0:0:24:normal-hitwhistle.wav
320,192,146430,1,0,0:0:0:66:LR_Drum Rpd x2.wav
64,192,146604,128,0,146951:0:0:0:24:normal-hitwhistle.wav
192,192,146604,128,0,146951:0:0:0:24:normal-hitwhistle.wav
320,192,146951,1,0,0:0:0:33:LR_Drum Hit Clap Sn.wav
448,192,146951,1,0,0:0:0:33:LR_Drum Hit Clap Sn.wav
192,192,147124,1,0,0:0:0:48:normal-hitwhistle.wav
320,192,147298,128,0,147644:0:0:0:33:LR_Drum Hit Clap Sn.wav
64,192,147298,128,0,147644:0:0:0:33:LR_Drum Hit Clap Sn.wav
192,192,147644,1,0,0:0:0:66:LR_Drum Hit Clap Sn.wav
448,192,147731,1,0,0:0:0:66:LR_Drum Rpd x2.wav
64,192,147818,1,0,0:0:0:66:LR_Drum Hit Clap Sn.wav
448,192,147904,1,0,0:0:0:66:LR_Drum Rpd x2.wav
192,192,147991,1,0,0:0:0:66:LR_Drum Hit Clap Sn.wav
320,192,148078,1,0,0:0:0:66:LR_Drum Rpd x2.wav
64,192,148165,128,0,148511:0:0:0:66:LR_Drum Hit Clap Sn.wav
448,192,148165,128,0,148338:0:0:0:48:normal-hitwhistle.wav
192,192,148338,1,0,0:0:0:0:
320,192,148425,1,0,0:0:0:0:
448,192,148511,1,0,0:0:0:66:LR_Drum Rpd x2.wav
448,192,148685,128,0,148858:0:0:0:24:normal-hitwhistle.wav
64,192,148685,128,0,149032:0:0:0:66:LR_Drum Hit Clap Sn.wav
192,192,148858,1,0,0:0:0:0:
320,192,148945,1,0,0:0:0:0:
448,192,149032,1,0,0:0:0:66:LR_Drum Rpd x2.wav
192,192,149118,1,0,0:0:0:66:LR_Drum Rpd x2.wav
64,192,149205,1,0,0:0:0:33:LR_Drum Hit Clap Sn.wav
448,192,149205,1,0,0:0:0:33:LR_Drum Hit Clap Sn.wav
448,192,149378,128,0,149725:0:0:0:24:normal-hitwhistle.wav
320,192,149378,128,0,149725:0:0:0:24:normal-hitwhistle.wav
64,192,149725,1,0,0:0:0:66:LR_Drum Rpd x2.wav
192,192,149812,1,0,0:0:0:66:LR_Drum Hit Clap Sn.wav
320,192,149899,1,0,0:0:0:66:LR_Drum Rpd x2.wav
448,192,149985,1,0,0:0:0:66:LR_Drum Hit Clap Sn.wav
192,192,150072,128,0,150419:0:0:0:24:normal-hitwhistle.wav
320,192,150072,128,0,150419:0:0:0:24:normal-hitwhistle.wav
448,192,150419,1,0,0:0:0:66:LR_Tom Hit.wav
64,192,150592,1,0,0:0:0:66:LR_Tom Hit.wav
320,192,150592,1,0,0:0:0:48:normal-hitwhistle.wav
192,192,150766,128,0,151113:0:0:0:66:LR_Drum Hit Clap Sn.wav
448,192,150766,128,0,151113:0:0:0:66:LR_Drum Rpd x2.wav
320,192,151113,1,0,0:0:0:24:normal-hitwhistle.wav
64,192,151113,1,0,0:0:0:24:normal-hitwhistle.wav
192,192,151286,1,0,0:0:0:33:LR_Drum Hit Clap Sn.wav
448,192,151286,1,0,0:0:0:33:LR_Drum Hit Clap Sn.wav
320,192,151459,1,0,0:0:0:24:normal-hitwhistle.wav
64,192,151459,1,0,0:0:0:24:normal-hitwhistle.wav
192,192,151633,1,0,0:0:0:33:LR_Drum Hit Clap Sn.wav
448,192,151633,1,0,0:0:0:33:LR_Drum Hit Clap Sn.wav
64,192,151720,1,0,0:0:0:66:LR_Drum Hit Clap Sn.wav
320,192,151806,1,0,0:0:0:100:LR_Drum Rpd x2.wav
192,192,151893,1,0,0:0:0:80:LR_Drum Rpd x2.wav
448,192,151980,1,0,0:0:0:44:LR_Drum Hit Clap Sn.wav
192,192,152066,1,0,0:0:0:44:LR_Drum Hit Clap Sn.wav
320,192,152153,1,0,0:0:0:80:LR_Drum Rpd x2.wav
64,192,152240,1,0,0:0:0:60:LR_Drum Rpd x2.wav
448,192,152326,128,0,152587:0:0:0:45:LR_Tom Hit.wav
320,192,152326,1,0,0:0:0:45:LR_Tom Hit.wav
192,192,152587,128,0,152847:0:0:0:35:LR_Tom Normal.wav
64,192,152587,1,0,0:0:0:35:LR_Tom Normal.wav
320,192,152847,1,0,0:0:0:45:LR_Tom Hit.wav
448,192,152847,1,0,0:0:0:45:LR_Tom Hit.wav
192,192,153020,1,0,0:0:0:25:LR_Tom Drop.wav
64,192,153020,128,0,155101:0:0:0:25:LR_Tom Drop.wav
448,192,154234,1,0,0:0:0:90:LR_Tom Hit.wav
320,192,154581,1,0,0:0:0:66:LR_Tom Normal.wav
320,192,154754,1,0,0:0:0:66:LR_Tom Normal.wav
448,192,155101,1,0,0:0:0:18:LR_CymbalCCR.wav
192,192,155101,1,0,0:0:0:18:LR_CymbalCCR.wav
320,192,155274,1,0,0:0:0:70:LR_Hat Synth.wav
64,192,155447,1,0,0:0:0:60:LR_Drum Rpd x2.wav
192,192,155621,1,0,0:0:0:70:LR_Hat Synth.wav
320,192,155794,1,0,0:0:0:7:normal-hitclap.wav
448,192,155794,1,0,0:0:0:7:normal-hitclap.wav
64,192,155968,1,0,0:0:0:70:LR_Hat Synth.wav
320,192,156141,1,0,0:0:0:60:LR_Drum Rpd x2.wav
448,192,156314,1,0,0:0:0:70:LR_Hat Synth.wav
192,192,156488,1,0,0:0:0:7:normal-hitclap.wav
64,192,156488,1,0,0:0:0:7:normal-hitclap.wav
448,192,156661,1,0,0:0:0:70:LR_Hat Synth.wav
192,192,156835,1,0,0:0:0:60:LR_Drum Rpd x2.wav
320,192,157008,1,0,0:0:0:70:LR_Hat Synth.wav
448,192,157181,1,0,0:0:0:7:normal-hitclap.wav
64,192,157181,1,0,0:0:0:7:normal-hitclap.wav
192,192,157355,1,0,0:0:0:70:LR_Hat Synth.wav
320,192,157528,1,0,0:0:0:60:LR_Drum Rpd x2.wav
64,192,157702,1,0,0:0:0:70:LR_Hat Synth.wav
448,192,157875,1,0,0:0:0:7:normal-hitclap.wav
320,192,157875,1,0,0:0:0:7:normal-hitclap.wav
192,192,158048,1,0,0:0:0:70:LR_Hat Synth.wav
64,192,158222,1,0,0:0:0:60:LR_Drum Rpd x2.wav
320,192,158395,1,0,0:0:0:70:LR_Hat Synth.wav
448,192,158569,128,0,159262:0:0:0:14:normal-hitclap.wav
64,192,158569,1,0,0:0:0:8:normal-hitclap.wav
320,192,158742,128,0,159262:0:0:0:60:LR_Drum Hit Clap Sn.wav
192,192,158916,128,0,159262:0:0:0:88:LR_Drum Rpd x2.wav
64,192,159262,1,0,0:0:0:50:LR_CymbalFSU.wav
192,192,159436,1,0,0:0:0:25:LR_CymbalFSU.wav
320,192,159436,1,0,0:0:0:25:LR_CymbalFSU.wav
448,192,159783,1,0,0:0:0:70:LR_CymbalSSD.wav
320,192,159783,1,0,0:0:0:25:LR_CymbalCCR.wav
320,192,160129,128,0,160650:0:0:0:25:LR_CymbalCCR.wav
192,192,160129,1,0,0:0:0:35:LR_CymbalSSD.wav
64,192,160129,1,0,0:0:0:35:LR_CymbalSSD.wav
448,192,160650,128,0,161343:0:0:0:24:normal-hitwhistle.wav
192,192,160650,1,0,0:0:0:24:normal-hitwhistle.wav
64,192,160996,1,0,0:0:0:60:LR_Hat Synth.wav
192,192,161170,1,0,0:0:0:48:normal-hitwhistle.wav
64,192,161343,128,0,162037:0:0:0:24:normal-hitwhistle.wav
320,192,161343,1,0,0:0:0:24:normal-hitwhistle.wav
448,192,161690,1,0,0:0:0:90:LR_Drum Rpd x2.wav
320,192,161863,1,0,0:0:0:48:normal-hitwhistle.wav
192,192,162037,128,0,162384:0:0:0:30:LR_CymbalFSU.wav
448,192,162037,1,0,0:0:0:30:LR_CymbalFSU.wav
448,192,162384,128,0,162731:0:0:0:40:LR_CymbalSSD.wav
320,192,162384,1,0,0:0:0:40:LR_CymbalSSD.wav
192,192,162731,1,0,0:0:0:30:LR_CymbalFSU.wav
64,192,162731,128,0,163077:0:0:0:30:LR_CymbalFSU.wav
320,192,163077,1,0,0:0:0:90:LR_Drum Rpd x2.wav
448,192,163077,1,0,0:0:0:24:LR4_SnareKKF.wav
192,192,163251,1,0,0:0:0:50:LR_Drum Hit Clap Sn.wav
320,192,163337,1,0,0:0:0:50:LR_Drum Hit Clap Sn.wav
448,192,163424,1,0,0:0:0:16:normal-hitwhistle.wav
64,192,163424,1,0,0:0:0:16:normal-hitwhistle.wav
192,192,163424,128,0,163598:0:0:0:16:normal-hitwhistle.wav
320,192,163598,128,0,163771:0:0:0:0:
64,192,163771,128,0,163944:0:0:0:90:LR_Drum Rpd x2.wav
192,192,163944,128,0,164118:0:0:0:48:normal-hitwhistle.wav
448,192,164118,128,0,164291:0:0:0:48:normal-hitwhistle.wav
320,192,164291,128,0,164465:0:0:0:50:LR_Hat Synth.wav
192,192,164465,128,0,164638:0:0:0:90:LR_Drum Rpd x2.wav
64,192,164638,128,0,164811:0:0:0:0:
320,192,164811,1,0,0:0:0:24:normal-hitwhistle.wav
448,192,164811,1,0,0:0:0:24:normal-hitwhistle.wav
192,192,164898,1,0,0:0:0:0:
64,192,164985,1,0,0:0:0:0:
320,192,165072,1,0,0:0:0:0:
448,192,165158,1,0,0:0:0:90:LR_Drum Rpd x2.wav
192,192,165158,1,0,0:0:0:24:LR4_SnareKKF.wav
64,192,165245,1,0,0:0:0:0:
320,192,165332,1,0,0:0:0:0:
192,192,165418,1,0,0:0:0:0:
64,192,165505,1,0,0:0:0:24:normal-hitwhistle.wav
320,192,165505,1,0,0:0:0:24:normal-hitwhistle.wav
448,192,165592,1,0,0:0:0:0:
64,192,165679,1,0,0:0:0:48:normal-hitwhistle.wav
192,192,165765,1,0,0:0:0:0:
448,192,165852,1,0,0:0:0:90:LR_Drum Rpd x2.wav
320,192,165939,1,0,0:0:0:0:
64,192,166025,1,0,0:0:0:48:normal-hitwhistle.wav
192,192,166112,1,0,0:0:0:75:LR_Drum Rpd x2.wav
320,192,166372,1,0,0:0:0:40:LR_Tom Normal.wav
448,192,166372,1,0,0:0:0:40:LR_Tom Normal.wav
64,192,166546,1,0,0:0:0:40:LR_Tom Normal.wav
192,192,166546,1,0,0:0:0:40:LR_Tom Normal.wav
192,192,166719,1,0,0:0:0:35:LR_Tom Drop.wav
320,192,166719,1,0,0:0:0:35:LR_Tom Drop.wav
320,192,166892,1,0,0:0:0:35:LR_Tom Drop.wav
448,192,166892,1,0,0:0:0:35:LR_Tom Drop.wav
64,192,167066,1,0,0:0:0:70:LR_Drum Hit Clap Sn.wav
192,192,167153,1,0,0:0:0:90:LR_Drum Rpd x2.wav
320,192,167239,1,0,0:0:0:70:LR_Drum Hit Clap Sn.wav
448,192,167326,1,0,0:0:0:90:LR_Drum Rpd x2.wav
320,192,167413,1,0,0:0:0:60:LR_Tom Normal.wav
192,192,167499,1,0,0:0:0:38:LR_Tom Drop.wav
448,192,167586,128,0,168800:0:0:0:24:normal-hitwhistle.wav
64,192,167586,1,0,0:0:0:24:normal-hitwhistle.wav
192,192,167933,1,0,0:0:0:0:
64,192,168280,1,0,0:0:0:0:
320,192,168453,1,0,0:0:0:0:
64,192,168800,128,0,170361:0:0:0:50:LR_CymbalCCR.wav
192,192,168800,1,0,0:0:0:48:normal-hitwhistle.wav
320,192,169147,1,0,0:0:0:0:
448,192,169320,1,0,0:0:0:0:
320,192,169494,1,0,0:0:0:0:
192,192,169667,1,0,0:0:0:30:LR_CymbalFSU.wav
448,192,169840,1,0,0:0:0:0:
320,192,170014,1,0,0:0:0:0:
192,192,170361,1,0,0:0:0:50:LR_CymbalCCR.wav
448,192,170361,128,0,171401:0:0:0:48:normal-hitwhistle.wav
320,192,170707,1,0,0:0:0:0:
64,192,171054,1,0,0:0:0:25:LR_CymbalFSU.wav
192,192,171401,1,0,0:0:0:60:LR_Drum Hit Clap Sn.wav
320,192,171488,1,0,0:0:0:60:LR_Drum Hit Clap Sn.wav
192,192,171574,1,0,0:0:0:60:LR_Tom Hit.wav
64,192,171748,1,0,0:0:0:40:LR_CymbalSSD.wav
320,192,171748,1,0,0:0:0:40:LR_CymbalSSD.wav
448,192,172095,1,0,0:0:0:30:LR_CymbalFSU.wav
192,192,172095,1,0,0:0:0:30:LR_CymbalFSU.wav
64,192,172442,1,0,0:0:0:60:LR_CymbalSSD.wav
320,192,172442,1,0,0:0:0:30:LR_CymbalFSU.wav
448,192,172615,1,0,0:0:0:70:LR_Drum Hit Clap Sn.wav
320,192,172702,1,0,0:0:0:100:LR_Drum Rpd x2.wav
192,192,172788,1,0,0:0:0:80:LR_CymbalCCR.wav
64,192,172788,1,0,0:0:0:50:LR_CymbalSSD.wav
448,192,172962,1,0,0:0:0:100:LR_Drum Rpd x2.wav
320,192,173048,1,0,0:0:0:88:LR_Tom Hit.wav
64,192,173135,1,0,0:0:0:77:LR_Tom Drop.wav
192,192,173135,128,0,174349:0:0:0:48:normal-hitwhistle.wav
320,192,173482,1,0,0:0:0:50:normal-hitclap.wav
448,192,173482,1,0,0:0:0:40:LR4_SnareKKF.wav
448,192,173829,1,0,0:0:0:48:normal-hitwhistle.wav
64,192,174176,1,0,0:0:0:50:normal-hitclap.wav
320,192,174176,1,0,0:0:0:40:LR4_SnareKKF.wav
448,192,174349,128,0,175910:0:0:0:0:
64,192,174522,1,0,0:0:0:48:normal-hitwhistle.wav
320,192,174869,1,0,0:0:0:50:normal-hitclap.wav
192,192,174869,1,0,0:0:0:40:LR4_SnareKKF.wav
64,192,175043,1,0,0:0:0:90:LR_Tom Hit.wav
320,192,175216,1,0,0:0:0:84:LR_Tom Normal.wav
192,192,175389,1,0,0:0:0:80:LR_Drum Rpd x2.wav
64,192,175476,1,0,0:0:0:70:LR_Drum Hit Clap Sn.wav
320,192,175563,1,0,0:0:0:80:LR_Drum Rpd x2.wav
192,192,175650,1,0,0:0:0:60:LR_Drum Hit Clap Sn.wav
64,192,175736,1,0,0:0:0:80:LR_Drum Rpd x2.wav
320,192,175823,1,0,0:0:0:50:LR_Drum Hit Clap Sn.wav
64,192,175910,1,0,0:0:0:88:LR_Tom Hit.wav
192,192,175996,1,0,0:0:0:44:LR_Tom Hit.wav
448,192,176083,1,0,0:0:0:88:LR_Tom Hit.wav
320,192,176170,1,0,0:0:0:44:LR_Tom Hit.wav
192,192,176257,1,0,0:0:0:90:LR4_SnareKKF.wav
64,192,176257,1,0,0:0:0:90:normal-hitclap.wav
448,192,176603,1,0,0:0:0:44:LR_Tom Hit.wav
320,192,176690,1,0,0:0:0:88:LR_Tom Hit.wav
64,192,176777,1,0,0:0:0:44:LR_Tom Hit.wav
192,192,176863,1,0,0:0:0:88:LR_Tom Hit.wav
448,192,176950,1,0,0:0:0:90:LR4_SnareKKF.wav
320,192,176950,1,0,0:0:0:50:normal-hitclap.wav
64,192,177124,1,0,0:0:0:100:LR_Drum Rpd x2.wav
320,192,177210,1,0,0:0:0:88:LR_Tom Hit.wav
448,192,177297,128,0,177644:0:0:0:77:LR_Tom Drop.wav
192,192,177297,1,0,0:0:0:48:normal-hitwhistle.wav
320,192,177644,128,0,177991:0:0:0:100:LR_Tom Hit.wav
192,192,177644,1,0,0:0:0:40:normal-hitwhistle.wav
64,192,177991,1,0,0:0:0:100:LR_Tom Hit.wav
192,192,177991,128,0,178337:0:0:0:40:normal-hitwhistle.wav
448,192,178337,1,0,0:0:0:100:LR_Tom Hit.wav
64,192,178337,128,0,178684:0:0:0:40:normal-hitwhistle.wav
448,192,178684,128,0,179031:0:0:0:60:LR_Drum Hit Clap Sn.wav
320,192,178684,128,0,179031:0:0:0:48:normal-hitwhistle.wav
64,192,179031,1,0,0:0:0:56:normal-hitclap.wav
192,192,179031,1,0,0:0:0:30:LR4_SnareKKF.wav
64,192,179378,1,0,0:0:0:24:normal-hitwhistle.wav
320,192,179378,1,0,0:0:0:24:normal-hitwhistle.wav
448,192,179551,1,0,0:0:0:100:LR_Hat Synth.wav
64,192,179725,1,0,0:0:0:50:LR4_SnareKKF.wav
320,192,179725,1,0,0:0:0:46:normal-hitclap.wav
192,192,179898,1,0,0:0:0:60:LR_Hat Synth.wav
320,192,180072,1,0,0:0:0:24:normal-hitwhistle.wav
448,192,180072,1,0,0:0:0:24:normal-hitwhistle.wav
192,192,180245,1,0,0:0:0:100:LR_Hat Synth.wav
64,192,180418,1,0,0:0:0:56:normal-hitclap.wav
320,192,180418,1,0,0:0:0:30:LR4_SnareKKF.wav
448,192,180592,1,0,0:0:0:60:LR_Hat Synth.wav
192,192,180765,1,0,0:0:0:24:normal-hitwhistle.wav
64,192,180765,1,0,0:0:0:24:normal-hitwhistle.wav
320,192,180939,1,0,0:0:0:100:LR_Hat Synth.wav
448,192,181112,1,0,0:0:0:50:LR4_SnareKKF.wav
64,192,181112,1,0,0:0:0:46:normal-hitclap.wav
320,192,181285,1,0,0:0:0:60:LR_Hat Synth.wav
64,192,181459,1,0,0:0:0:24:normal-hitwhistle.wav
192,192,181459,1,0,0:0:0:24:normal-hitwhistle.wav
448,192,181632,1,0,0:0:0:100:LR_Hat Synth.wav
320,192,181806,1,0,0:0:0:56:normal-hitclap.wav
64,192,181806,1,0,0:0:0:30:LR4_SnareKKF.wav
192,192,181979,1,0,0:0:0:60:LR_Hat Synth.wav
448,192,182152,1,0,0:0:0:24:normal-hitwhistle.wav
320,192,182152,1,0,0:0:0:24:normal-hitwhistle.wav
192,192,182326,1,0,0:0:0:100:LR_Hat Synth.wav
320,192,182413,1,0,0:0:0:80:LR_Drum Hit Clap Sn.wav
448,192,182499,1,0,0:0:0:50:LR4_SnareKKF.wav
64,192,182499,1,0,0:0:0:46:normal-hitclap.wav
320,192,182673,1,0,0:0:0:60:LR_Hat Synth.wav
192,192,182759,1,0,0:0:0:80:LR_Drum Hit Clap Sn.wav
448,192,182846,1,0,0:0:0:30:LR_CymbalSSD.wav
64,192,182846,128,0,183193:0:0:0:30:LR_CymbalSSD.wav
320,192,183193,1,0,0:0:0:23:LR_CymbalFSU.wav
448,192,183193,128,0,183540:0:0:0:23:LR_CymbalFSU.wav
192,192,183366,1,0,0:0:0:48:normal-hitwhistle.wav
64,192,183540,1,0,0:0:0:45:LR_CymbalSSD.wav
192,192,183713,1,0,0:0:0:80:LR_Drum Hit Clap Sn.wav
320,192,183800,1,0,0:0:0:80:LR_Drum Hit Clap Sn.wav
448,192,183887,1,0,0:0:0:60:LR_CymbalCCR.wav
64,192,183887,1,0,0:0:0:36:LR_CymbalSSD.wav
192,192,183973,1,0,0:0:0:0:
448,192,184060,1,0,0:0:0:100:LR_Drum Rpd x2.wav
320,192,184147,1,0,0:0:0:88:LR_Tom Hit.wav
64,192,184233,1,0,0:0:0:77:LR_Tom Drop.wav
192,192,184233,1,0,0:0:0:48:normal-hitwhistle.wav
192,192,184407,1,0,0:0:0:100:LR_Hat Synth.wav
320,192,184580,1,0,0:0:0:56:normal-hitclap.wav
64,192,184580,1,0,0:0:0:30:LR4_SnareKKF.wav
192,192,184754,1,0,0:0:0:100:LR_Hat Synth.wav
448,192,184927,1,0,0:0:0:24:normal-hitwhistle.wav
64,192,184927,1,0,0:0:0:24:normal-hitwhistle.wav
320,192,185100,1,0,0:0:0:100:LR_Hat Synth.wav
64,192,185274,1,0,0:0:0:50:LR4_SnareKKF.wav
192,192,185274,1,0,0:0:0:46:normal-hitclap.wav
320,192,185447,1,0,0:0:0:100:LR_Hat Synth.wav
64,192,185621,1,0,0:0:0:24:normal-hitwhistle.wav
448,192,185621,1,0,0:0:0:24:normal-hitwhistle.wav
192,192,185794,1,0,0:0:0:100:LR_Hat Synth.wav
320,192,185968,1,0,0:0:0:56:normal-hitclap.wav
448,192,185968,1,0,0:0:0:30:LR4_SnareKKF.wav
64,192,186141,1,0,0:0:0:100:LR_Hat Synth.wav
320,192,186314,1,0,0:0:0:24:normal-hitwhistle.wav
192,192,186314,1,0,0:0:0:24:normal-hitwhistle.wav
448,192,186488,1,0,0:0:0:40:LR_Drum Hit Clap Sn.wav
320,192,186661,1,0,0:0:0:50:LR4_SnareKKF.wav
64,192,186661,1,0,0:0:0:46:normal-hitclap.wav
192,192,186835,1,0,0:0:0:50:LR_Hat Synth.wav
448,192,187008,1,0,0:0:0:80:LR_Tom Hit.wav
320,192,187095,1,0,0:0:0:60:LR_Tom Hit.wav
192,192,187181,1,0,0:0:0:60:LR_Tom Hit.wav
64,192,187268,1,0,0:0:0:60:LR_Tom Hit.wav
320,192,187355,1,0,0:0:0:30:normal-hitfinish.wav
448,192,187355,1,0,0:0:0:30:normal-hitfinish.wav
64,192,187702,1,0,0:0:0:40:LR_Tom Drop.wav
192,192,187788,1,0,0:0:0:30:LR_Tom Drop.wav
320,192,187875,1,0,0:0:0:40:LR_Drum Hit Clap Sn.wav
448,192,187962,1,0,0:0:0:30:LR_Tom Drop.wav
64,192,188048,1,0,0:0:0:30:normal-hitfinish.wav
192,192,188048,1,0,0:0:0:30:normal-hitfinish.wav
320,192,188222,1,0,0:0:0:60:LR_Tom Drop.wav
64,192,188395,1,0,0:0:0:100:LR_Tom Hit.wav
448,192,188395,1,0,0:0:0:40:normal-hitwhistle.wav
192,192,188569,1,0,0:0:0:80:LR_Drum Rpd x2.wav
320,192,188742,1,0,0:0:0:100:LR_Tom Hit.wav
448,192,188742,1,0,0:0:0:40:normal-hitwhistle.wav
192,192,188915,1,0,0:0:0:48:normal-hitwhistle.wav
448,192,189089,1,0,0:0:0:100:LR_Tom Hit.wav
64,192,189089,1,0,0:0:0:40:normal-hitwhistle.wav
192,192,189262,1,0,0:0:0:90:LR_Drum Rpd x2.wav
320,192,189349,1,0,0:0:0:90:LR_Drum Rpd x2.wav
192,192,189436,1,0,0:0:0:70:LR_Drum Hit Clap Sn.wav
320,192,189609,1,0,0:0:0:85:LR_Tom Normal.wav
448,192,189783,1,0,0:0:0:60:normal-hitfinish.wav
64,192,189783,1,0,0:0:0:48:normal-hitwhistle.wav
448,192,190129,1,0,0:0:0:56:normal-hitclap.wav
320,192,190129,1,0,0:0:0:30:LR4_SnareKKF.wav
192,192,190476,1,0,0:0:0:24:normal-hitwhistle.wav
64,192,190476,1,0,0:0:0:24:normal-hitwhistle.wav
320,192,190650,1,0,0:0:0:0:
448,192,190823,1,0,0:0:0:50:LR4_SnareKKF.wav
64,192,190823,1,0,0:0:0:46:normal-hitclap.wav
192,192,190996,1,0,0:0:0:0:
320,192,191170,1,0,0:0:0:24:normal-hitwhistle.wav
448,192,191170,1,0,0:0:0:24:normal-hitwhistle.wav
192,192,191343,1,0,0:0:0:0:
64,192,191517,1,0,0:0:0:56:normal-hitclap.wav
448,192,191517,1,0,0:0:0:30:LR4_SnareKKF.wav
320,192,191690,1,0,0:0:0:0:
64,192,191863,1,0,0:0:0:24:normal-hitwhistle.wav
448,192,191863,1,0,0:0:0:24:normal-hitwhistle.wav
192,192,192037,1,0,0:0:0:0:
448,192,192210,1,0,0:0:0:50:LR4_SnareKKF.wav
320,192,192210,1,0,0:0:0:46:normal-hitclap.wav
192,192,192297,1,0,0:0:0:0:
64,192,192384,1,0,0:0:0:0:
448,192,192470,1,0,0:0:0:0:
320,192,192557,1,0,0:0:0:24:normal-hitwhistle.wav
192,192,192557,1,0,0:0:0:24:normal-hitwhistle.wav
64,192,192904,1,0,0:0:0:56:normal-hitclap.wav
320,192,192904,1,0,0:0:0:30:LR4_SnareKKF.wav
320,192,193251,1,0,0:0:0:24:normal-hitwhistle.wav
448,192,193251,1,0,0:0:0:24:normal-hitwhistle.wav
192,192,193424,1,0,0:0:0:70:LR_Drum Hit Clap Sn.wav
320,192,193511,1,0,0:0:0:100:LR_Drum Rpd x2.wav
192,192,193598,1,0,0:0:0:50:LR4_SnareKKF.wav
64,192,193598,1,0,0:0:0:46:normal-hitclap.wav
320,192,193771,1,0,0:0:0:70:LR_Drum Hit Clap Sn.wav
192,192,193858,1,0,0:0:0:100:LR_Drum Rpd x2.wav
320,192,193944,1,0,0:0:0:30:LR_CymbalSSD.wav
448,192,193944,1,0,0:0:0:30:LR_CymbalSSD.wav
192,192,194291,1,0,0:0:0:23:LR_CymbalFSU.wav
64,192,194291,1,0,0:0:0:23:LR_CymbalFSU.wav
448,192,194465,1,0,0:0:0:0:
320,192,194465,1,0,0:0:0:0:
64,192,194638,1,0,0:0:0:45:LR_CymbalSSD.wav
192,192,194638,1,0,0:0:0:23:LR_CymbalFSU.wav
448,192,194811,1,0,0:0:0:70:LR_Drum Hit Clap Sn.wav
320,192,194898,1,0,0:0:0:100:LR_Drum Rpd x2.wav
192,192,194985,1,0,0:0:0:60:LR_CymbalCCR.wav
64,192,194985,1,0,0:0:0:36:LR_CymbalSSD.wav
448,192,195158,1,0,0:0:0:100:LR_Drum Rpd x2.wav
320,192,195245,1,0,0:0:0:88:LR_Tom Hit.wav
192,192,195332,1,0,0:0:0:77:LR_Tom Drop.wav
64,192,195332,128,0,195852:0:0:0:48:normal-hitwhistle.wav
448,192,195505,1,0,0:0:0:32:normal-hitwhistle.wav
320,192,195678,1,0,0:0:0:56:normal-hitclap.wav
192,192,195678,1,0,0:0:0:30:LR4_SnareKKF.wav
448,192,195852,128,0,196025:0:0:0:0:
320,192,196025,128,0,196199:0:0:0:48:normal-hitwhistle.wav
192,192,196199,128,0,196372:0:0:0:0:
448,192,196372,1,0,0:0:0:50:LR4_SnareKKF.wav
64,192,196372,1,0,0:0:0:40:normal-hitclap.wav
320,192,196546,128,0,196892:0:0:0:0:
192,192,196719,1,0,0:0:0:48:normal-hitwhistle.wav
448,192,196892,128,0,197066:0:0:0:16:normal-hitwhistle.wav
64,192,196892,1,0,0:0:0:16:normal-hitwhistle.wav
192,192,197066,128,0,197239:0:0:0:56:normal-hitclap.wav
320,192,197066,1,0,0:0:0:30:LR4_SnareKKF.wav
64,192,197239,128,0,197586:0:0:0:0:
320,192,197413,1,0,0:0:0:48:normal-hitwhistle.wav
192,192,197586,1,0,0:0:0:0:
64,192,197759,1,0,0:0:0:50:LR4_SnareKKF.wav
448,192,197759,1,0,0:0:0:46:normal-hitclap.wav
192,192,197933,1,0,0:0:0:0:
448,192,198106,1,0,0:0:0:80:LR_Tom Hit.wav
320,192,198193,1,0,0:0:0:60:LR_Tom Hit.wav
64,192,198280,1,0,0:0:0:60:LR_Tom Hit.wav
192,192,198366,1,0,0:0:0:60:LR_Tom Hit.wav
448,192,198453,1,0,0:0:0:30:normal-hitfinish.wav
320,192,198453,1,0,0:0:0:30:normal-hitfinish.wav
64,192,198800,1,0,0:0:0:40:LR_Tom Drop.wav
192,192,198887,1,0,0:0:0:30:LR_Tom Drop.wav
448,192,198973,1,0,0:0:0:40:LR_Drum Hit Clap Sn.wav
320,192,199060,1,0,0:0:0:30:LR_Tom Drop.wav
192,192,199147,1,0,0:0:0:30:normal-hitfinish.wav
64,192,199147,1,0,0:0:0:30:normal-hitfinish.wav
320,192,199320,1,0,0:0:0:0:
192,192,199407,1,0,0:0:0:0:
64,192,199494,1,0,0:0:0:55:LR_Tom Hit.wav
448,192,199494,1,0,0:0:0:25:normal-hitwhistle.wav
192,192,199667,1,0,0:0:0:70:LR_Tom Hit.wav
320,192,199667,1,0,0:0:0:30:normal-hitwhistle.wav
192,192,199840,1,0,0:0:0:85:LR_Tom Hit.wav
320,192,199840,1,0,0:0:0:35:normal-hitwhistle.wav
448,192,200014,1,0,0:0:0:100:LR_Tom Hit.wav
64,192,200014,1,0,0:0:0:40:normal-hitwhistle.wav
192,192,200361,1,0,0:0:0:90:LR_Drum Rpd x2.wav
320,192,200447,1,0,0:0:0:90:LR_Drum Rpd x2.wav
448,192,200534,1,0,0:0:0:70:LR_Drum Hit Clap Sn.wav
192,192,200707,1,0,0:0:0:85:LR_Tom Normal.wav
64,192,200881,128,0,201054:0:0:0:88:LR_Drum Rpd x2.wav
320,192,200881,128,0,201054:0:0:0:60:LR_Drum Hit Clap Sn.wav
192,192,201054,1,0,0:0:0:80:LR_Tom Hit.wav
448,192,201141,1,0,0:0:0:60:LR_Tom Normal.wav
64,192,201228,1,0,0:0:0:40:LR_Tom Drop.wav
192,192,201401,128,0,201574:0:0:0:88:LR_Drum Rpd x2.wav
448,192,201401,128,0,201574:0:0:0:60:LR_Drum Hit Clap Sn.wav
320,192,201574,1,0,0:0:0:60:LR_Tom Hit.wav
64,192,201661,1,0,0:0:0:45:LR_Tom Normal.wav
448,192,201748,1,0,0:0:0:30:LR_Tom Drop.wav
64,192,201921,128,0,205736:0:0:0:33:LR3_FxSVRc.wav
320,192,201921,128,0,205736:0:0:0:33:LR3_FxSVRc.wav
192,192,201921,128,0,205736:0:0:0:33:LR3_FxSVRc.wav
