osu file format v14

[General]
AudioFilename: 01 .mp3
AudioLeadIn: 0
PreviewTime: 51887
Countdown: 0
SampleSet: Soft
StackLeniency: 0.7
Mode: 0
LetterboxInBreaks: 1
WidescreenStoryboard: 0

[Editor]
Bookmarks: 550,13384,23651,33919,41459,51887,61994,77555,87822,98090,108357,115897,126325,136592,150710,160977,173812,181512,191780,206860,217448
DistanceSpacing: 1.7
BeatDivisor: 4
GridSize: 32
TimelineZoom: 2.2

[Metadata]
Title:Univer page
TitleUnicode:ユニバーページ
Artist:Mimori Suzuko
ArtistUnicode:三森すずこ
Creator:Haruru
Version:Collab
Source:アウトブレイク・カンパニー
Tags:N_a_s_y_a nasya
BeatmapID:1063179
BeatmapSetID:499550

[Difficulty]
HPDrainRate:6
CircleSize:3.8
OverallDifficulty:8
ApproachRate:9
SliderMultiplier:1.7
SliderTickRate:2

[Events]
//Background and Video events
0,0,"Konachan.png",0,0
//Break Periods
2,151994,160336
//Storyboard Layer 0 (Background)
//Storyboard Layer 1 (Fail)
//Storyboard Layer 2 (Pass)
//Storyboard Layer 3 (Foreground)
//Storyboard Sound Samples

[TimingPoints]
550.151619890948,320.855614973262,4,2,2,30,1,0
3116,-100,4,2,2,40,0,0
13384,-90.9090909090909,4,2,2,40,0,0
33919,-125,4,2,2,30,0,0
39052,-125,4,2,2,35,0,0
39694,-125,4,2,2,40,0,0
40336,-125,4,2,2,45,0,0
40977,-125,4,2,2,50,0,0
41459,-100,4,2,2,55,0,0
51887,-90.9090909090909,4,2,2,60,0,1
72421,-90.9090909090909,4,2,2,50,0,1
77234,-71.4285714285714,4,2,2,45,0,1
77555,-100,4,2,2,45,0,0
85256,-125,4,2,2,45,0,0
87261,-100,4,2,2,45,0,0
89748,-133.333333333333,4,2,2,40,0,0
90068,-200,4,2,2,40,0,0
90389,-100,4,2,2,40,0,0
98090,-100,4,2,2,50,0,0
108357,-125,4,2,2,40,0,0
114133,-125,4,2,2,45,0,0
114774,-125,4,2,2,50,0,0
115416,-125,4,2,2,55,0,0
115897,-100,4,2,2,60,0,0
126325,-90.9090909090909,4,2,2,65,0,1
141726,-100,4,2,2,55,0,1
146860,-100,4,2,2,50,0,1
151994,-90.9090909090909,4,2,1,40,0,0
160977,-133.333333333333,4,2,1,40,0,0
171245,-200,4,2,1,40,0,0
172528,-200,4,2,1,50,0,0
172849,-133.333333333333,4,2,1,50,0,0
173170,-100,4,2,1,50,0,0
173812,-166.666666666667,4,2,2,35,0,0
180871,-166.666666666667,4,2,2,50,0,0
181191,-100,4,2,2,50,0,0
181512,-90.9090909090909,4,2,2,70,0,1
196913,-100,4,2,2,60,0,1
202047,-100,4,2,2,55,0,1
207181,-90.9090909090909,4,2,2,60,0,0
222582,-100,4,2,2,60,0,0
227395,-100,4,2,2,20,0,0

[HitObjects]
64,296,550,5,0,0:0:0:0:
144,192,710,1,2,0:0:0:0:
280,264,871,2,0,L|268:176,1,85,2|0,0:0|0:0,0:0:0:0:
188,28,1191,1,2,0:0:0:0:
68,192,1352,6,0,P|120:200|188:220,1,85,2|0,0:0|0:0,0:0:0:0:
363,102,1673,1,2,0:0:0:0:
388,284,1833,6,0,P|346:294|306:307,1,85,2|0,0:0|0:0,0:0:0:0:
118,87,2154,1,2,0:0:0:0:
92,268,2314,6,0,P|160:240|200:224,1,85
368,176,2635,1,2,0:0:0:0:
232,84,2796,1,2,0:0:0:0:
328,340,2956,5,4,0:3:0:0:
328,340,3036,1,4,0:3:0:0:
328,340,3116,2,0,P|416:336|464:248,1,170,4|8,0:0|0:0,0:0:0:0:
464,128,3598,1,0,0:0:0:0:
296,188,3758,2,0,L|280:272,1,85,0|0,1:0|1:0,0:0:0:0:
156,100,4079,2,0,L|144:12,1,85,8|0,0:0|0:0,0:0:0:0:
420,200,4400,6,0,P|453:123|417:43,1,170,2|8,1:2|0:0,0:0:0:0:
262,16,4881,1,0,1:0:0:0:
196,210,5042,2,0,L|208:326,2,85,0|0|8,0:0|1:0|0:0,0:0:0:0:
324,110,5523,5,0,0:0:0:0:
324,110,5603,1,0,0:0:0:0:
324,110,5683,2,0,P|372:118|428:126,1,85,8|0,0:3|0:0,0:0:0:0:
223,267,6004,2,0,P|175:259|119:251,1,85,8|0,0:0|0:0,0:0:0:0:
68,24,6325,2,0,P|160:16|220:72,1,170,0|8,1:0|0:0,0:0:0:0:
312,228,6806,5,0,0:0:0:0:
312,228,6887,1,0,0:0:0:0:
312,228,6967,2,0,L|296:352,1,85,0|0,1:0|0:0,0:0:0:0:
160,352,7288,1,8,0:0:0:0:
136,148,7448,1,0,1:0:0:0:
136,148,7769,2,0,P|208:172|250:182,1,85,0|8,1:0|0:0,0:0:0:0:
383,104,8090,1,0,1:0:0:0:
408,272,8250,6,0,L|379:79,1,170,6|8,0:0|0:0,0:0:0:0:
259,31,8731,1,0,0:0:0:0:
183,227,8892,2,0,P|111:239|75:247,1,85,2|0,1:2|1:0,0:0:0:0:
176,46,9213,2,0,P|248:34|284:26,1,85,10|0,0:0|0:0,0:0:0:0:
404,167,9534,6,0,P|394:229|389:273,1,85,2|2,0:0|0:0,0:0:0:0:
512,237,9854,1,8,0:0:0:0:
283,179,10015,1,2,0:0:0:0:
283,179,10336,2,0,L|187:210,1,85,2|8,0:0|0:0,0:1:0:0:
40,220,10657,1,0,0:0:0:0:
148,320,10817,5,6,0:0:0:0:
128,104,11138,1,2,0:0:0:0:
328,184,11459,1,2,0:0:0:0:
48,272,12100,5,4,0:0:0:0:
224,176,12421,1,0,1:0:0:0:
80,72,12742,1,0,0:0:0:0:
80,72,12822,2,0,L|64:160,1,85,12|8,0:0|0:0,0:0:0:0:
120,264,13063,2,0,P|164:252|220:248,1,85,0|8,1:0|0:0,0:0:0:0:
364,264,13384,6,0,P|412:192|372:84,2,187.000005706787,4|8|0,1:2|0:0|1:0,0:0:0:0:
244,156,14186,1,0,1:0:0:0:
468,208,14346,2,0,L|456:312,1,93.5000028533936,8|0,0:0|0:0,0:0:0:0:
352,376,14667,6,0,P|280:308|184:320,1,187.000005706787,0|8,1:0|0:0,0:0:0:0:
102,384,15149,1,0,0:0:0:0:
152,232,15309,1,0,1:0:0:0:
0,256,15469,1,0,1:0:0:0:
212,328,15630,2,0,L|224:208,1,93.5000028533936,8|0,0:0|0:0,0:0:0:0:
76,56,15951,6,0,L|92:256,1,187.000005706787,0|8,1:0|0:0,0:0:0:0:
168,124,16432,1,0,0:0:0:0:
0,188,16592,2,0,L|8:304,1,93.5000028533936,2|0,1:2|0:0,0:0:0:0:
208,384,16913,2,0,L|216:280,1,93.5000028533936,10|0,0:0|0:0,0:0:0:0:
180,96,17234,6,0,P|228:44|352:52,1,187.000005706787,2|10,1:2|0:0,0:0:0:0:
472,140,17715,2,0,B|419:133|419:133|343:149|343:149|287:141,1,187.000005706787,2|0,1:2|1:0,0:0:0:0:
491,29,18197,2,0,L|483:133,1,93.5000028533936,8|0,0:0|0:0,0:0:0:0:
404,260,18518,6,0,P|360:196|236:184,1,187.000005706787,4|8,1:2|0:0,0:0:0:0:
128,288,18999,1,0,0:0:0:0:
280,384,19159,2,0,L|296:280,1,93.5000028533936,0|0,1:0|1:0,0:0:0:0:
120,172,19480,2,0,L|128:300,1,93.5000028533936,8|0,0:0|0:0,0:0:0:0:
308,76,19801,5,0,1:0:0:0:
308,76,20122,2,0,P|236:20|116:48,1,187.000005706787,8|0,0:0|1:0,0:0:0:0:
76,188,20603,1,0,1:0:0:0:
208,124,20764,1,8,0:0:0:0:
28,52,20924,1,0,0:0:0:0:
232,136,21084,6,0,L|224:248,1,93.5000028533936,0|0,1:0|1:0,0:0:0:0:
176,352,21405,1,8,0:0:0:0:
140,172,21566,1,8,0:0:0:0:
4,292,21726,1,2,1:2:0:0:
308,228,22047,1,10,0:0:0:0:
4,292,22368,5,2,1:2:0:0:
140,172,22528,1,8,0:0:0:0:
176,352,22689,1,10,0:0:0:0:
48,216,22849,1,2,1:2:0:0:
48,216,22929,1,8,0:0:0:0:
48,216,23010,2,0,B|40:172|40:172|48:120,1,93.5000028533936,10|0,0:0|0:0,0:0:0:0:
264,292,23330,2,0,B|272:336|272:336|264:388,1,93.5000028533936,2|0,1:2|1:0,0:0:0:0:
164,168,23651,6,0,P|248:116|348:152,1,187.000005706787,4|8,0:0|0:0,0:0:0:0:
419,234,24133,1,0,0:0:0:0:
317,351,24293,2,0,P|241:339|185:335,1,93.5000028533936,0|0,1:0|1:0,0:0:0:0:
120,172,24614,2,0,P|196:184|252:188,1,93.5000028533936,8|0,0:0|0:0,0:0:0:0:
450,82,24935,6,0,P|402:34|266:58,1,187.000005706787,0|8,1:0|0:0,0:0:0:0:
184,168,25416,1,0,0:0:0:0:
344,296,25576,2,0,P|352:224|356:172,1,93.5000028533936,0|0,1:0|1:0,0:0:0:0:
228,56,25897,2,0,P|156:68|120:80,1,93.5000028533936,8|0,0:0|0:0,0:0:0:0:
56,300,26218,6,0,P|144:316|224:244,1,187.000005706787,0|8,1:0|3:2,0:0:0:0:
276,112,26699,1,0,0:0:0:0:
360,240,26860,2,0,L|348:356,1,93.5000028533936,0|0,1:0|1:0,0:0:0:0:
128,240,27181,1,8,3:2:0:0:
264,180,27341,1,0,0:0:0:0:
252,328,27502,1,0,1:0:0:0:
252,328,27822,6,0,P|184:344|140:356,1,93.5000028533936,8|0,3:2|0:0,0:0:0:0:
200,96,28143,1,2,0:1:0:0:
271,213,28304,5,0,0:0:0:0:
271,213,28384,1,0,0:0:0:0:
271,213,28464,2,2,P|347:197|387:189,1,93.5000028533936,8|0,0:0|0:0,0:1:0:0:
241,0,28785,6,0,P|194:11|134:20,1,93.5000028533936,4|0,0:0|0:0,0:0:0:0:
17,106,29106,1,8,0:0:0:0:
149,18,29266,1,0,0:0:0:0:
192,240,29427,2,0,P|183:306|179:340,1,93.5000028533936,0|0,1:0|1:0,0:0:0:0:
67,182,29748,2,0,P|76:116|80:82,1,93.5000028533936,8|0,0:0|0:0,0:0:0:0:
296,85,30068,6,0,P|337:176|274:261,1,187.000005706787,0|8,1:0|0:0,0:0:0:0:
154,308,30550,1,0,0:0:0:0:
99,150,30710,2,0,P|155:158|210:168,1,93.5000028533936,0|0,1:0|1:0,0:0:0:0:
417,187,31031,1,8,0:0:0:0:
290,354,31191,5,0,0:0:0:0:
290,354,31272,1,0,0:0:0:0:
290,354,31352,2,0,B|184:360|211:303|99:319,1,187.000005706787,4|10,0:0|0:0,0:0:0:0:
25,208,31833,1,2,0:0:0:0:
207,205,31994,6,0,B|313:211|286:154|398:170,1,187.000005706787,4|10,0:0|0:0,0:0:0:0:
471,59,32475,1,2,0:0:0:0:
275,46,32635,6,0,P|209:37|175:32,1,93.5000028533936,4|2,0:0|0:0,0:0:0:0:
55,111,32956,1,8,0:0:0:0:
207,205,33116,1,10,0:2:0:0:
207,205,33197,1,0,0:0:0:0:
207,205,33277,2,0,P|281:221|326:232,1,93.5000028533936,4|2,0:3|0:0,0:0:0:0:
427,305,33598,1,4,0:3:0:0:
287,365,33758,1,2,0:0:0:0:
488,380,33919,6,0,P|520:312|496:240,1,136,4|0,1:2|1:0,0:0:0:0:
404,204,34400,1,0,0:0:0:0:
504,140,34560,1,0,1:0:0:0:
427,305,34721,1,2,0:0:0:0:
427,305,34801,1,2,0:0:0:0:
427,305,34881,2,0,L|336:300,1,68,0|0,1:0|0:0,0:0:0:0:
172,224,35202,6,0,P|220:176|304:172,1,136,0|0,1:0|1:0,0:0:0:0:
392,208,35683,1,0,0:0:0:0:
444,92,35844,2,0,L|364:88,1,68,0|0,1:0|0:0,0:0:0:0:
284,168,36165,1,0,1:0:0:0:
264,48,36325,1,0,0:0:0:0:
300,292,36485,6,0,P|216:256|164:272,1,136,0|0,1:0|1:0,0:0:0:0:
88,304,36967,1,0,0:0:0:0:
88,304,37127,2,0,B|82:268|82:268|92:212,1,68,0|0,1:0|0:0,0:0:0:0:
256,136,37448,2,0,B|261:171|261:171|252:228,1,68,0|0,1:0|0:0,0:0:0:0:
67,68,37769,5,0,1:0:0:0:
167,88,37929,1,2,0:0:0:0:
147,188,38090,1,2,1:2:0:0:
47,167,38250,1,0,0:0:0:0:
167,88,38411,1,2,1:2:0:0:
84,264,38571,1,10,0:0:0:0:
246,153,38731,1,10,0:0:0:0:
67,68,38892,1,0,1:0:0:0:
200,287,39052,6,0,L|364:275,1,136,4|0,1:2|1:0,0:0:0:0:
360,113,39534,1,0,0:0:0:0:
272,184,39694,2,0,P|268:216|268:256,1,68,2|0,1:2|0:0,0:0:0:0:
432,384,40015,2,0,P|436:351|436:311,1,68,0|0,1:0|0:0,0:0:0:0:
252,336,40336,6,0,L|88:320,1,136,2|0,1:2|1:0,0:0:0:0:
32,164,40817,1,0,0:0:0:0:
200,240,40977,1,10,0:0:0:0:
200,240,41298,1,0,0:0:0:0:
80,324,41459,6,0,L|60:156,1,170,4|0,0:0|1:0,0:0:0:0:
264,32,41940,2,0,P|260:104|256:132,1,85,8|0,0:0|0:0,0:0:0:0:
384,328,42261,2,0,P|372:272|368:216,1,85,8|0,0:0|0:0,0:0:0:0:
432,128,42582,1,8,0:0:0:0:
240,320,42742,6,0,P|148:268|68:296,1,170,4|0,0:0|1:0,0:0:0:0:
48,96,43223,2,0,P|100:116|128:124,1,85,8|0,0:0|0:0,0:0:0:0:
356,232,43544,2,0,P|364:164|368:128,1,85,8|0,0:0|1:0,0:0:0:0:
200,192,43865,1,8,0:0:0:0:
200,192,44186,6,0,L|184:304,1,85,4|0,0:0|0:0,0:0:0:0:
364,184,44507,2,0,L|380:76,1,85,0|2,0:0|3:2,0:0:0:0:
316,16,44828,1,0,0:0:0:0:
460,120,44988,1,2,0:0:0:0:
284,168,45149,1,8,0:0:0:0:
396,332,45309,6,0,P|288:316|252:240,1,170,4|0,0:0|1:0,0:0:0:0:
108,104,45790,2,0,P|100:168|96:204,1,85,8|0,0:0|0:0,0:0:0:0:
188,344,46111,1,0,1:0:0:0:
344,248,46272,1,0,1:0:0:0:
192,176,46432,1,8,0:0:0:0:
192,176,46753,6,0,L|188:72,1,85,4|0,0:0|0:0,0:0:0:0:
332,192,47074,2,0,L|340:288,1,85,8|0,0:0|0:0,0:0:0:0:
188,332,47395,1,0,3:0:0:0:
336,184,47555,1,0,1:0:0:0:
142,79,47715,2,0,P|130:143|126:179,1,85,8|0,3:2|0:0,0:0:0:0:
344,348,48036,6,0,P|360:272|364:248,1,85,0|0,3:0|1:0,0:0:0:0:
374,93,48357,1,8,3:2:0:0:
230,232,48518,2,0,P|150:220|102:124,1,170,0|0,0:0|1:0,0:0:0:0:
256,4,48999,2,0,P|260:48|264:96,1,85,8|0,3:2|0:0,0:0:0:0:
200,320,49320,5,6,0:0:0:0:
332,256,49480,1,0,0:0:0:0:
216,172,49641,1,2,1:1:0:0:
200,320,49801,1,0,0:0:0:0:
372,212,49961,5,2,1:0:0:0:
160,136,50122,1,10,0:0:0:0:
280,324,50282,1,10,0:0:0:0:
292,88,50443,1,10,0:0:0:0:
296,76,50764,6,0,L|308:180,1,85,14|0,0:0|0:0,0:0:0:0:
88,296,51084,2,0,L|100:192,1,85,14|0,0:0|0:0,0:0:0:0:
76,36,51405,1,14,0:0:0:0:
100,64,51485,1,0,0:0:0:0:
132,84,51566,1,0,0:0:0:0:
168,96,51646,1,0,0:0:0:0:
208,96,51726,1,0,0:0:0:0:
244,84,51806,1,0,0:0:0:0:
280,60,51887,6,0,L|292:168,1,93.5000028533936,4|0,1:2|0:0,0:0:0:0:
416,325,52207,2,0,L|426:232,1,93.5000028533936,8|0,0:0|0:0,0:0:0:0:
437,97,52528,1,0,1:0:0:0:
272,184,52689,1,0,1:0:0:0:
280,0,52849,1,8,0:0:0:0:
325,282,53010,6,0,P|229:283|167:208,1,187.000005706787,0|0,1:0|1:0,0:0:0:0:
260,91,53491,2,0,L|274:207,1,93.5000028533936,8|0,0:0|0:0,0:0:0:0:
190,361,53812,1,0,1:0:0:0:
128,192,53972,1,0,1:0:0:0:
6,327,54133,1,8,0:0:0:0:
216,161,54293,2,0,P|144:101|55:132,1,187.000005706787,4|0,1:2|0:0,0:0:0:0:
111,284,54774,1,8,0:0:0:0:
111,284,55095,2,0,L|128:189,1,93.5000028533936,0|0,1:0|1:0,0:0:0:0:
260,38,55416,2,0,L|276:130,1,93.5000028533936,8|0,0:0|0:0,0:0:0:0:
381,305,55737,5,2,1:2:0:0:
433,154,55897,1,0,0:0:0:0:
185,99,56058,1,10,0:0:0:0:
340,212,56218,1,0,0:0:0:0:
350,22,56379,5,2,1:2:0:0:
206,189,56539,1,0,1:0:0:0:
115,46,56699,1,10,0:0:0:0:
144,324,56860,1,0,0:0:0:0:
144,324,56940,1,0,0:0:0:0:
144,324,57020,6,0,P|244:272|352:304,1,187.000005706787,4|8,1:2|0:0,0:0:0:0:
400,376,57502,1,0,0:0:0:0:
488,288,57662,2,0,P|500:244|496:188,1,93.5000028533936,2|0,1:2|1:0,0:0:0:0:
304,64,57983,2,0,P|292:108|296:163,1,93.5000028533936,10|0,0:0|0:0,0:0:0:0:
400,284,58304,5,2,1:2:0:0:
376,120,58464,1,0,1:0:0:0:
236,216,58625,2,0,L|128:208,1,93.5000028533936,10|0,0:0|0:0,0:0:0:0:
208,40,58945,2,0,B|212:88|212:88|200:144,1,93.5000028533936,2|0,1:2|1:0,0:0:0:0:
76,376,59266,2,0,B|72:328|72:328|84:272,1,93.5000028533936,10|0,0:0|0:0,0:0:0:0:
268,312,59587,6,0,L|392:292,1,93.5000028533936,4|0,1:2|0:0,0:0:0:0:
508,200,59908,2,0,P|440:132|384:132,1,140.25000428009,10|0,0:0|0:0,0:0:0:0:
372,144,60229,2,0,L|279:129,1,93.5000028533936,2|0,1:2|1:0,0:0:0:0:
132,40,60550,1,10,0:0:0:0:
24,168,60710,6,0,L|32:288,1,93.5000028533936,4|0,1:2|0:0,0:0:0:0:
172,364,61031,1,10,0:0:0:0:
180,204,61191,1,0,0:0:0:0:
72,352,61352,1,2,1:2:0:0:
72,352,61432,1,0,1:0:0:0:
72,352,61512,1,12,0:0:0:0:
120,112,61673,1,12,0:0:0:0:
120,104,61994,2,0,L|181:129,1,46.7500014266968,0|0,1:2|0:0,0:0:0:0:
257,235,62154,6,0,P|303:227|354:217,1,93.5000028533936,12|0,0:0|0:0,0:0:0:0:
450,40,62475,2,0,P|402:47|357:51,1,93.5000028533936,8|0,0:0|0:0,0:0:0:0:
155,32,62796,1,8,0:0:0:0:
282,220,62956,1,0,0:0:0:0:
281,101,63116,1,8,0:0:0:0:
228,330,63277,1,0,0:0:0:0:
87,281,63437,6,0,P|79:213|75:161,1,93.5000028533936,8|0,0:0|0:0,0:0:0:0:
245,40,63758,2,0,P|289:49|335:62,1,93.5000028533936,8|0,0:0|0:0,0:0:0:0:
382,318,64079,1,8,0:0:0:0:
210,249,64239,1,0,1:0:0:0:
372,170,64400,1,8,0:0:0:0:
349,359,64560,1,0,1:0:0:0:
142,100,64721,6,0,P|222:48|318:76,1,187.000005706787,8|8,0:0|0:0,0:0:0:0:
424,215,65202,1,2,1:2:0:0:
286,318,65362,2,0,L|274:214,1,93.5000028533936,10|0,0:0|1:0,0:0:0:0:
88,77,65683,2,0,L|76:173,1,93.5000028533936,10|0,0:0|1:0,0:0:0:0:
20,372,66004,6,0,P|109:368|183:282,1,187.000005706787,12|8,0:0|0:0,0:0:0:0:
280,122,66485,1,0,1:0:0:0:
284,294,66646,1,12,0:0:0:0:
106,181,66806,1,0,0:0:0:0:
284,294,66967,1,12,0:0:0:0:
136,334,67127,5,0,0:0:0:0:
136,334,67207,1,0,0:0:0:0:
136,334,67288,2,0,L|168:138,1,187.000005706787,6|8,0:0|0:0,0:0:0:0:
137,1,67769,1,2,0:0:0:0:
374,69,67929,2,0,L|290:97|266:105,1,93.5000028533936,0|0,1:0|1:0,0:0:0:0:
146,249,68250,2,0,P|190:261|270:289,1,93.5000028533936,8|0,0:0|0:0,0:0:0:0:
48,355,68571,6,0,P|-4:292|28:179,1,187.000005706787,4|10,0:0|0:0,0:0:0:0:
151,77,69052,1,2,0:0:0:0:
313,209,69213,2,0,P|249:221|197:241,1,93.5000028533936,0|0,1:0|1:0,0:0:0:0:
89,319,69534,1,8,0:0:0:0:
145,127,69694,1,0,0:0:0:0:
277,322,69854,6,0,P|373:322|429:226,1,187.000005706787,4|8,0:0|0:0,0:0:0:0:
392,96,70336,1,2,0:0:0:0:
232,164,70496,2,0,P|224:212|216:284,1,93.5000028533936,0|0,1:0|1:0,0:0:0:0:
64,360,70817,1,8,0:0:0:0:
64,176,70977,2,0,L|112:192,1,46.7500014266968,2|0,3:2|0:0,0:0:0:0:
224,268,71138,5,8,0:0:0:0:
188,64,71298,1,8,0:0:0:0:
197,50,71780,5,8,0:0:0:0:
136,300,71940,1,8,0:0:0:0:
124,320,72421,6,0,P|232:312|292:380,1,187.000005706787,4|8,0:0|0:0,0:0:0:0:
464,204,72903,1,8,0:0:0:0:
464,204,73223,2,0,P|415:222|352:236,1,93.5000028533936,8|0,0:0|0:0,0:0:0:0:
272,56,73544,6,0,P|164:40|96:108,1,187.000005706787,4|8,0:0|0:0,0:0:0:0:
192,288,74026,2,0,P|200:228|208:176,1,93.5000028533936,0|8,1:0|0:3,0:0:0:0:
420,92,74346,1,2,0:0:0:0:
409,138,74427,1,0,0:0:0:0:
379,177,74507,1,2,0:0:0:0:
337,200,74587,1,0,0:0:0:0:
291,202,74667,2,0,P|236:184|176:172,1,93.5000028533936,2|0,0:0|0:0,0:0:0:0:
50,249,74988,6,0,P|26:193|70:93,2,140.25000428009,6|2|0,0:0|0:0|0:0,0:0:0:0:
244,191,75630,2,0,P|316:199|376:247,2,140.25000428009,6|2|0,0:0|0:0|0:0,0:0:0:0:
128,40,76272,1,6,0:0:0:0:
128,24,76833,2,0,L|112:72,1,46.7500014266968,2|2,3:2|3:2,0:0:0:0:
36,116,77234,6,2,P|114:117|172:204,1,178.499994552612,4|0,0:3|0:0,0:1:0:0:
158,268,77555,6,0,L|343:250,1,170,4|10,1:2|0:0,0:0:0:0:
428,169,78036,1,0,0:0:0:0:
318,50,78197,2,0,B|312:93|312:93|322:148,1,85,2|0,1:2|1:0,0:0:0:0:
435,367,78518,2,0,B|441:324|441:324|431:269,1,85,8|0,0:0|0:0,0:0:0:0:
247,315,78838,6,0,L|46:284,1,170,2|10,1:2|0:0,0:0:0:0:
1,143,79320,2,0,P|56:85|159:94,1,170,2|2,1:2|1:2,0:0:0:0:
270,211,79801,2,0,L|374:195,1,85,8|0,0:0|0:0,0:0:0:0:
476,71,80122,6,0,L|391:58,1,85,2|0,1:2|0:0,0:0:0:0:
141,84,80443,2,0,L|153:276,1,170,10|2,0:0|1:2,0:0:0:0:
286,157,80924,1,0,1:0:0:0:
72,218,81084,2,0,B|65:261|65:261|79:325,1,85,8|0,0:0|0:0,0:0:0:0:
147,369,81325,1,2,0:0:0:0:
151,373,81405,6,0,P|237:302|302:317,1,170,2|10,1:2|0:0,0:0:0:0:
437,238,81887,2,0,P|351:167|286:182,1,170,2|2,1:2|1:2,0:0:0:0:
177,222,82368,2,0,L|81:205,1,85,8|0,0:0|0:0,0:0:0:0:
303,69,82689,6,0,B|312:112|312:112|301:185,1,85,6|0,1:2|0:0,0:0:0:0:
166,330,83010,2,0,B|159:289|159:289|168:246,1,85,10|0,0:0|0:0,0:0:0:0:
147,138,83330,1,2,1:2:0:0:
247,286,83491,2,0,L|356:277,1,85,0|8,1:0|0:0,0:0:0:0:
426,270,83812,5,2,0:0:0:0:
281,197,83972,1,0,1:0:0:0:
420,352,84133,2,0,P|430:310|414:243,1,85,2|8,0:0|0:0,0:0:0:0:
404,125,84453,1,2,1:2:0:0:
281,197,84614,2,0,L|160:181,1,85,2|0,0:0|1:0,0:0:0:0:
87,99,84935,1,8,0:0:0:0:
86,98,85256,6,0,B|134:103|134:103|172:93|172:93|224:98,2,136,4|2|2,1:2|0:0|0:0,0:0:0:0:
427,141,86539,5,12,0:0:0:0:
334,365,86860,1,0,1:0:0:0:
201,167,87181,1,2,1:2:0:0:
201,167,87261,2,0,P|158:156|100:156,1,85,8|8,0:0|0:0,0:0:0:0:
41,197,87502,2,0,L|46:303,1,85,0|8,1:0|0:0,0:0:0:0:
170,357,87822,6,0,P|263:362|333:286,1,170,4|0,0:0|0:0,0:0:0:0:
228,236,88304,1,4,0:0:0:0:
344,344,89266,1,2,0:0:0:0:
428,208,89427,6,0,L|460:324,1,85,2|0,0:0|0:0,0:0:0:0:
288,168,89748,2,0,L|296:84,1,63.7500024318696,2|0,0:0|0:0,0:0:0:0:
428,268,90068,2,2,L|417:325,1,42.5,10|0,0:0|0:0,0:1:0:0:
348,95,90389,6,0,P|233:98|189:150,1,170,4|10,0:0|0:0,0:0:0:0:
144,260,90871,1,0,0:0:0:0:
320,305,91031,2,0,P|316:256|318:202,1,85,2|0,1:2|1:0,0:0:0:0:
172,127,91352,2,0,P|113:146|72:158,1,85,10|0,0:0|0:0,0:0:0:0:
187,332,91673,6,0,P|275:327|327:263,1,170,2|10,1:2|0:0,0:0:0:0:
358,134,92154,1,2,1:2:0:0:
432,266,92314,2,0,P|437:332|438:366,1,85,0|0,0:0|1:0,0:0:0:0:
224,155,92635,2,0,P|222:74|224:36,1,85,8|0,0:0|0:0,0:0:0:0:
132,291,92956,6,0,P|215:302|298:252,1,170,4|8,0:0|0:0,0:0:0:0:
350,69,93437,1,0,0:0:0:0:
206,135,93598,2,0,P|198:191|198:231,2,85,0|0|8,1:0|1:0|0:0,0:0:0:0:
387,332,94079,6,0,L|357:149,1,170
236,55,94560,2,0,P|179:65|151:70,1,85,8|0,0:0|0:0,0:0:0:0:
93,253,94881,2,0,P|150:243|178:238,1,85,0|0,1:0|1:0,0:0:0:0:
383,262,95202,1,8,0:0:0:0:
315,127,95362,1,0,0:0:0:0:
226,289,95523,6,0,L|219:377,1,85,0|0,1:0|1:0,0:0:0:0:
82,191,95844,2,0,L|93:79,1,85,10|0,0:0|0:0,0:0:0:0:
237,47,96165,1,2,1:2:0:0:
281,180,96325,1,0,0:0:0:0:
163,254,96485,2,0,P|77:238|54:224,1,85,10|0,3:2|0:0,0:0:0:0:
233,96,96806,6,0,P|291:87|379:163,1,170,2|2,0:0|0:0,0:0:0:0:
400,281,97288,1,2,0:0:0:0:
228,329,97448,2,0,P|222:251|221:224,1,85
157,69,97769,1,0,1:0:0:0:
75,216,97929,1,0,0:0:0:0:
293,279,98090,6,0,L|476:256,2,170,4|8|0,1:2|0:0|1:0,0:0:0:0:
353,114,98892,1,0,1:0:0:0:
202,198,99052,2,0,L|210:314,1,85,8|0,0:0|0:0,0:0:0:0:
355,368,99373,5,0,1:0:0:0:
355,368,99694,2,0,L|360:283,1,85,8|0,0:0|0:0,0:0:0:0:
278,158,100015,1,0,1:0:0:0:
280,326,100175,1,0,1:0:0:0:
133,236,100336,2,0,L|35:227,1,85,8|0,0:0|0:0,0:0:0:0:
0,94,100657,6,0,P|61:39|155:46,1,170,0|8,1:0|0:0,0:0:0:0:
298,142,101138,1,0,0:0:0:0:
169,170,101298,1,2,1:2:0:0:
277,21,101459,1,0,1:0:0:0:
320,269,101619,2,0,L|479:245,1,127.5,10|0,0:2|0:0,0:0:0:0:
486,240,101940,6,0,P|450:162|338:151,1,170,2|10,1:2|0:0,0:0:0:0:
245,219,102421,1,2,1:2:0:0:
245,219,102502,1,0,0:0:0:0:
245,219,102582,2,0,L|232:301,1,42.5,2|0,0:0|0:0,0:0:0:0:
147,369,102742,2,0,L|140:327,1,42.5,2|0,1:2|0:0,0:0:0:0:
120,204,102903,1,10,0:0:0:0:
230,347,103063,1,2,0:0:0:0:
230,347,103143,1,0,0:0:0:0:
230,347,103223,6,0,L|413:333,1,170,4|8,1:2|0:0,0:0:0:0:
420,174,103705,1,0,0:0:0:0:
275,240,103865,2,0,L|178:227,1,85,0|0,1:0|1:0,0:0:0:0:
65,211,104186,1,8,0:0:0:0:
208,99,104346,1,0,0:0:0:0:
65,211,104507,6,0,L|73:315,1,85,4|0,1:2|0:0,0:0:0:0:
231,354,104828,2,0,L|237:269,1,85,8|0,0:0|0:0,0:0:0:0:
122,130,105149,1,0,1:0:0:0:
161,304,105309,1,0,1:0:0:0:
296,174,105469,2,0,L|436:162,1,127.5,8|8,0:0|0:0,0:0:0:0:
512,149,105790,6,0,P|466:84|372:82,1,170,4|8,1:2|0:0,0:0:0:0:
165,219,106272,1,0,0:0:0:0:
76,177,106432,2,0,P|135:124|227:143,1,170,4|8,1:2|0:0,0:0:0:0:
360,247,106913,1,0,0:0:0:0:
381,77,107074,5,4,1:2:0:0:
291,194,107234,1,2,0:0:0:0:
441,207,107395,1,10,0:0:0:0:
300,110,107555,1,0,0:0:0:0:
277,280,107715,5,2,0:0:0:0:
370,158,107876,1,0,0:0:0:0:
347,332,108036,1,2,0:0:0:0:
208,228,108197,1,0,0:0:0:0:
125,377,108357,6,0,P|37:370|1:330,1,136,4|0,0:0|0:0,0:0:0:0:
5,338,108838,1,0,0:0:0:0:
0,220,108999,2,0,P|10:177|17:150,1,68,4|0,0:0|0:0,0:0:0:0:
13,137,109239,1,2,0:0:0:0:
8,120,109320,1,0,0:0:0:0:
100,38,109480,1,0,0:0:0:0:
154,200,109641,6,0,L|290:183,1,136,4|0,0:0|0:0,0:0:0:0:
288,184,110122,1,0,0:0:0:0:
363,62,110282,2,0,L|447:51,1,68,6|0,0:0|0:0,0:0:0:0:
512,194,110603,2,0,L|428:205,1,68
334,304,110924,6,0,P|259:264|200:273,1,136,4|0,0:0|0:0,0:0:0:0:
210,269,111405,1,0,0:0:0:0:
103,223,111566,2,0,L|89:290,1,68,4|8,0:0|0:3,0:0:0:0:
242,168,111887,2,0,P|250:123|250:95,1,68,8|0,0:3|0:0,0:0:0:0:
387,331,112207,5,6,0:0:0:0:
485,268,112368,1,0,0:0:0:0:
387,331,112528,2,0,P|376:263|374:256,1,68
331,138,112849,1,6,0:0:0:0:
193,223,113010,1,0,0:0:0:0:
278,284,113170,1,0,0:0:0:0:
236,127,113330,1,0,0:0:0:0:
376,263,113491,6,2,P|477:248|503:220,1,136,4|0,0:0|0:0,0:1:0:0:
497,227,113972,1,0,0:0:0:0:
338,70,114133,2,2,L|328:155,1,68,4|0,0:0|0:0,0:1:0:0:
236,174,114453,2,0,L|246:259,1,68
102,327,114774,2,2,L|118:170,1,136,4|0,0:0|0:0,0:1:0:0:
56,98,115256,1,0,0:0:0:0:
1,248,115416,1,4,0:0:0:0:
1,248,115737,1,0,0:0:0:0:
157,222,115897,6,0,B|213:207|213:207|266:217|266:217|330:206,1,170,4|0,1:2|1:0,0:0:0:0:
457,168,116379,1,8,0:0:0:0:
457,168,116699,2,0,L|447:271,1,85,0|0,1:0|0:0,0:0:0:0:
331,341,117020,1,8,0:0:0:0:
225,239,117181,6,0,P|141:216|67:268,1,170,4|0,1:2|1:0,0:0:0:0:
8,358,117662,1,8,0:0:0:0:
8,358,117983,1,0,1:0:0:0:
0,195,118143,1,0,0:0:0:0:
157,308,118304,2,0,L|273:289,1,85,8|0,0:0|0:0,0:0:0:0:
332,265,118544,1,0,0:0:0:0:
332,265,118625,6,0,P|290:213|179:222,1,170,4|8,1:2|0:0,0:0:0:0:
78,332,119106,1,2,0:0:0:0:
240,294,119266,1,2,1:2:0:0:
131,168,119427,1,0,1:0:0:0:
78,332,119587,1,8,0:0:0:0:
35,117,119748,6,0,P|86:66|188:78,1,170,4|0,1:2|1:0,0:0:0:0:
276,212,120229,2,0,L|397:196,1,85,8|0,0:0|0:0,0:0:0:0:
493,162,120550,1,0,1:0:0:0:
322,65,120710,1,0,1:0:0:0:
493,162,120871,2,0,L|482:264,1,85,8|0,0:0|0:0,0:0:0:0:
419,316,121111,1,0,0:0:0:0:
419,316,121191,6,0,P|347:254|257:267,2,170,4|8|0,1:2|0:0|1:0,0:0:0:0:
365,157,121994,1,0,1:0:0:0:
321,356,122154,2,0,L|213:345,1,85,8|0,0:0|0:0,0:0:0:0:
56,276,122475,5,0,1:0:0:0:
216,249,122635,1,0,1:0:0:0:
113,128,122796,1,8,0:0:0:0:
187,346,122956,2,0,L|287:331,1,85,0|0,0:0|1:0,0:0:0:0:
430,170,123277,1,0,1:0:0:0:
460,267,123437,2,0,L|375:254,1,85,8|0,0:0|0:0,0:0:0:0:
171,253,123758,5,4,1:2:0:0:
329,365,123919,1,0,1:0:0:0:
335,172,124079,1,10,0:0:0:0:
171,253,124239,1,10,0:0:0:0:
89,85,124400,5,10,0:0:0:0:
335,172,124560,1,0,1:0:0:0:
253,4,124721,1,10,0:0:0:0:
171,253,124881,1,10,0:0:0:0:
171,253,125202,6,0,L|70:239,1,85,12|0,0:2|0:0,0:0:0:0:
275,358,125523,2,0,L|359:346,1,85,12|0,0:2|0:0,0:0:0:0:
491,222,125844,1,12,0:0:0:0:
456,215,125924,1,0,0:0:0:0:
421,209,126004,1,0,0:0:0:0:
386,203,126084,1,0,0:0:0:0:
351,196,126164,1,0,0:0:0:0:
316,190,126245,1,0,0:0:0:0:
281,184,126325,6,0,L|263:90,1,93.5000028533936,6|0,1:2|0:0,0:0:0:0:
101,209,126646,2,0,L|85:313,1,93.5000028533936,8|0,0:0|0:0,0:0:0:0:
184,264,126967,1,0,1:1:0:0:
24,176,127127,1,0,1:0:0:0:
184,72,127288,1,8,0:0:0:0:
280,272,127448,6,0,P|370:286|428:208,1,187.000005706787,4|0,1:2|1:0,0:0:0:0:
396,60,127929,2,0,P|349:67|304:77,1,93.5000028533936,8|0,0:0|0:0,0:0:0:0:
124,136,128250,1,0,1:0:0:0:
280,272,128411,1,0,1:0:0:0:
304,77,128571,1,8,0:0:0:0:
96,320,128731,6,0,L|124:133,1,187.000005706787,4|0,0:0|0:0,0:0:0:0:
283,0,129213,1,8,0:0:0:0:
382,199,129373,1,0,0:0:0:0:
382,199,129453,1,0,0:0:0:0:
382,199,129534,2,0,P|324:209|271:225,1,93.5000028533936,0|0,1:0|1:0,0:0:0:0:
86,108,129854,2,0,P|142:96|197:82,1,93.5000028533936,8|0,0:0|0:0,0:0:0:0:
363,318,130175,6,0,P|412:305|461:294,2,93.5000028533936,4|0|8,0:0|0:0|0:0,0:0:0:0:
184,219,130657,1,0,0:0:0:0:
338,94,130817,2,0,P|348:173|354:209,1,93.5000028533936,0|0,1:0|1:0,0:0:0:0:
163,46,131138,1,8,0:0:0:0:
114,298,131298,5,2,0:0:0:0:
114,298,131379,1,2,0:0:0:0:
114,298,131459,2,0,P|208:316|294:234,1,187.000005706787,4|8,0:0|0:0,0:0:0:0:
428,186,131940,1,0,0:0:0:0:
287,68,132100,2,0,P|207:86|190:90,1,93.5000028533936,0|0,1:0|1:0,0:0:0:0:
115,246,132421,2,0,P|110:292|104:338,1,93.5000028533936,8|0,0:0|0:0,0:0:0:0:
336,357,132742,6,0,P|388:291|363:194,1,187.000005706787,2|8,1:2|0:0,0:0:0:0:
183,272,133223,1,0,0:0:0:0:
119,73,133384,2,0,P|199:83|244:97,1,93.5000028533936,2|0,1:2|0:0,0:0:0:0:
407,282,133705,2,0,P|325:271|284:251,1,93.5000028533936,8|0,0:0|0:0,0:0:0:0:
114,351,134026,6,0,L|155:146,1,187.000005706787,4|8,0:0|0:0,0:0:0:0:
259,52,134507,1,0,0:0:0:0:
348,207,134667,2,0,P|356:285|359:317,2,93.5000028533936,0|0|8,1:0|1:0|0:0,0:0:0:0:
171,179,135149,6,0,P|99:171|66:163,1,93.5000028533936,4|0,0:0|0:0,0:0:0:0:
138,61,135469,1,8,0:0:0:0:
96,279,135630,1,8,0:3:0:0:
289,231,135790,1,0,1:0:0:0:
289,231,135871,1,0,1:0:0:0:
289,231,135951,1,8,0:0:0:0:
46,149,136111,1,8,0:0:0:0:
46,149,136432,1,8,0:0:0:0:
46,149,136512,1,8,0:0:0:0:
46,149,136592,6,0,L|61:279,1,93.5000028533936,8|0,0:0|0:0,0:0:0:0:
222,384,136913,2,0,L|232:291,1,93.5000028533936,8|0,0:0|0:0,0:0:0:0:
254,158,137234,1,8,0:0:0:0:
145,267,137395,1,0,0:0:0:0:
190,90,137555,1,8,0:0:0:0:
318,222,137715,1,0,1:0:0:0:
486,153,137876,6,0,P|423:106|340:114,1,140.25000428009,8|0,0:0|0:0,0:0:0:0:
337,118,138197,1,8,0:0:0:0:
489,23,138357,1,0,1:0:0:0:
394,207,138518,1,8,0:0:0:0:
281,32,138678,1,0,1:0:0:0:
185,211,138838,1,8,0:0:0:0:
337,118,138999,1,0,1:0:0:0:
174,31,139159,6,0,L|185:194,1,140.25000428009,8|0,0:0|0:0,0:0:0:0:
185,211,139480,1,8,0:0:0:0:
273,100,139641,1,0,1:0:0:0:
98,166,139801,5,8,0:0:0:0:
273,257,139961,1,0,1:0:0:0:
9,208,140122,5,8,0:0:0:0:
184,117,140282,1,0,1:0:0:0:
13,14,140443,6,0,B|4:61|4:61|17:117,1,93.5000028533936,12|0,0:0|0:0,0:0:0:0:
191,312,140764,2,0,B|201:267|201:267|192:220,1,93.5000028533936,8|0,0:0|1:0,0:0:0:0:
269,173,141084,5,12,0:0:0:0:
114,264,141245,1,0,1:0:0:0:
271,352,141405,1,8,0:0:0:0:
114,264,141566,1,0,1:0:0:0:
114,264,141646,1,8,0:0:0:0:
114,264,141726,6,0,L|-4:251,1,85,4|0,1:2|0:0,0:0:0:0:
211,92,142047,2,0,B|266:81|266:81|326:91|326:91|414:74,1,170,8|0,0:0|1:0,0:0:0:0:
325,3,142528,1,0,1:0:0:0:
269,173,142689,2,0,L|279:261,1,85,8|0,0:0|0:0,0:0:0:0:
371,376,143010,5,0,1:0:0:0:
352,210,143170,1,0,1:0:0:0:
206,300,143330,2,0,L|36:276,1,170,8|0,0:0|1:0,0:0:0:0:
166,180,143812,1,0,1:0:0:0:
0,92,143972,2,0,L|12:176,1,85,8|0,0:0|0:0,0:0:0:0:
181,352,144293,6,0,P|274:283|354:305,1,170,4|8,1:2|0:0,0:0:0:0:
475,202,144774,2,0,P|382:133|302:155,1,170,2|0,0:0|1:0,0:0:0:0:
212,65,145256,1,8,0:0:0:0:
372,240,145416,1,0,1:0:0:0:
372,240,145496,1,0,1:0:0:0:
372,240,145576,5,10,0:0:0:0:
506,48,145737,1,10,0:0:0:0:
506,48,146218,1,10,0:0:0:0:
268,223,146378,1,10,0:0:0:0:
268,223,146860,6,0,B|217:212|217:212|155:221|155:221|74:203,1,170,4|8,1:2|0:0,0:0:0:0:
153,113,147341,1,10,0:0:0:0:
220,316,147662,1,10,0:0:0:0:
3,267,147983,6,0,P|97:204|170:235,1,170,4|0,0:2|0:0,0:0:0:0:
220,316,148464,2,0,L|325:298,1,85,0|0,1:0|0:0,0:0:0:0:
468,197,148785,1,2,1:2:0:0:
447,193,148865,1,0,0:0:0:0:
426,190,148945,1,2,0:0:0:0:
405,187,149025,1,0,0:0:0:0:
384,183,149106,2,0,L|373:80,1,85,2|0,1:2|0:0,0:0:0:0:
205,50,149427,6,0,L|48:31,2,127.5,4|2|2,0:2|0:0|0:0,0:0:0:0:
0,178,150068,2,0,L|157:159,2,127.5,4|2|2,0:2|0:0|0:0,0:0:0:0:
203,285,150710,5,4,0:0:0:0:
160,264,160977,6,2,L|308:304,1,127.500004863739,4|2,0:0|0:0,0:0:0:0:
460,112,161619,2,0,P|464:164|468:192,1,63.7500024318696,2|0,0:0|0:0,0:0:0:0:
456,312,161940,2,0,P|400:276|320:288,1,127.500004863739
192,176,162582,6,0,P|248:160|272:152,1,63.7500024318696,2|0,0:0|0:0,0:0:0:0:
184,324,162903,2,0,P|128:340|104:348,1,63.7500024318696,2|0,0:0|0:0,0:0:0:0:
324,316,163223,1,2,0:0:0:0:
324,316,163544,6,0,L|340:172,1,127.500004863739,0|2,0:0|0:0,0:0:0:0:
168,48,164186,2,0,P|120:64|88:72,1,63.7500024318696,2|0,0:0|0:0,0:0:0:0:
56,192,164507,2,0,L|72:256,1,63.7500024318696,2|0,0:0|0:0,0:0:0:0:
296,192,164828,6,0,P|220:156|160:176,1,127.500004863739,0|2,0:0|0:0,0:0:0:0:
192,304,165309,1,0,0:0:0:0:
192,304,165469,2,0,L|212:228,1,63.7500024318696,2|0,0:0|0:0,0:0:0:0:
264,124,165790,2,0,L|260:52,1,63.7500024318696,2|0,0:0|0:0,0:0:0:0:
164,0,166111,5,6,0:0:0:0:
316,264,166753,2,0,L|360:252|404:240,1,63.7500024318696,2|0,0:0|0:0,0:0:0:0:
196,148,167074,2,0,P|188:196|180:228,1,63.7500024318696,2|0,0:0|0:0,0:0:0:0:
24,288,167395,6,0,L|52:148,1,127.500004863739,0|2,0:0|0:0,0:0:0:0:
69,43,167876,1,0,0:0:0:0:
182,197,168036,2,0,L|166:115,1,63.7500024318696,2|0,0:0|0:0,0:0:0:0:
295,143,168357,1,2,0:0:0:0:
295,143,168678,6,0,P|223:167|179:199,1,127.500004863739,2|0,0:0|0:0,0:0:0:0:
230,300,169159,1,0,0:0:0:0:
384,320,169320,2,0,P|364:256|360:232,1,63.7500024318696,2|0,0:0|0:0,0:0:0:0:
484,141,169641,2,0,P|476:172|466:202,1,63.7500024318696,2|0,0:0|0:0,0:0:0:0:
358,136,169961,6,0,P|281:98|222:104,1,127.500004863739,0|2,0:0|0:0,0:0:0:0:
124,141,170443,1,0,0:0:0:0:
198,302,170603,1,2,0:0:0:0:
244,203,170764,1,0,0:0:0:0:
349,228,170924,1,2,0:0:0:0:
357,334,171084,1,0,0:0:0:0:
257,371,171245,6,0,P|185:315|97:319,2,170,6|0|2,0:0|3:0|3:2,0:0:0:0:
171,211,172849,2,0,L|256:188,1,63.7500024318696,2|0,0:0|0:0,0:0:0:0:
446,102,173170,2,0,P|405:88|347:75,1,85,2|0,0:0|0:0,0:0:0:0:
208,300,173491,1,2,0:0:0:0:
166,301,173571,1,0,0:0:0:0:
126,288,173651,1,2,0:0:0:0:
95,260,173731,1,0,0:0:0:0:
72,222,173812,6,0,L|61:291,1,50.9999984436036,0|0,1:0|0:0,0:0:0:0:
180,149,174133,2,0,L|169:218,1,50.9999984436036,0|0,1:0|0:0,0:0:0:0:
41,85,174453,2,0,L|30:154,1,50.9999984436036,0|0,1:0|0:0,0:0:0:0:
149,12,174774,2,0,L|138:81,1,50.9999984436036,0|0,1:0|0:0,0:0:0:0:
326,93,175095,6,0,L|224:87,1,101.999996887207,0|0,1:0|1:0,0:0:0:0:
224,87,175576,1,0,0:0:0:0:
391,171,175737,2,0,L|492:165,2,101.999996887207,0|4|4,1:0|1:2|1:2,0:0:0:0:
392,297,177020,5,4,1:2:0:0:
199,234,177662,1,4,1:2:0:0:
272,132,178303,1,4,1:2:0:0:
272,335,178945,5,4,1:2:0:0:
256,192,179026,12,0,180710,0:0:0:0:
346,123,180871,5,8,0:0:0:0:
277,247,181031,1,0,1:0:0:0:
277,247,181111,1,0,1:0:0:0:
277,247,181191,2,0,L|175:228,1,85,8|0,0:0|0:0,0:0:0:0:
147,223,181432,5,8,0:0:0:0:
147,223,181512,1,4,0:0:0:0:
368,132,181673,1,0,0:0:0:0:
196,16,181833,2,0,P|208:80|216:140,1,93.5000028533936,8|0,0:0|0:0,0:0:0:0:
353,334,182154,2,0,P|357:282|365:234,1,93.5000028533936,0|0,1:0|1:0,1:0:0:0:
484,292,182475,1,8,0:0:0:0:
222,275,182635,6,0,P|124:264|72:188,1,187.000005706787,4|0,0:0|0:0,0:0:0:0:
235,14,183116,1,8,0:0:0:0:
183,178,183277,1,0,0:0:0:0:
421,153,183437,2,0,L|301:137,1,93.5000028533936,0|0,1:0|1:0,0:0:0:0:
94,72,183758,1,8,0:0:0:0:
94,328,183919,6,0,P|168:338|252:253,1,187.000005706787,4|0,0:0|0:0,0:0:0:0:
328,83,184400,1,8,0:0:0:0:
163,264,184560,1,0,0:0:0:0:
163,264,184641,1,0,0:0:0:0:
163,264,184721,2,0,P|179:324|187:364,1,93.5000028533936,0|0,1:0|1:0,0:1:0:0:
448,226,185042,2,0,P|387:211|337:196,1,93.5000028533936,8|0,0:0|0:0,0:0:0:0:
128,124,185362,5,6,0:0:0:0:
272,20,185523,1,0,0:0:0:0:
304,212,185683,2,0,L|288:328,1,93.5000028533936,10|0,0:0|0:0,0:0:0:0:
75,38,186004,1,2,1:2:0:0:
91,265,186165,1,0,1:0:0:0:
244,123,186325,1,10,0:0:0:0:
414,286,186485,5,2,0:0:0:0:
414,286,186566,1,2,0:0:0:0:
414,286,186646,2,0,P|342:354|226:330,1,187.000005706787,6|8,0:0|0:0,0:0:0:0:
97,311,187127,1,0,0:0:0:0:
96,115,187288,2,0,P|168:95|212:79,1,93.5000028533936,0|0,1:0|0:0,0:0:0:0:
352,204,187608,2,0,P|280:224|236:240,1,93.5000028533936,8|0,0:0|0:0,0:0:0:0:
152,320,187929,5,2,1:2:0:0:
185,88,188090,1,0,0:0:0:0:
324,290,188250,2,0,L|316:398,1,93.5000028533936,8|0,0:0|0:0,0:0:0:0:
480,228,188571,2,0,L|488:120,1,93.5000028533936,2|0,1:2|1:0,0:0:0:0:
294,28,188892,1,8,0:0:0:0:
486,134,189052,1,0,0:0:0:0:
272,341,189213,6,0,L|243:138,1,187.000005706787,6|8,0:0|0:0,0:0:0:0:
162,20,189694,1,0,0:0:0:0:
33,205,189854,2,0,P|109:221|169:229,1,93.5000028533936,0|0,1:0|1:0,0:0:0:0:
452,297,190175,1,8,0:0:0:0:
407,156,190336,6,2,L|294:185,1,93.5000028533936,4|0,0:0|0:0,0:1:0:0:
103,146,190657,1,8,0:0:0:0:
188,316,190817,1,8,0:3:0:0:
316,179,190977,1,0,1:0:0:0:
316,179,191058,1,0,1:0:0:0:
316,179,191138,1,8,0:0:0:0:
200,12,191298,6,0,L|108:40,1,93.5000028533936,8|0,0:0|0:0,0:0:0:0:
72,80,191539,1,8,0:0:0:0:
112,109,191619,1,8,0:0:0:0:
138,155,191699,1,8,0:0:0:0:
146,208,191780,6,0,L|261:189,1,93.5000028533936,12|0,0:0|0:0,0:0:0:0:
448,103,192100,2,0,L|333:84,1,93.5000028533936,8|0,0:0|0:0,0:0:0:0:
214,289,192421,5,8,0:0:0:0:
384,187,192582,1,0,1:0:0:0:
202,86,192742,1,8,0:0:0:0:
299,239,192903,1,0,1:0:0:0:
124,336,193063,6,0,P|81:253|106:191,1,140.25000428009,10|0,0:0|0:0,0:0:0:0:
125,169,193384,2,0,L|24:154,1,93.5000028533936,8|0,0:0|1:0,0:0:0:0:
281,123,193705,5,10,0:0:0:0:
88,80,193865,1,0,1:0:0:0:
260,239,194026,1,8,0:0:0:0:
302,20,194186,1,0,1:0:0:0:
164,182,194346,6,0,B|145:235|145:235|162:332,1,140.25000428009,12|0,0:0|0:0,0:0:0:0:
159,317,194667,2,0,L|40:304,1,93.5000028533936,8|0,0:0|1:0,0:0:0:0:
260,239,194988,2,0,L|379:226,1,93.5000028533936,8|0,0:0|1:0,0:0:0:0:
470,217,195309,1,8,0:0:0:0:
312,46,195469,1,0,1:0:0:0:
312,46,195550,1,0,0:0:0:0:
312,46,195630,6,0,L|299:160,1,93.5000028533936,12|0,0:0|0:0,0:0:0:0:
321,330,195951,1,8,0:0:0:0:
194,143,196111,1,0,1:0:0:0:
91,350,196272,6,0,L|205:337,1,93.5000028533936,12|0,0:0|1:0,0:0:0:0:
321,330,196592,1,8,0:0:0:0:
111,79,196753,1,8,0:0:0:0:
111,79,196833,1,8,0:0:0:0:
111,79,196913,6,0,B|90:139|90:139|109:230,1,127.5,4|0,1:2|0:0,0:0:0:0:
103,201,197234,2,0,L|0:193,1,85,10|0,0:0|0:0,0:0:0:0:
162,329,197555,1,2,1:2:0:0:
200,147,197715,1,0,1:0:0:0:
338,267,197876,2,0,L|456:259,1,85,10|0,0:0|0:0,0:0:0:0:
457,106,198197,5,2,1:2:0:0:
272,201,198357,1,0,1:0:0:0:
281,7,198518,2,0,B|306:88|306:88|278:199,1,170,10|2,0:0|1:2,0:0:0:0:
186,92,198999,1,0,1:0:0:0:
376,149,199159,2,0,L|347:263,1,85,10|0,0:0|0:0,0:0:0:0:
217,304,199480,6,0,P|168:266|93:270,1,127.5,4|0,1:2|0:0,0:0:0:0:
72,288,199801,1,10,0:0:0:0:
208,180,199961,1,0,0:0:0:0:
43,62,200122,2,0,L|58:170,1,85,2|0,1:2|1:0,0:0:0:0:
137,353,200443,1,8,0:0:0:0:
131,96,200603,1,0,1:0:0:0:
131,96,200683,1,0,1:0:0:0:
131,96,200764,5,10,0:0:0:0:
341,270,200924,1,10,0:0:0:0:
341,270,201405,1,10,0:0:0:0:
335,13,201566,1,10,0:0:0:0:
335,13,202047,6,0,B|348:79|348:79|311:211,1,170,4|8,1:2|0:0,0:0:0:0:
281,300,202528,1,10,0:0:0:0:
248,76,202849,1,10,0:0:0:0:
64,221,203170,6,0,P|115:183|221:209,1,170,12|0,0:0|0:0,0:0:0:0:
281,300,203651,2,0,L|389:290,1,85,0|0,1:0|0:0,0:0:0:0:
506,141,203972,1,2,1:2:0:0:
474,136,204052,1,0,0:0:0:0:
442,131,204132,1,2,0:0:0:0:
411,126,204212,1,0,0:0:0:0:
379,121,204293,2,0,L|368:22,1,85,2|0,1:2|0:0,0:0:0:0:
188,126,204614,6,0,B|125:132|125:132|68:104,2,127.5,4|2|2,1:2|0:0|0:0,0:0:0:0:
0,202,205256,2,0,B|63:196|63:196|120:224,2,127.5,4|2|2,1:2|0:0|0:0,0:0:0:0:
144,32,205897,1,6,0:0:0:0:
144,32,206459,2,0,L|150:71,2,21.25,2|2|2,0:0|0:0|0:0,0:0:0:0:
299,198,206860,1,4,0:3:0:0:
93,125,207020,5,0,0:0:0:0:
93,125,207100,1,0,0:0:0:0:
93,125,207181,2,0,P|138:84|206:60,1,93.5000028533936,4|0,0:0|0:0,0:0:0:0:
396,97,207502,2,0,P|351:138|283:162,1,93.5000028533936,8|0,0:0|0:0,0:0:0:0:
257,356,207822,2,0,P|304:324|350:310,2,93.5000028533936,0|0|8,0:0|1:0|0:0,0:0:0:0:
84,311,208304,6,0,B|34:312|-3:278|-26:200|27:138,1,187.000005706787,4|0,0:0|1:0,0:0:0:0:
264,35,208785,2,0,P|281:114|268:158,1,93.5000028533936,8|0,0:0|0:0,0:0:0:0:
145,341,209106,2,0,P|120:269|120:225,1,93.5000028533936,0|0,1:0|1:0,0:0:0:0:
132,68,209427,1,8,0:0:0:0:
369,215,209587,6,0,B|423:235|471:208|512:183|492:80,1,187.000005706787,4|0,0:0|1:0,0:0:0:0:
309,18,210068,1,8,0:0:0:0:
176,211,210229,1,0,0:0:0:0:
176,211,210309,1,0,0:0:0:0:
176,211,210389,2,0,P|185:278|206:316,1,93.5000028533936,0|0,1:0|1:0,0:0:0:0:
399,127,210710,2,0,L|378:10,1,93.5000028533936,8|0,0:0|0:0,0:0:0:0:
226,80,211031,5,6,0:0:0:0:
242,243,211191,1,0,0:0:0:0:
91,187,211352,2,0,P|50:197|0:215,1,93.5000028533936,10|0,0:0|0:0,0:0:0:0:
341,239,211673,1,2,0:0:0:0:
178,164,211833,1,0,1:0:0:0:
192,334,211994,1,10,0:0:0:0:
390,360,212154,5,2,0:0:0:0:
390,360,212234,1,2,0:0:0:0:
390,360,212314,2,0,P|466:302|458:206,2,187.000005706787,4|8|0,0:0|0:0|1:0,0:0:0:0:
253,239,213116,1,0,1:0:0:0:
182,379,213277,1,8,0:0:0:0:
29,193,213437,6,0,B|43:155|77:122|141:104|202:170,1,187.000005706787,4|0,0:0|1:0,0:0:0:0:
268,330,213919,2,0,P|315:307|368:296,1,93.5000028533936,8|0,0:0|0:0,0:0:0:0:
425,78,214239,2,0,P|377:104|328:115,2,93.5000028533936,0|0|8,1:0|1:0|0:0,0:0:0:0:
230,246,214721,6,0,P|150:204|133:95,1,187.000005706787,4|0,0:0|0:0,0:0:0:0:
5,25,215202,1,8,0:0:0:0:
60,286,215362,1,0,0:0:0:0:
60,286,215443,1,0,0:0:0:0:
60,286,215523,1,0,1:0:0:0:
209,157,215683,1,0,1:0:0:0:
373,90,215844,2,0,P|365:140|357:197,1,93.5000028533936,8|0,0:0|0:0,0:0:0:0:
50,66,216165,6,0,P|120:99|161:110,2,93.5000028533936,4|0|8,0:0|0:0|0:0,0:0:0:0:
219,371,216646,2,0,P|140:328|95:323,1,93.5000028533936,0|0,0:0|1:0,0:0:0:0:
380,167,216967,2,0,P|420:188|489:195,1,93.5000028533936,0|8,1:0|0:0,0:0:0:0:
218,272,217288,1,2,0:0:0:0:
218,272,217368,1,2,0:0:0:0:
218,272,217448,6,0,B|208:214|208:214|231:125,1,140.25000428009,4|0,1:2|0:0,0:0:0:0:
228,135,217769,2,0,L|116:124,1,93.5000028533936,8|0,0:0|0:0,0:0:0:0:
120,318,218090,1,0,1:0:0:0:
301,222,218250,1,0,1:0:0:0:
134,125,218411,1,8,0:0:0:0:
216,358,218571,6,0,P|285:303|400:339,1,187.000005706787,4|0,1:2|1:0,0:0:0:0:
460,384,219052,1,8,0:0:0:0:
460,384,219373,1,0,1:0:0:0:
352,160,219534,1,0,1:0:0:0:
460,384,219694,1,8,0:0:0:0:
216,358,219854,6,0,B|134:311|134:311|43:328,1,187.000005706787,4|0,1:2|1:0,0:0:0:0:
212,190,220336,1,8,0:0:0:0:
41,235,220496,1,0,0:0:0:0:
41,235,220576,1,0,0:0:0:0:
41,235,220657,2,0,B|34:281|34:281|50:367,1,93.5000028533936,0|0,0:0|1:0,0:0:0:0:
212,190,220977,2,0,B|219:144|219:144|203:58,1,93.5000028533936,8|0,0:0|0:0,0:0:0:0:
287,46,221298,5,4,1:2:0:0:
131,145,221459,1,8,0:0:0:0:
298,230,221619,1,8,0:0:0:0:
131,145,221780,2,0,L|23:135,1,93.5000028533936,0|0,1:0|0:0,0:0:0:0:
256,320,222100,2,0,L|364:310,1,93.5000028533936,0|8,1:0|0:0,0:0:0:0:
379,73,222421,1,2,0:0:0:0:
379,73,222502,1,0,0:0:0:0:
379,73,222582,6,0,P|283:73|244:164,1,170,4|8,1:2|0:0,0:0:0:0:
399,369,223063,1,8,0:0:0:0:
333,150,223384,1,8,0:0:0:0:
177,299,223705,6,0,P|122:247|22:259,1,170,4|0,1:2|0:0,0:0:0:0:
79,378,224186,1,0,1:0:0:0:
79,378,224266,1,0,0:0:0:0:
79,378,224346,2,0,L|90:312,1,42.5
230,164,224507,1,2,1:2:0:0:
232,185,224587,1,0,0:0:0:0:
235,206,224667,1,2,0:0:0:0:
237,227,224747,1,0,0:0:0:0:
240,248,224827,1,2,1:2:0:0:
214,52,225149,5,4,1:2:0:0:
256,192,225229,12,0,227715,0:0:0:0:
