osu file format v14

[General]
AudioFilename: Univer Page.mp3
AudioLeadIn: 0
PreviewTime: 51824
Countdown: 0
SampleSet: None
StackLeniency: 0.7
Mode: 3
LetterboxInBreaks: 0
SpecialStyle: 0
WidescreenStoryboard: 1

[Editor]
DistanceSpacing: 0.3
BeatDivisor: 4
GridSize: 4
TimelineZoom: 2

[Metadata]
Title:Univer Page (TV Size)
TitleUnicode:ユニバーページ (TV Size)
Artist:Mimori Suzuko
ArtistUnicode:三森すずこ
Creator:HXJ_Crafter
Version:Hard
Source:Outbreak Company
Tags:アウトブレイク・カンパニー opening
BeatmapID:1405669
BeatmapSetID:664159

[Difficulty]
HPDrainRate:8
CircleSize:6
OverallDifficulty:5
ApproachRate:5
SliderMultiplier:1.4
SliderTickRate:1

[Events]
//Background and Video events
0,0,"Outbreak-Company.png",0,0
//Break Periods
//Storyboard Layer 0 (Background)
//Storyboard Layer 1 (Fail)
//Storyboard Layer 2 (Pass)
//Storyboard Layer 3 (Foreground)
//Storyboard Sound Samples

[TimingPoints]
488,320.855614973262,4,2,2,30,1,0
3054,-100,4,2,2,49,0,0
51824,-100,4,2,2,45,0,0
71075,-100,4,2,2,45,0,0

[HitObjects]
36,192,488,5,0,0:0:0:0:
475,192,648,1,0,0:0:0:0:
298,192,808,1,0,0:0:0:0:
128,192,969,1,0,0:0:0:0:
475,192,1129,1,0,0:0:0:0:
298,192,1290,1,0,0:0:0:0:
128,192,1450,1,0,0:0:0:0:
475,192,1610,1,0,0:0:0:0:
329,192,1771,1,0,0:0:0:0:
36,192,1771,1,0,0:0:0:0:
128,192,1931,1,0,0:0:0:0:
475,192,2092,1,0,0:0:0:0:
329,192,2252,1,0,0:0:0:0:
128,192,2413,1,0,0:0:0:0:
475,192,2573,1,0,0:0:0:0:
298,192,2733,1,0,0:0:0:0:
128,192,2894,1,0,0:0:0:0:
36,192,3054,1,0,0:0:0:0:
384,192,3054,128,0,3696:0:0:0:0:
182,192,3375,1,0,0:0:0:0:
109,192,3375,1,0,0:0:0:0:
36,192,3696,1,0,0:0:0:0:
469,192,3696,128,0,4338:0:0:0:0:
109,192,3856,1,0,0:0:0:0:
329,192,4017,1,0,0:0:0:0:
182,192,4017,1,0,0:0:0:0:
42,192,4338,128,0,5300:0:0:0:0:
384,192,4338,1,0,0:0:0:0:
128,192,4498,1,0,0:0:0:0:
384,192,4659,1,0,0:0:0:0:
213,192,4659,1,0,0:0:0:0:
329,192,4819,1,0,0:0:0:0:
469,192,4819,1,0,0:0:0:0:
213,192,5140,1,0,0:0:0:0:
469,192,5300,128,0,5621:0:0:0:0:
329,192,5300,1,0,0:0:0:0:
384,192,5300,1,0,0:0:0:0:
213,192,5621,128,0,5942:0:0:0:0:
36,192,5621,1,0,0:0:0:0:
128,192,5621,1,0,0:0:0:0:
384,192,5942,128,0,6263:0:0:0:0:
128,192,5942,1,0,0:0:0:0:
298,192,5942,1,0,0:0:0:0:
475,192,6263,128,0,6584:0:0:0:0:
42,192,6263,1,0,0:0:0:0:
128,192,6423,1,0,0:0:0:0:
213,192,6584,1,0,0:0:0:0:
298,192,6584,1,0,0:0:0:0:
329,192,6824,1,0,0:0:0:0:
402,192,6865,1,0,0:0:0:0:
475,192,6905,128,0,7225:0:0:0:0:
36,192,6905,1,0,0:0:0:0:
182,192,6905,1,0,0:0:0:0:
402,192,7225,1,0,0:0:0:0:
256,192,7225,1,0,0:0:0:0:
128,192,7386,1,0,0:0:0:0:
36,192,7386,1,0,0:0:0:0:
298,192,7707,1,0,0:0:0:0:
213,192,7867,128,0,8188:0:0:0:0:
475,192,7867,1,0,0:0:0:0:
475,192,8188,128,0,8669:0:0:0:0:
384,192,8188,128,0,8669:0:0:0:0:
42,192,8188,1,0,0:0:0:0:
109,192,8509,1,0,0:0:0:0:
256,192,8509,1,0,0:0:0:0:
42,192,8830,128,0,9311:0:0:0:0:
469,192,8830,1,0,0:0:0:0:
128,192,8830,128,0,9311:0:0:0:0:
213,192,8990,1,0,0:0:0:0:
298,192,9151,1,0,0:0:0:0:
384,192,9151,1,0,0:0:0:0:
475,192,9471,128,0,10434:0:0:0:0:
182,192,9471,1,0,0:0:0:0:
402,192,9471,1,0,0:0:0:0:
42,192,9471,128,0,10434:0:0:0:0:
329,192,9632,1,0,0:0:0:0:
213,192,9792,1,0,0:0:0:0:
402,192,9792,1,0,0:0:0:0:
109,192,9953,1,0,0:0:0:0:
298,192,9953,1,0,0:0:0:0:
213,192,10274,1,0,0:0:0:0:
128,192,10274,1,0,0:0:0:0:
298,192,10434,1,0,0:0:0:0:
402,192,10434,1,0,0:0:0:0:
475,192,10755,1,0,0:0:0:0:
42,192,10755,1,0,0:0:0:0:
128,192,10755,1,0,0:0:0:0:
402,192,10835,1,0,0:0:0:0:
329,192,10915,1,0,0:0:0:0:
213,192,10996,1,0,0:0:0:0:
469,192,11076,1,0,0:0:0:0:
128,192,11076,1,0,0:0:0:0:
384,192,11156,1,0,0:0:0:0:
256,192,11236,1,0,0:0:0:0:
182,192,11316,1,0,0:0:0:0:
469,192,11397,1,0,0:0:0:0:
42,192,11397,1,0,0:0:0:0:
128,192,11477,1,0,0:0:0:0:
213,192,11557,1,0,0:0:0:0:
298,192,11637,1,0,0:0:0:0:
384,192,11717,1,0,0:0:0:0:
42,192,11717,1,0,0:0:0:0:
128,192,11798,1,0,0:0:0:0:
213,192,11878,1,0,0:0:0:0:
329,192,11958,1,0,0:0:0:0:
469,192,12038,1,0,0:0:0:0:
42,192,12038,1,0,0:0:0:0:
384,192,12119,1,0,0:0:0:0:
298,192,12199,1,0,0:0:0:0:
213,192,12279,1,0,0:0:0:0:
42,192,12359,1,0,0:0:0:0:
469,192,12359,1,0,0:0:0:0:
128,192,12439,1,0,0:0:0:0:
213,192,12520,1,0,0:0:0:0:
298,192,12600,1,0,0:0:0:0:
469,192,12680,1,0,0:0:0:0:
42,192,12680,1,0,0:0:0:0:
384,192,12680,1,0,0:0:0:0:
128,192,12760,1,0,0:0:0:0:
213,192,12840,1,0,0:0:0:0:
298,192,12921,1,0,0:0:0:0:
42,192,13001,1,0,0:0:0:0:
384,192,13001,1,0,0:0:0:0:
128,192,13001,1,0,0:0:0:0:
213,192,13161,1,0,0:0:0:0:
469,192,13161,1,0,0:0:0:0:
298,192,13161,1,0,0:0:0:0:
128,192,13322,1,0,0:0:0:0:
42,192,13322,1,0,0:0:0:0:
329,192,13643,1,0,0:0:0:0:
475,192,13643,1,0,0:0:0:0:
36,192,13963,1,0,0:0:0:0:
36,192,14124,1,0,0:0:0:0:
329,192,14284,1,0,0:0:0:0:
475,192,14284,1,0,0:0:0:0:
128,192,14605,1,0,0:0:0:0:
329,192,14926,1,0,0:0:0:0:
475,192,14926,1,0,0:0:0:0:
36,192,15247,1,0,0:0:0:0:
36,192,15407,1,0,0:0:0:0:
329,192,15568,1,0,0:0:0:0:
475,192,15568,1,0,0:0:0:0:
128,192,15889,1,0,0:0:0:0:
475,192,16209,1,0,0:0:0:0:
329,192,16209,1,0,0:0:0:0:
42,192,16209,1,0,0:0:0:0:
182,192,16530,1,0,0:0:0:0:
128,192,16530,1,0,0:0:0:0:
213,192,16691,1,0,0:0:0:0:
256,192,16851,1,0,0:0:0:0:
475,192,16851,1,0,0:0:0:0:
329,192,17172,1,0,0:0:0:0:
109,192,17172,1,0,0:0:0:0:
182,192,17493,1,0,0:0:0:0:
36,192,17493,1,0,0:0:0:0:
128,192,17653,1,0,0:0:0:0:
475,192,17653,1,0,0:0:0:0:
329,192,17653,1,0,0:0:0:0:
36,192,17974,1,0,0:0:0:0:
128,192,18054,1,0,0:0:0:0:
213,192,18135,1,0,0:0:0:0:
475,192,18135,1,0,0:0:0:0:
128,192,18455,1,0,0:0:0:0:
298,192,18455,1,0,0:0:0:0:
182,192,18776,1,0,0:0:0:0:
36,192,18776,1,0,0:0:0:0:
475,192,19097,1,0,0:0:0:0:
475,192,19258,1,0,0:0:0:0:
182,192,19418,1,0,0:0:0:0:
36,192,19418,1,0,0:0:0:0:
384,192,19739,1,0,0:0:0:0:
182,192,20060,1,0,0:0:0:0:
42,192,20060,1,0,0:0:0:0:
475,192,20381,1,0,0:0:0:0:
475,192,20541,1,0,0:0:0:0:
182,192,20701,1,0,0:0:0:0:
36,192,20701,1,0,0:0:0:0:
475,192,21022,1,0,0:0:0:0:
475,192,21183,1,0,0:0:0:0:
42,192,21343,1,0,0:0:0:0:
298,192,21343,1,0,0:0:0:0:
42,192,21504,1,0,0:0:0:0:
213,192,21504,1,0,0:0:0:0:
128,192,21664,1,0,0:0:0:0:
298,192,21664,1,0,0:0:0:0:
475,192,21664,1,0,0:0:0:0:
402,192,21985,1,0,0:0:0:0:
213,192,21985,1,0,0:0:0:0:
128,192,21985,1,0,0:0:0:0:
329,192,22306,1,0,0:0:0:0:
182,192,22306,1,0,0:0:0:0:
36,192,22306,1,0,0:0:0:0:
469,192,22546,1,0,0:0:0:0:
402,192,22627,1,0,0:0:0:0:
256,192,22627,1,0,0:0:0:0:
109,192,22627,1,0,0:0:0:0:
182,192,22787,1,0,0:0:0:0:
36,192,22787,1,0,0:0:0:0:
384,192,22947,128,0,23108:0:0:0:0:
469,192,22947,1,0,0:0:0:0:
128,192,22947,1,0,0:0:0:0:
298,192,23108,128,0,23268:0:0:0:0:
42,192,23108,1,0,0:0:0:0:
213,192,23268,128,0,23429:0:0:0:0:
469,192,23268,1,0,0:0:0:0:
128,192,23429,128,0,23589:0:0:0:0:
384,192,23429,1,0,0:0:0:0:
36,192,23589,128,0,24231:0:0:0:0:
475,192,23589,1,0,0:0:0:0:
402,192,23910,1,0,0:0:0:0:
256,192,23910,1,0,0:0:0:0:
469,192,24231,128,0,24873:0:0:0:0:
109,192,24231,1,0,0:0:0:0:
182,192,24391,1,0,0:0:0:0:
256,192,24552,1,0,0:0:0:0:
384,192,24552,1,0,0:0:0:0:
298,192,24873,128,0,25514:0:0:0:0:
109,192,24873,1,0,0:0:0:0:
475,192,25193,1,0,0:0:0:0:
42,192,25193,1,0,0:0:0:0:
109,192,25514,128,0,26156:0:0:0:0:
402,192,25514,1,0,0:0:0:0:
329,192,25675,1,0,0:0:0:0:
469,192,25835,1,0,0:0:0:0:
36,192,25835,1,0,0:0:0:0:
36,192,26156,128,0,27439:0:0:0:0:
329,192,26156,1,0,0:0:0:0:
475,192,26477,1,0,0:0:0:0:
384,192,26477,1,0,0:0:0:0:
182,192,26798,1,0,0:0:0:0:
298,192,26958,1,0,0:0:0:0:
384,192,27119,1,0,0:0:0:0:
475,192,27119,1,0,0:0:0:0:
128,192,27439,1,0,0:0:0:0:
213,192,27439,1,0,0:0:0:0:
329,192,27760,1,0,0:0:0:0:
128,192,27760,1,0,0:0:0:0:
384,192,27760,1,0,0:0:0:0:
42,192,27921,1,0,0:0:0:0:
213,192,27921,1,0,0:0:0:0:
384,192,28081,1,0,0:0:0:0:
475,192,28081,1,0,0:0:0:0:
36,192,28242,1,0,0:0:0:0:
128,192,28242,1,0,0:0:0:0:
213,192,28322,1,0,0:0:0:0:
475,192,28402,1,0,0:0:0:0:
402,192,28402,1,0,0:0:0:0:
329,192,28482,1,0,0:0:0:0:
213,192,28562,1,0,0:0:0:0:
128,192,28562,1,0,0:0:0:0:
329,192,28723,1,0,0:0:0:0:
36,192,28723,128,0,29365:0:0:0:0:
475,192,28723,1,0,0:0:0:0:
402,192,29044,1,0,0:0:0:0:
256,192,29044,1,0,0:0:0:0:
298,192,29365,128,0,30006:0:0:0:0:
475,192,29365,1,0,0:0:0:0:
402,192,29525,1,0,0:0:0:0:
213,192,29685,1,0,0:0:0:0:
36,192,29685,1,0,0:0:0:0:
213,192,30006,128,0,31290:0:0:0:0:
109,192,30006,1,0,0:0:0:0:
475,192,30327,1,0,0:0:0:0:
384,192,30327,1,0,0:0:0:0:
36,192,30648,1,0,0:0:0:0:
109,192,30808,1,0,0:0:0:0:
298,192,30969,1,0,0:0:0:0:
475,192,30969,1,0,0:0:0:0:
384,192,31209,1,0,0:0:0:0:
36,192,31290,1,0,0:0:0:0:
475,192,31290,1,0,0:0:0:0:
109,192,31450,1,0,0:0:0:0:
298,192,31610,1,0,0:0:0:0:
402,192,31610,1,0,0:0:0:0:
213,192,31771,1,0,0:0:0:0:
384,192,31931,1,0,0:0:0:0:
109,192,31931,1,0,0:0:0:0:
475,192,31931,1,0,0:0:0:0:
182,192,32092,1,0,0:0:0:0:
128,192,32252,1,0,0:0:0:0:
36,192,32252,1,0,0:0:0:0:
329,192,32413,1,0,0:0:0:0:
402,192,32573,1,0,0:0:0:0:
182,192,32573,1,0,0:0:0:0:
109,192,32573,1,0,0:0:0:0:
475,192,32733,1,0,0:0:0:0:
42,192,32733,1,0,0:0:0:0:
384,192,32814,1,0,0:0:0:0:
128,192,32894,1,0,0:0:0:0:
298,192,32894,1,0,0:0:0:0:
213,192,33054,1,0,0:0:0:0:
42,192,33215,1,0,0:0:0:0:
109,192,33215,1,0,0:0:0:0:
384,192,33375,1,0,0:0:0:0:
469,192,33375,1,0,0:0:0:0:
109,192,33536,1,0,0:0:0:0:
213,192,33536,1,0,0:0:0:0:
329,192,33696,1,0,0:0:0:0:
384,192,33696,1,0,0:0:0:0:
213,192,33776,1,0,0:0:0:0:
36,192,33856,1,0,0:0:0:0:
475,192,33856,1,0,0:0:0:0:
128,192,33856,1,0,0:0:0:0:
384,192,34017,1,0,0:0:0:0:
256,192,34177,1,0,0:0:0:0:
213,192,34338,1,0,0:0:0:0:
475,192,34498,1,0,0:0:0:0:
298,192,34659,1,0,0:0:0:0:
182,192,34712,1,0,0:0:0:0:
128,192,34766,1,0,0:0:0:0:
42,192,34819,1,0,0:0:0:0:
329,192,34979,1,0,0:0:0:0:
475,192,35140,128,0,35621:0:0:0:0:
402,192,35140,1,0,0:0:0:0:
36,192,35300,1,0,0:0:0:0:
182,192,35461,1,0,0:0:0:0:
36,192,35621,1,0,0:0:0:0:
182,192,35782,128,0,36263:0:0:0:0:
475,192,35782,1,0,0:0:0:0:
256,192,35942,1,0,0:0:0:0:
384,192,36102,1,0,0:0:0:0:
256,192,36263,1,0,0:0:0:0:
475,192,36423,1,0,0:0:0:0:
128,192,36423,1,0,0:0:0:0:
182,192,36584,1,0,0:0:0:0:
402,192,36744,1,0,0:0:0:0:
256,192,36744,1,0,0:0:0:0:
42,192,36905,1,0,0:0:0:0:
128,192,37065,1,0,0:0:0:0:
182,192,37065,1,0,0:0:0:0:
469,192,37225,1,0,0:0:0:0:
256,192,37386,1,0,0:0:0:0:
384,192,37386,1,0,0:0:0:0:
128,192,37546,1,0,0:0:0:0:
213,192,37707,1,0,0:0:0:0:
469,192,37867,128,0,38028:0:0:0:0:
42,192,37867,1,0,0:0:0:0:
384,192,38028,128,0,38188:0:0:0:0:
109,192,38028,1,0,0:0:0:0:
298,192,38188,128,0,38348:0:0:0:0:
213,192,38188,1,0,0:0:0:0:
469,192,38348,128,0,38509:0:0:0:0:
128,192,38348,1,0,0:0:0:0:
384,192,38509,128,0,38669:0:0:0:0:
36,192,38509,1,0,0:0:0:0:
469,192,38669,128,0,38830:0:0:0:0:
109,192,38669,1,0,0:0:0:0:
182,192,38830,1,0,0:0:0:0:
42,192,38830,1,0,0:0:0:0:
298,192,38830,128,0,38990:0:0:0:0:
402,192,38990,128,0,39632:0:0:0:0:
469,192,38990,1,0,0:0:0:0:
109,192,38990,1,0,0:0:0:0:
36,192,39151,1,0,0:0:0:0:
213,192,39311,1,0,0:0:0:0:
128,192,39471,1,0,0:0:0:0:
298,192,39632,128,0,40274:0:0:0:0:
475,192,39632,1,0,0:0:0:0:
42,192,39632,1,0,0:0:0:0:
182,192,39792,1,0,0:0:0:0:
128,192,39953,1,0,0:0:0:0:
213,192,40113,1,0,0:0:0:0:
475,192,40274,128,0,40915:0:0:0:0:
36,192,40274,1,0,0:0:0:0:
384,192,40274,1,0,0:0:0:0:
109,192,40434,1,0,0:0:0:0:
182,192,40594,1,0,0:0:0:0:
256,192,40755,1,0,0:0:0:0:
213,192,40915,128,0,41397:0:0:0:0:
128,192,40915,1,0,0:0:0:0:
256,192,41076,1,0,0:0:0:0:
42,192,41397,128,0,41878:0:0:0:0:
469,192,41397,128,0,41878:0:0:0:0:
384,192,41397,1,0,0:0:0:0:
128,192,41397,1,0,0:0:0:0:
182,192,41878,1,0,0:0:0:0:
384,192,41878,1,0,0:0:0:0:
384,192,42199,1,0,0:0:0:0:
128,192,42199,1,0,0:0:0:0:
298,192,42199,1,0,0:0:0:0:
475,192,42520,1,0,0:0:0:0:
329,192,42520,1,0,0:0:0:0:
182,192,42520,1,0,0:0:0:0:
402,192,42680,128,0,43161:0:0:0:0:
109,192,42680,128,0,43161:0:0:0:0:
42,192,42680,1,0,0:0:0:0:
298,192,43161,1,0,0:0:0:0:
36,192,43161,1,0,0:0:0:0:
36,192,43482,1,0,0:0:0:0:
182,192,43482,1,0,0:0:0:0:
329,192,43482,1,0,0:0:0:0:
384,192,43643,1,0,0:0:0:0:
329,192,43803,1,0,0:0:0:0:
469,192,43803,1,0,0:0:0:0:
128,192,43803,1,0,0:0:0:0:
128,192,44124,1,0,0:0:0:0:
213,192,44124,128,0,44605:0:0:0:0:
469,192,44124,128,0,44605:0:0:0:0:
384,192,44124,1,0,0:0:0:0:
36,192,44445,1,0,0:0:0:0:
298,192,44445,1,0,0:0:0:0:
128,192,44605,1,0,0:0:0:0:
384,192,44605,1,0,0:0:0:0:
298,192,44766,1,0,0:0:0:0:
42,192,44766,1,0,0:0:0:0:
384,192,44926,1,0,0:0:0:0:
469,192,44926,1,0,0:0:0:0:
182,192,45086,1,0,0:0:0:0:
109,192,45247,1,0,0:0:0:0:
402,192,45247,1,0,0:0:0:0:
36,192,45247,128,0,45728:0:0:0:0:
298,192,45247,128,0,45728:0:0:0:0:
402,192,45568,1,0,0:0:0:0:
475,192,45728,1,0,0:0:0:0:
182,192,45728,1,0,0:0:0:0:
128,192,45889,1,0,0:0:0:0:
402,192,45889,1,0,0:0:0:0:
475,192,45889,128,0,46691:0:0:0:0:
36,192,46049,1,0,0:0:0:0:
298,192,46049,1,0,0:0:0:0:
213,192,46209,1,0,0:0:0:0:
36,192,46370,1,0,0:0:0:0:
128,192,46370,1,0,0:0:0:0:
402,192,46691,1,0,0:0:0:0:
182,192,46691,1,0,0:0:0:0:
42,192,46691,1,0,0:0:0:0:
329,192,47012,1,0,0:0:0:0:
109,192,47012,1,0,0:0:0:0:
256,192,47332,1,0,0:0:0:0:
36,192,47332,1,0,0:0:0:0:
475,192,47332,128,0,49258:0:0:0:0:
384,192,47332,1,0,0:0:0:0:
182,192,47493,1,0,0:0:0:0:
109,192,47653,1,0,0:0:0:0:
36,192,47653,1,0,0:0:0:0:
402,192,47974,128,0,49258:0:0:0:0:
36,192,47974,1,0,0:0:0:0:
298,192,47974,1,0,0:0:0:0:
182,192,48135,1,0,0:0:0:0:
329,192,48295,1,0,0:0:0:0:
109,192,48295,1,0,0:0:0:0:
213,192,48616,1,0,0:0:0:0:
109,192,48776,1,0,0:0:0:0:
36,192,48937,1,0,0:0:0:0:
298,192,48937,1,0,0:0:0:0:
36,192,49258,1,0,0:0:0:0:
182,192,49258,1,0,0:0:0:0:
36,192,49418,1,0,0:0:0:0:
182,192,49418,1,0,0:0:0:0:
109,192,49578,1,0,0:0:0:0:
256,192,49578,1,0,0:0:0:0:
109,192,49739,1,0,0:0:0:0:
329,192,49739,1,0,0:0:0:0:
213,192,49899,1,0,0:0:0:0:
475,192,49899,1,0,0:0:0:0:
213,192,50060,1,0,0:0:0:0:
475,192,50060,1,0,0:0:0:0:
128,192,50220,1,0,0:0:0:0:
384,192,50220,1,0,0:0:0:0:
128,192,50381,1,0,0:0:0:0:
402,192,50381,1,0,0:0:0:0:
475,192,50701,1,0,0:0:0:0:
329,192,50701,1,0,0:0:0:0:
182,192,50701,1,0,0:0:0:0:
42,192,50701,1,0,0:0:0:0:
475,192,51022,1,0,0:0:0:0:
329,192,51022,1,0,0:0:0:0:
182,192,51022,1,0,0:0:0:0:
42,192,51022,1,0,0:0:0:0:
42,192,51343,128,0,51824:0:0:0:0:
469,192,51343,128,0,51824:0:0:0:0:
329,192,51504,1,0,0:0:0:0:
182,192,51584,1,0,0:0:0:0:
329,192,51664,1,0,0:0:0:0:
182,192,51744,1,0,0:0:0:0:
128,192,51824,1,0,0:0:0:0:
329,192,51824,1,0,0:0:0:0:
384,192,51824,1,0,0:0:0:0:
329,192,52145,1,0,0:0:0:0:
182,192,52145,1,0,0:0:0:0:
42,192,52145,1,0,0:0:0:0:
475,192,52466,1,0,0:0:0:0:
402,192,52627,1,0,0:0:0:0:
329,192,52787,1,0,0:0:0:0:
182,192,52787,1,0,0:0:0:0:
384,192,52947,1,0,0:0:0:0:
109,192,52947,1,0,0:0:0:0:
36,192,52947,1,0,0:0:0:0:
182,192,53268,1,0,0:0:0:0:
475,192,53429,1,0,0:0:0:0:
329,192,53429,1,0,0:0:0:0:
109,192,53750,1,0,0:0:0:0:
182,192,53910,1,0,0:0:0:0:
256,192,54070,1,0,0:0:0:0:
402,192,54070,1,0,0:0:0:0:
213,192,54231,1,0,0:0:0:0:
475,192,54231,1,0,0:0:0:0:
109,192,54231,1,0,0:0:0:0:
36,192,54231,128,0,54873:0:0:0:0:
402,192,54712,1,0,0:0:0:0:
256,192,54712,1,0,0:0:0:0:
109,192,54873,1,0,0:0:0:0:
182,192,54913,1,0,0:0:0:0:
256,192,54953,1,0,0:0:0:0:
402,192,54993,1,0,0:0:0:0:
475,192,55033,128,0,55675:0:0:0:0:
128,192,55033,1,0,0:0:0:0:
36,192,55193,1,0,0:0:0:0:
109,192,55354,1,0,0:0:0:0:
256,192,55354,1,0,0:0:0:0:
109,192,55675,128,0,55835:0:0:0:0:
402,192,55675,1,0,0:0:0:0:
42,192,55675,1,0,0:0:0:0:
298,192,55835,128,0,55996:0:0:0:0:
213,192,55996,128,0,56156:0:0:0:0:
475,192,55996,1,0,0:0:0:0:
329,192,56156,128,0,56316:0:0:0:0:
109,192,56316,1,0,0:0:0:0:
42,192,56316,128,0,56477:0:0:0:0:
402,192,56477,128,0,56637:0:0:0:0:
213,192,56477,1,0,0:0:0:0:
469,192,56637,128,0,56798:0:0:0:0:
128,192,56637,1,0,0:0:0:0:
384,192,56798,128,0,56958:0:0:0:0:
36,192,56798,1,0,0:0:0:0:
109,192,56838,1,0,0:0:0:0:
182,192,56878,1,0,0:0:0:0:
256,192,56918,1,0,0:0:0:0:
42,192,56958,128,0,58242:0:0:0:0:
475,192,57279,1,0,0:0:0:0:
384,192,57279,1,0,0:0:0:0:
213,192,57279,1,0,0:0:0:0:
298,192,57600,1,0,0:0:0:0:
384,192,57760,1,0,0:0:0:0:
475,192,57921,1,0,0:0:0:0:
213,192,57921,1,0,0:0:0:0:
298,192,57921,1,0,0:0:0:0:
109,192,58242,128,0,59525:0:0:0:0:
475,192,58242,1,0,0:0:0:0:
384,192,58242,1,0,0:0:0:0:
298,192,58402,1,0,0:0:0:0:
475,192,58562,1,0,0:0:0:0:
213,192,58562,1,0,0:0:0:0:
384,192,58562,1,0,0:0:0:0:
298,192,58883,1,0,0:0:0:0:
384,192,59044,1,0,0:0:0:0:
298,192,59204,1,0,0:0:0:0:
469,192,59204,1,0,0:0:0:0:
213,192,59204,1,0,0:0:0:0:
182,192,59525,128,0,59846:0:0:0:0:
475,192,59525,1,0,0:0:0:0:
36,192,59525,1,0,0:0:0:0:
384,192,59525,1,0,0:0:0:0:
469,192,59846,128,0,60167:0:0:0:0:
298,192,59846,1,0,0:0:0:0:
128,192,59846,1,0,0:0:0:0:
384,192,60167,128,0,60488:0:0:0:0:
36,192,60167,1,0,0:0:0:0:
109,192,60327,1,0,0:0:0:0:
298,192,60488,128,0,60648:0:0:0:0:
475,192,60488,1,0,0:0:0:0:
182,192,60488,1,0,0:0:0:0:
475,192,60648,128,0,60969:0:0:0:0:
128,192,60648,1,0,0:0:0:0:
36,192,60648,1,0,0:0:0:0:
402,192,60969,128,0,61209:0:0:0:0:
182,192,60969,1,0,0:0:0:0:
36,192,60969,1,0,0:0:0:0:
128,192,61129,1,0,0:0:0:0:
213,192,61290,1,0,0:0:0:0:
128,192,61370,1,0,0:0:0:0:
469,192,61450,1,0,0:0:0:0:
42,192,61450,1,0,0:0:0:0:
298,192,61450,1,0,0:0:0:0:
469,192,61610,1,0,0:0:0:0:
42,192,61610,1,0,0:0:0:0:
298,192,61610,1,0,0:0:0:0:
128,192,61851,1,0,0:0:0:0:
213,192,61931,1,0,0:0:0:0:
298,192,62012,1,0,0:0:0:0:
42,192,62092,1,0,0:0:0:0:
469,192,62092,128,0,63375:0:0:0:0:
384,192,62092,1,0,0:0:0:0:
128,192,62092,1,0,0:0:0:0:
298,192,62413,1,0,0:0:0:0:
182,192,62413,1,0,0:0:0:0:
384,192,62413,1,0,0:0:0:0:
36,192,62733,1,0,0:0:0:0:
128,192,62733,1,0,0:0:0:0:
298,192,62733,1,0,0:0:0:0:
213,192,62894,1,0,0:0:0:0:
36,192,63054,1,0,0:0:0:0:
298,192,63054,1,0,0:0:0:0:
384,192,63054,1,0,0:0:0:0:
109,192,63215,1,0,0:0:0:0:
182,192,63375,128,0,64659:0:0:0:0:
36,192,63375,1,0,0:0:0:0:
384,192,63375,1,0,0:0:0:0:
36,192,63696,1,0,0:0:0:0:
475,192,63696,1,0,0:0:0:0:
384,192,63696,1,0,0:0:0:0:
109,192,63856,1,0,0:0:0:0:
36,192,64017,1,0,0:0:0:0:
384,192,64017,1,0,0:0:0:0:
298,192,64017,1,0,0:0:0:0:
469,192,64177,1,0,0:0:0:0:
36,192,64338,1,0,0:0:0:0:
298,192,64338,1,0,0:0:0:0:
384,192,64338,1,0,0:0:0:0:
128,192,64498,1,0,0:0:0:0:
475,192,64659,128,0,65942:0:0:0:0:
36,192,64659,1,0,0:0:0:0:
329,192,64659,1,0,0:0:0:0:
182,192,64979,1,0,0:0:0:0:
298,192,64979,1,0,0:0:0:0:
42,192,64979,1,0,0:0:0:0:
128,192,65140,1,0,0:0:0:0:
213,192,65300,1,0,0:0:0:0:
384,192,65300,1,0,0:0:0:0:
298,192,65300,1,0,0:0:0:0:
36,192,65461,1,0,0:0:0:0:
109,192,65621,1,0,0:0:0:0:
298,192,65621,1,0,0:0:0:0:
384,192,65621,1,0,0:0:0:0:
182,192,65782,1,0,0:0:0:0:
36,192,65942,128,0,66263:0:0:0:0:
329,192,65942,1,0,0:0:0:0:
128,192,65942,1,0,0:0:0:0:
384,192,66263,128,0,66744:0:0:0:0:
329,192,66263,1,0,0:0:0:0:
213,192,66263,1,0,0:0:0:0:
128,192,66423,1,0,0:0:0:0:
475,192,66584,1,0,0:0:0:0:
213,192,66584,1,0,0:0:0:0:
42,192,66744,128,0,67225:0:0:0:0:
298,192,66744,1,0,0:0:0:0:
128,192,66905,1,0,0:0:0:0:
213,192,66905,1,0,0:0:0:0:
402,192,66985,1,0,0:0:0:0:
298,192,67065,1,0,0:0:0:0:
213,192,67145,1,0,0:0:0:0:
128,192,67225,1,0,0:0:0:0:
384,192,67225,1,0,0:0:0:0:
475,192,67225,1,0,0:0:0:0:
298,192,67386,1,0,0:0:0:0:
182,192,67386,1,0,0:0:0:0:
42,192,67546,1,0,0:0:0:0:
384,192,67546,1,0,0:0:0:0:
109,192,67546,1,0,0:0:0:0:
213,192,67867,1,0,0:0:0:0:
469,192,67867,1,0,0:0:0:0:
109,192,68028,1,0,0:0:0:0:
384,192,68028,1,0,0:0:0:0:
213,192,68188,1,0,0:0:0:0:
42,192,68188,1,0,0:0:0:0:
298,192,68188,1,0,0:0:0:0:
384,192,68509,1,0,0:0:0:0:
128,192,68509,1,0,0:0:0:0:
298,192,68509,1,0,0:0:0:0:
469,192,68669,1,0,0:0:0:0:
213,192,68669,1,0,0:0:0:0:
402,192,68830,1,0,0:0:0:0:
128,192,68830,1,0,0:0:0:0:
42,192,68830,1,0,0:0:0:0:
182,192,69151,1,0,0:0:0:0:
384,192,69151,1,0,0:0:0:0:
469,192,69151,1,0,0:0:0:0:
128,192,69311,1,0,0:0:0:0:
298,192,69311,1,0,0:0:0:0:
475,192,69471,1,0,0:0:0:0:
42,192,69471,1,0,0:0:0:0:
213,192,69471,1,0,0:0:0:0:
384,192,69792,1,0,0:0:0:0:
36,192,69792,1,0,0:0:0:0:
329,192,69792,1,0,0:0:0:0:
182,192,69953,1,0,0:0:0:0:
109,192,70113,1,0,0:0:0:0:
256,192,70113,1,0,0:0:0:0:
402,192,70113,1,0,0:0:0:0:
475,192,70274,1,0,0:0:0:0:
182,192,70434,1,0,0:0:0:0:
384,192,70434,1,0,0:0:0:0:
42,192,70434,1,0,0:0:0:0:
256,192,70594,1,0,0:0:0:0:
109,192,70755,1,0,0:0:0:0:
475,192,70755,1,0,0:0:0:0:
42,192,70755,1,0,0:0:0:0:
213,192,70915,1,0,0:0:0:0:
402,192,70915,1,0,0:0:0:0:
36,192,71076,1,0,0:0:0:0:
475,192,71076,1,0,0:0:0:0:
256,192,71076,1,0,0:0:0:0:
36,192,71236,1,0,0:0:0:0:
475,192,71236,1,0,0:0:0:0:
256,192,71236,1,0,0:0:0:0:
36,192,71717,1,0,0:0:0:0:
213,192,71717,1,0,0:0:0:0:
475,192,71717,1,0,0:0:0:0:
36,192,71878,1,0,0:0:0:0:
475,192,71878,1,0,0:0:0:0:
213,192,71878,1,0,0:0:0:0:
256,192,72359,1,0,0:0:0:0:
36,192,72359,128,0,72680:0:0:0:0:
469,192,72359,1,0,0:0:0:0:
384,192,72359,1,0,0:0:0:0:
213,192,72680,1,0,0:0:0:0:
469,192,72680,1,0,0:0:0:0:
109,192,72680,1,0,0:0:0:0:
402,192,72840,1,0,0:0:0:0:
298,192,72840,1,0,0:0:0:0:
402,192,73161,1,0,0:0:0:0:
182,192,73161,1,0,0:0:0:0:
42,192,73161,1,0,0:0:0:0:
469,192,73482,128,0,74926:0:0:0:0:
128,192,73482,1,0,0:0:0:0:
298,192,73482,1,0,0:0:0:0:
384,192,73803,1,0,0:0:0:0:
36,192,73963,1,0,0:0:0:0:
182,192,73963,1,0,0:0:0:0:
298,192,74124,1,0,0:0:0:0:
36,192,74284,1,0,0:0:0:0:
182,192,74284,1,0,0:0:0:0:
384,192,74445,1,0,0:0:0:0:
36,192,74605,1,0,0:0:0:0:
182,192,74605,1,0,0:0:0:0:
298,192,74766,1,0,0:0:0:0:
384,192,74926,1,0,0:0:0:0:
213,192,74926,1,0,0:0:0:0:
109,192,74926,1,0,0:0:0:0:
298,192,75006,1,0,0:0:0:0:
213,192,75086,1,0,0:0:0:0:
42,192,75167,1,0,0:0:0:0:
128,192,75167,1,0,0:0:0:0:
298,192,75247,1,0,0:0:0:0:
213,192,75327,1,0,0:0:0:0:
469,192,75407,1,0,0:0:0:0:
384,192,75407,1,0,0:0:0:0:
42,192,75488,1,0,0:0:0:0:
128,192,75528,1,0,0:0:0:0:
213,192,75568,1,0,0:0:0:0:
298,192,75608,1,0,0:0:0:0:
384,192,75648,1,0,0:0:0:0:
469,192,75688,1,0,0:0:0:0:
128,192,75768,1,0,0:0:0:0:
213,192,75808,1,0,0:0:0:0:
298,192,75848,1,0,0:0:0:0:
384,192,75889,1,0,0:0:0:0:
42,192,75929,1,0,0:0:0:0:
128,192,75969,1,0,0:0:0:0:
213,192,76009,1,0,0:0:0:0:
469,192,76049,1,0,0:0:0:0:
384,192,76089,1,0,0:0:0:0:
298,192,76129,1,0,0:0:0:0:
213,192,76169,1,0,0:0:0:0:
42,192,76209,1,0,0:0:0:0:
469,192,76209,1,0,0:0:0:0:
128,192,76209,1,0,0:0:0:0:
109,192,76771,1,0,0:0:0:0:
213,192,76811,1,0,0:0:0:0:
475,192,76851,1,0,0:0:0:0:
298,192,76851,1,0,0:0:0:0:
475,192,77172,128,0,77493:0:0:0:0:
36,192,77172,1,0,0:0:0:0:
109,192,77332,1,0,0:0:0:0:
182,192,77413,1,0,0:0:0:0:
36,192,77493,128,0,77814:0:0:0:0:
256,192,77493,1,0,0:0:0:0:
384,192,77493,1,0,0:0:0:0:
182,192,77814,128,0,78135:0:0:0:0:
329,192,77814,1,0,0:0:0:0:
475,192,77814,1,0,0:0:0:0:
329,192,78135,128,0,78455:0:0:0:0:
36,192,78135,1,0,0:0:0:0:
109,192,78295,1,0,0:0:0:0:
182,192,78455,1,0,0:0:0:0:
475,192,78455,1,0,0:0:0:0:
256,192,78696,1,0,0:0:0:0:
213,192,78736,1,0,0:0:0:0:
402,192,78776,128,0,79097:0:0:0:0:
109,192,78776,1,0,0:0:0:0:
256,192,79097,128,0,79258:0:0:0:0:
469,192,79097,1,0,0:0:0:0:
36,192,79097,1,0,0:0:0:0:
109,192,79258,128,0,79418:0:0:0:0:
213,192,79258,1,0,0:0:0:0:
36,192,79578,128,0,80060:0:0:0:0:
329,192,79578,1,0,0:0:0:0:
402,192,79739,1,0,0:0:0:0:
182,192,79739,1,0,0:0:0:0:
109,192,80060,128,0,80381:0:0:0:0:
256,192,80060,1,0,0:0:0:0:
182,192,80381,128,0,80701:0:0:0:0:
475,192,80381,1,0,0:0:0:0:
384,192,80381,1,0,0:0:0:0:
298,192,80701,128,0,81022:0:0:0:0:
475,192,80701,1,0,0:0:0:0:
42,192,80701,1,0,0:0:0:0:
128,192,80862,1,0,0:0:0:0:
42,192,81022,1,0,0:0:0:0:
329,192,81263,1,0,0:0:0:0:
402,192,81303,1,0,0:0:0:0:
475,192,81343,128,0,81664:0:0:0:0:
128,192,81343,1,0,0:0:0:0:
402,192,81664,128,0,81824:0:0:0:0:
256,192,81664,1,0,0:0:0:0:
42,192,81664,1,0,0:0:0:0:
128,192,81824,128,0,81985:0:0:0:0:
182,192,81824,1,0,0:0:0:0:
36,192,82145,128,0,82627:0:0:0:0:
256,192,82145,1,0,0:0:0:0:
213,192,82306,1,0,0:0:0:0:
475,192,82306,1,0,0:0:0:0:
109,192,82627,128,0,82947:0:0:0:0:
402,192,82627,1,0,0:0:0:0:
182,192,82947,128,0,83108:0:0:0:0:
36,192,82947,1,0,0:0:0:0:
298,192,82947,1,0,0:0:0:0:
109,192,83108,1,0,0:0:0:0:
384,192,83108,1,0,0:0:0:0:
469,192,83108,1,0,0:0:0:0:
42,192,83429,1,0,0:0:0:0:
384,192,83429,1,0,0:0:0:0:
298,192,83429,1,0,0:0:0:0:
384,192,83750,128,0,85193:0:0:0:0:
469,192,83750,1,0,0:0:0:0:
42,192,83750,1,0,0:0:0:0:
128,192,83750,1,0,0:0:0:0:
298,192,84070,1,0,0:0:0:0:
213,192,84070,1,0,0:0:0:0:
36,192,84231,1,0,0:0:0:0:
128,192,84231,1,0,0:0:0:0:
298,192,84391,1,0,0:0:0:0:
213,192,84391,1,0,0:0:0:0:
36,192,84552,1,0,0:0:0:0:
128,192,84552,1,0,0:0:0:0:
298,192,84712,1,0,0:0:0:0:
213,192,84712,1,0,0:0:0:0:
36,192,84873,1,0,0:0:0:0:
128,192,84873,1,0,0:0:0:0:
213,192,85033,1,0,0:0:0:0:
298,192,85033,1,0,0:0:0:0:
469,192,85193,128,0,87760:0:0:0:0:
42,192,85193,128,0,87760:0:0:0:0:
128,192,85193,1,0,0:0:0:0:
