osu file format v14

[General]
AudioFilename: Univer Page.mp3
AudioLeadIn: 0
PreviewTime: 51824
Countdown: 0
SampleSet: None
StackLeniency: 0.7
Mode: 3
LetterboxInBreaks: 0
SpecialStyle: 0
WidescreenStoryboard: 1

[Editor]
DistanceSpacing: 0.3
BeatDivisor: 4
GridSize: 4
TimelineZoom: 2

[Metadata]
Title:Univer Page (TV Size)
TitleUnicode:ユニバーページ (TV Size)
Artist:Mimori Suzuko
ArtistUnicode:三森すずこ
Creator:HXJ_Crafter
Version:Easy
Source:Outbreak Company
Tags:アウトブレイク・カンパニー opening
BeatmapID:1405668
BeatmapSetID:664159

[Difficulty]
HPDrainRate:8
CircleSize:6
OverallDifficulty:5
ApproachRate:5
SliderMultiplier:1.4
SliderTickRate:1

[Events]
//Background and Video events
0,0,"Outbreak-Company.png",0,0
//Break Periods
//Storyboard Layer 0 (Background)
//Storyboard Layer 1 (Fail)
//Storyboard Layer 2 (Pass)
//Storyboard Layer 3 (Foreground)
//Storyboard Sound Samples

[TimingPoints]
488,320.855614973262,4,2,2,30,1,0
3054,-100,4,2,2,49,0,0
51824,-100,4,2,2,45,0,0
71075,-100,4,2,2,45,0,0

[HitObjects]
42,192,488,5,0,0:0:0:0:
298,192,1129,1,0,0:0:0:0:
213,192,1610,1,0,0:0:0:0:
469,192,2092,1,0,0:0:0:0:
128,192,2573,1,0,0:0:0:0:
298,192,3054,128,0,3696:0:0:0:0:
42,192,3375,1,0,0:0:0:0:
469,192,3696,128,0,4338:0:0:0:0:
213,192,4017,1,0,0:0:0:0:
42,192,4338,128,0,5300:0:0:0:0:
384,192,4659,1,0,0:0:0:0:
298,192,4979,1,0,0:0:0:0:
469,192,5300,1,0,0:0:0:0:
213,192,5621,1,0,0:0:0:0:
384,192,5942,1,0,0:0:0:0:
128,192,6263,1,0,0:0:0:0:
469,192,6584,1,0,0:0:0:0:
42,192,6905,1,0,0:0:0:0:
298,192,7225,1,0,0:0:0:0:
128,192,7546,1,0,0:0:0:0:
384,192,7867,1,0,0:0:0:0:
213,192,8188,128,0,8830:0:0:0:0:
469,192,8509,1,0,0:0:0:0:
384,192,8830,128,0,9471:0:0:0:0:
42,192,9151,1,0,0:0:0:0:
128,192,9471,128,0,10434:0:0:0:0:
469,192,9792,1,0,0:0:0:0:
384,192,10113,1,0,0:0:0:0:
298,192,10434,1,0,0:0:0:0:
42,192,10755,1,0,0:0:0:0:
213,192,10755,1,0,0:0:0:0:
298,192,12038,1,0,0:0:0:0:
469,192,12038,1,0,0:0:0:0:
128,192,13322,1,0,0:0:0:0:
469,192,13643,1,0,0:0:0:0:
42,192,13963,1,0,0:0:0:0:
469,192,14284,1,0,0:0:0:0:
298,192,14605,1,0,0:0:0:0:
469,192,14926,1,0,0:0:0:0:
128,192,15247,1,0,0:0:0:0:
469,192,15568,1,0,0:0:0:0:
42,192,15889,1,0,0:0:0:0:
469,192,16209,1,0,0:0:0:0:
213,192,16530,1,0,0:0:0:0:
384,192,16851,1,0,0:0:0:0:
128,192,17172,1,0,0:0:0:0:
298,192,17493,1,0,0:0:0:0:
469,192,17653,1,0,0:0:0:0:
128,192,18135,1,0,0:0:0:0:
384,192,18455,1,0,0:0:0:0:
42,192,18776,1,0,0:0:0:0:
469,192,19097,1,0,0:0:0:0:
42,192,19418,1,0,0:0:0:0:
384,192,19739,1,0,0:0:0:0:
42,192,20060,1,0,0:0:0:0:
213,192,20381,1,0,0:0:0:0:
42,192,20701,1,0,0:0:0:0:
469,192,21022,1,0,0:0:0:0:
42,192,21343,1,0,0:0:0:0:
298,192,21664,1,0,0:0:0:0:
128,192,21985,1,0,0:0:0:0:
384,192,22306,1,0,0:0:0:0:
42,192,22627,1,0,0:0:0:0:
469,192,22947,1,0,0:0:0:0:
298,192,23268,1,0,0:0:0:0:
128,192,23589,128,0,24231:0:0:0:0:
384,192,23910,1,0,0:0:0:0:
469,192,24231,128,0,24873:0:0:0:0:
42,192,24552,1,0,0:0:0:0:
213,192,24873,128,0,25514:0:0:0:0:
384,192,25193,1,0,0:0:0:0:
42,192,25514,128,0,26156:0:0:0:0:
298,192,25835,1,0,0:0:0:0:
469,192,26156,128,0,27439:0:0:0:0:
213,192,26477,1,0,0:0:0:0:
128,192,26798,1,0,0:0:0:0:
298,192,27119,1,0,0:0:0:0:
42,192,27439,1,0,0:0:0:0:
384,192,27760,1,0,0:0:0:0:
128,192,28081,1,0,0:0:0:0:
469,192,28402,1,0,0:0:0:0:
42,192,28723,128,0,29365:0:0:0:0:
213,192,29044,1,0,0:0:0:0:
469,192,29365,128,0,30006:0:0:0:0:
298,192,29685,1,0,0:0:0:0:
128,192,30006,128,0,30969:0:0:0:0:
384,192,30327,1,0,0:0:0:0:
298,192,30648,1,0,0:0:0:0:
384,192,30969,1,0,0:0:0:0:
213,192,31290,1,0,0:0:0:0:
469,192,31290,1,0,0:0:0:0:
128,192,31931,1,0,0:0:0:0:
384,192,31931,1,0,0:0:0:0:
298,192,32573,1,0,0:0:0:0:
42,192,32573,128,0,33536:0:0:0:0:
128,192,33856,1,0,0:0:0:0:
384,192,33856,1,0,0:0:0:0:
469,192,34498,1,0,0:0:0:0:
298,192,34498,1,0,0:0:0:0:
42,192,35140,1,0,0:0:0:0:
384,192,35140,1,0,0:0:0:0:
213,192,35782,1,0,0:0:0:0:
469,192,35782,1,0,0:0:0:0:
384,192,36423,1,0,0:0:0:0:
128,192,36423,1,0,0:0:0:0:
213,192,37065,1,0,0:0:0:0:
42,192,37065,1,0,0:0:0:0:
213,192,37707,1,0,0:0:0:0:
469,192,37707,128,0,38990:0:0:0:0:
128,192,38348,1,0,0:0:0:0:
42,192,38990,1,0,0:0:0:0:
298,192,38990,1,0,0:0:0:0:
213,192,39632,1,0,0:0:0:0:
469,192,39632,1,0,0:0:0:0:
298,192,40274,1,0,0:0:0:0:
128,192,40274,1,0,0:0:0:0:
213,192,40915,1,0,0:0:0:0:
384,192,40915,1,0,0:0:0:0:
469,192,41397,128,0,41878:0:0:0:0:
128,192,41397,128,0,41878:0:0:0:0:
42,192,42680,128,0,43161:0:0:0:0:
384,192,42680,128,0,43161:0:0:0:0:
213,192,44124,128,0,44605:0:0:0:0:
469,192,44124,128,0,44605:0:0:0:0:
298,192,45247,128,0,45728:0:0:0:0:
42,192,45247,128,0,45728:0:0:0:0:
128,192,46049,1,0,0:0:0:0:
298,192,46370,1,0,0:0:0:0:
469,192,46691,1,0,0:0:0:0:
213,192,47012,1,0,0:0:0:0:
469,192,47332,128,0,49258:0:0:0:0:
213,192,47653,1,0,0:0:0:0:
384,192,47974,128,0,49258:0:0:0:0:
128,192,48295,1,0,0:0:0:0:
298,192,48616,128,0,49258:0:0:0:0:
42,192,48937,1,0,0:0:0:0:
128,192,49258,1,0,0:0:0:0:
213,192,49578,1,0,0:0:0:0:
298,192,49899,1,0,0:0:0:0:
384,192,50220,1,0,0:0:0:0:
213,192,50701,1,0,0:0:0:0:
469,192,50701,1,0,0:0:0:0:
384,192,51022,1,0,0:0:0:0:
128,192,51022,1,0,0:0:0:0:
42,192,51343,128,0,51824:0:0:0:0:
298,192,51343,128,0,51824:0:0:0:0:
469,192,51824,1,0,0:0:0:0:
213,192,52145,1,0,0:0:0:0:
42,192,52466,1,0,0:0:0:0:
298,192,52787,1,0,0:0:0:0:
469,192,52947,128,0,53429:0:0:0:0:
128,192,53429,1,0,0:0:0:0:
384,192,53750,1,0,0:0:0:0:
213,192,54070,1,0,0:0:0:0:
42,192,54231,128,0,54873:0:0:0:0:
384,192,55033,128,0,55675:0:0:0:0:
213,192,55354,1,0,0:0:0:0:
128,192,55675,128,0,56316:0:0:0:0:
298,192,55996,1,0,0:0:0:0:
469,192,56316,128,0,56958:0:0:0:0:
213,192,56637,1,0,0:0:0:0:
42,192,56958,128,0,58242:0:0:0:0:
384,192,57279,1,0,0:0:0:0:
213,192,57600,1,0,0:0:0:0:
298,192,57921,1,0,0:0:0:0:
469,192,58242,128,0,59525:0:0:0:0:
298,192,58562,1,0,0:0:0:0:
128,192,58883,1,0,0:0:0:0:
213,192,59204,1,0,0:0:0:0:
42,192,59525,1,0,0:0:0:0:
298,192,59846,1,0,0:0:0:0:
469,192,60167,1,0,0:0:0:0:
128,192,60488,1,0,0:0:0:0:
384,192,60648,1,0,0:0:0:0:
213,192,60969,1,0,0:0:0:0:
298,192,61290,1,0,0:0:0:0:
128,192,61450,1,0,0:0:0:0:
384,192,61610,1,0,0:0:0:0:
42,192,62092,1,0,0:0:0:0:
469,192,62092,1,0,0:0:0:0:
213,192,62413,1,0,0:0:0:0:
384,192,62733,1,0,0:0:0:0:
298,192,63054,1,0,0:0:0:0:
469,192,63375,1,0,0:0:0:0:
128,192,63375,1,0,0:0:0:0:
213,192,63696,1,0,0:0:0:0:
384,192,64017,1,0,0:0:0:0:
128,192,64338,1,0,0:0:0:0:
42,192,64659,1,0,0:0:0:0:
298,192,64659,1,0,0:0:0:0:
128,192,64979,1,0,0:0:0:0:
384,192,65300,1,0,0:0:0:0:
213,192,65621,1,0,0:0:0:0:
469,192,65942,1,0,0:0:0:0:
128,192,65942,1,0,0:0:0:0:
298,192,66263,1,0,0:0:0:0:
42,192,66584,1,0,0:0:0:0:
213,192,66905,1,0,0:0:0:0:
128,192,67225,1,0,0:0:0:0:
298,192,67546,1,0,0:0:0:0:
469,192,67546,1,0,0:0:0:0:
42,192,67867,1,0,0:0:0:0:
213,192,68188,1,0,0:0:0:0:
384,192,68188,1,0,0:0:0:0:
469,192,68509,1,0,0:0:0:0:
298,192,68830,1,0,0:0:0:0:
128,192,68830,1,0,0:0:0:0:
384,192,69151,1,0,0:0:0:0:
213,192,69471,1,0,0:0:0:0:
42,192,69471,1,0,0:0:0:0:
298,192,69792,1,0,0:0:0:0:
128,192,70113,1,0,0:0:0:0:
384,192,70113,1,0,0:0:0:0:
213,192,70434,1,0,0:0:0:0:
298,192,70755,1,0,0:0:0:0:
42,192,70755,1,0,0:0:0:0:
469,192,71076,1,0,0:0:0:0:
213,192,71236,1,0,0:0:0:0:
42,192,71717,1,0,0:0:0:0:
298,192,71878,1,0,0:0:0:0:
469,192,72359,1,0,0:0:0:0:
213,192,72359,1,0,0:0:0:0:
128,192,72680,1,0,0:0:0:0:
298,192,72840,1,0,0:0:0:0:
42,192,73161,1,0,0:0:0:0:
213,192,73482,1,0,0:0:0:0:
469,192,73482,128,0,74926:0:0:0:0:
128,192,74284,1,0,0:0:0:0:
298,192,74605,1,0,0:0:0:0:
42,192,74926,1,0,0:0:0:0:
213,192,74926,1,0,0:0:0:0:
128,192,75568,1,0,0:0:0:0:
384,192,75568,1,0,0:0:0:0:
298,192,76209,1,0,0:0:0:0:
469,192,76209,1,0,0:0:0:0:
384,192,76851,1,0,0:0:0:0:
128,192,77172,1,0,0:0:0:0:
42,192,77493,1,0,0:0:0:0:
384,192,77814,1,0,0:0:0:0:
213,192,78135,1,0,0:0:0:0:
469,192,78455,1,0,0:0:0:0:
128,192,78776,1,0,0:0:0:0:
384,192,79097,1,0,0:0:0:0:
213,192,79258,1,0,0:0:0:0:
298,192,79578,1,0,0:0:0:0:
469,192,79739,1,0,0:0:0:0:
128,192,80060,1,0,0:0:0:0:
384,192,80381,1,0,0:0:0:0:
298,192,80701,1,0,0:0:0:0:
42,192,81022,1,0,0:0:0:0:
213,192,81343,1,0,0:0:0:0:
298,192,81664,1,0,0:0:0:0:
128,192,81824,1,0,0:0:0:0:
213,192,82145,1,0,0:0:0:0:
469,192,82306,1,0,0:0:0:0:
42,192,82627,1,0,0:0:0:0:
213,192,82947,1,0,0:0:0:0:
384,192,83108,1,0,0:0:0:0:
128,192,83429,1,0,0:0:0:0:
298,192,83750,1,0,0:0:0:0:
469,192,83750,128,0,87760:0:0:0:0:
213,192,85193,1,0,0:0:0:0:
42,192,85193,128,0,87760:0:0:0:0:
