osu file format v14

[General]
AudioFilename: audio.mp3
AudioLeadIn: 0
PreviewTime: 51799
Countdown: 0
SampleSet: Normal
StackLeniency: 0.7
Mode: 1
LetterboxInBreaks: 0
WidescreenStoryboard: 0

[Editor]
Bookmarks: 76770
DistanceSpacing: 0.8
BeatDivisor: 4
GridSize: 32
TimelineZoom: 2.1

[Metadata]
Title:Univer Page (TV Size)
TitleUnicode:ユニバーページ (TV Size)
Artist:Mimori Suzuko
ArtistUnicode:三森すずこ
Creator:Faputa
Version:Oni
Source:アウトブレイク・カンパニー
Tags:outbreak company jpop j-pop anime アニメ japanese op opening cute moeru shinryakusha 萌える侵略者 渡辺翔 増田武史
BeatmapID:1991827
BeatmapSetID:954004

[Difficulty]
HPDrainRate:5.5
CircleSize:2
OverallDifficulty:5.5
ApproachRate:10
SliderMultiplier:1.4
SliderTickRate:1

[Events]
//Background and Video events
0,0,"bg.jpg",0,130
Video,-1190,"outbreakcompany.mp4"
//Break Periods
//Storyboard Layer 0 (Background)
//Storyboard Layer 1 (Fail)
//Storyboard Layer 2 (Pass)
//Storyboard Layer 3 (Foreground)
//Storyboard Layer 4 (Overlay)
//Storyboard Sound Samples

[TimingPoints]
3110,320.855614973262,4,1,0,90,1,0
13297,-100,4,1,0,75,0,0
23564,-100,4,1,0,80,0,0
34072,-111.111111111111,4,1,0,80,0,0
41291,-105.263157894737,4,1,0,80,0,0
41452,-100,4,1,0,80,0,0
50676,-90.9090909090909,4,1,0,90,0,0
51077,-92.5925925925926,4,1,0,90,0,0
51398,-94.3396226415094,4,1,0,90,0,0
51559,-95.2380952380952,4,1,0,90,0,0
51880,-95.2380952380952,4,1,0,95,0,1
61505,-95.2380952380952,4,1,0,95,0,0
62147,-95.2380952380952,4,1,0,95,0,1
75195,-96.1538461538461,4,1,0,95,0,1
75409,-97.0873786407767,4,1,0,95,0,1
75623,-98.0392156862745,4,1,0,95,0,1
75837,-99.009900990099,4,1,0,95,0,1
76826,-100,4,1,0,95,0,1
77548,-100,4,1,0,85,0,0

[HitObjects]
256,192,3110,5,4,0:0:0:0:
256,192,3430,1,8,0:0:0:0:
256,192,3591,1,8,0:0:0:0:
256,192,3751,1,0,0:0:0:0:
256,192,3912,1,0,0:0:0:0:
256,192,4072,1,8,0:0:0:0:
256,192,4393,1,0,0:0:0:0:
256,192,4553,1,0,0:0:0:0:
256,192,4714,1,8,0:0:0:0:
256,192,4874,1,0,0:0:0:0:
256,192,5195,1,0,0:0:0:0:
256,192,5355,1,8,0:0:0:0:
256,192,5516,1,0,0:0:0:0:
256,192,5596,1,0,0:0:0:0:
256,192,5676,1,0,0:0:0:0:
256,192,5997,1,8,0:0:0:0:
256,192,6158,1,0,0:0:0:0:
256,192,6318,1,8,0:0:0:0:
256,192,6639,1,0,0:0:0:0:
256,192,6799,1,8,0:0:0:0:
256,192,6880,1,8,0:0:0:0:
256,192,6960,1,8,0:0:0:0:
256,192,7120,1,0,0:0:0:0:
256,192,7281,1,8,0:0:0:0:
256,192,7441,1,0,0:0:0:0:
256,192,7762,1,0,0:0:0:0:
256,192,7922,1,8,0:0:0:0:
256,192,8083,1,0,0:0:0:0:
256,192,8163,1,0,0:0:0:0:
256,192,8243,1,0,0:0:0:0:
256,192,8564,1,8,0:0:0:0:
256,192,8724,1,0,0:0:0:0:
256,192,8885,1,8,0:0:0:0:
256,192,9045,1,8,0:0:0:0:
256,192,9206,1,0,0:0:0:0:
256,192,9366,1,0,0:0:0:0:
256,192,9527,1,8,0:0:0:0:
256,192,9687,1,0,0:0:0:0:
256,192,9847,1,8,0:0:0:0:
256,192,10008,1,8,0:0:0:0:
256,192,10329,1,0,0:0:0:0:
256,192,10489,1,8,0:0:0:0:
256,192,10569,1,8,0:0:0:0:
256,192,10650,1,0,0:0:0:0:
256,192,10810,1,12,0:0:0:0:
256,192,11131,1,0,0:0:0:0:
256,192,11452,1,8,0:0:0:0:
256,192,12093,1,4,0:0:0:0:
256,192,12414,1,0,0:0:0:0:
256,192,12735,1,8,0:0:0:0:
256,192,12815,1,8,0:0:0:0:
256,192,12976,1,8,0:0:0:0:
256,192,13056,1,8,0:0:0:0:
256,192,13216,1,0,0:0:0:0:
256,192,13377,1,12,0:0:0:0:
256,192,13698,1,8,0:0:0:0:
256,192,14019,1,0,0:0:0:0:
256,192,14179,1,0,0:0:0:0:
256,192,14339,1,8,0:0:0:0:
256,192,14500,1,0,0:0:0:0:
256,192,14821,1,0,0:0:0:0:
256,192,14981,1,8,0:0:0:0:
256,192,15302,1,8,0:0:0:0:
256,192,15462,1,8,0:0:0:0:
256,192,15623,1,0,0:0:0:0:
256,192,15944,1,8,0:0:0:0:
256,192,16265,1,0,0:0:0:0:
256,192,16425,1,0,0:0:0:0:
256,192,16585,1,8,0:0:0:0:
256,192,16906,1,8,0:0:0:0:
256,192,17227,1,8,0:0:0:0:
256,192,17388,1,0,0:0:0:0:
256,192,17548,1,8,0:0:0:0:
256,192,17708,1,8,0:0:0:0:
256,192,17869,1,0,0:0:0:0:
256,192,18029,1,8,0:0:0:0:
256,192,18110,1,0,0:0:0:0:
256,192,18190,1,8,0:0:0:0:
256,192,18350,1,8,0:0:0:0:
256,192,18511,1,4,0:0:0:0:
256,192,18831,1,0,0:0:0:0:
256,192,19152,1,8,0:0:0:0:
256,192,19313,1,8,0:0:0:0:
256,192,19473,1,0,0:0:0:0:
256,192,19634,1,8,0:0:0:0:
256,192,19954,1,8,0:0:0:0:
256,192,20115,1,0,0:0:0:0:
256,192,20436,1,8,0:0:0:0:
256,192,20596,1,8,0:0:0:0:
256,192,20757,1,0,0:0:0:0:
256,192,21077,1,8,0:0:0:0:
256,192,21398,1,8,0:0:0:0:
256,192,21559,1,8,0:0:0:0:
256,192,21719,1,0,0:0:0:0:
256,192,21799,1,0,0:0:0:0:
256,192,21880,1,0,0:0:0:0:
256,192,22040,1,8,0:0:0:0:
256,192,22361,1,0,0:0:0:0:
256,192,22521,1,8,0:0:0:0:
256,192,22682,1,8,0:0:0:0:
256,192,22842,1,0,0:0:0:0:
256,192,22922,1,8,0:0:0:0:
256,192,23003,1,8,0:0:0:0:
256,192,23163,1,0,0:0:0:0:
256,192,23323,1,0,0:0:0:0:
256,192,23484,1,0,0:0:0:0:
256,192,23644,1,12,0:0:0:0:
256,192,23965,1,8,0:0:0:0:
256,192,24126,1,0,0:0:0:0:
256,192,24286,1,8,0:0:0:0:
256,192,24446,1,8,0:0:0:0:
256,192,24607,1,0,0:0:0:0:
256,192,24767,1,8,0:0:0:0:
256,192,25088,1,0,0:0:0:0:
256,192,25249,1,8,0:0:0:0:
256,192,25409,1,8,0:0:0:0:
256,192,25569,1,0,0:0:0:0:
256,192,25730,1,0,0:0:0:0:
256,192,25890,1,8,0:0:0:0:
256,192,26211,1,8,0:0:0:0:
256,192,26372,1,0,0:0:0:0:
256,192,26532,1,8,0:0:0:0:
256,192,26692,1,8,0:0:0:0:
256,192,26853,1,0,0:0:0:0:
256,192,27013,1,0,0:0:0:0:
256,192,27174,1,8,0:0:0:0:
256,192,27334,1,0,0:0:0:0:
256,192,27495,1,8,0:0:0:0:
256,192,27815,1,8,0:0:0:0:
256,192,27976,1,0,0:0:0:0:
256,192,28056,1,0,0:0:0:0:
256,192,28136,1,0,0:0:0:0:
256,192,28297,1,0,0:0:0:0:
256,192,28457,1,8,0:0:0:0:
256,192,28618,1,8,0:0:0:0:
256,192,28778,1,4,0:0:0:0:
256,192,29099,1,8,0:0:0:0:
256,192,29259,1,0,0:0:0:0:
256,192,29580,1,8,0:0:0:0:
256,192,29741,1,0,0:0:0:0:
256,192,29901,1,0,0:0:0:0:
256,192,30061,1,8,0:0:0:0:
256,192,30382,1,8,0:0:0:0:
256,192,30703,1,0,0:0:0:0:
256,192,30864,1,0,0:0:0:0:
256,192,31024,1,8,0:0:0:0:
256,192,31184,1,0,0:0:0:0:
256,192,31345,1,12,0:0:0:0:
256,192,31666,1,0,0:0:0:0:
256,192,31987,1,12,0:0:0:0:
256,192,32307,1,8,0:0:0:0:
256,192,32628,1,4,0:0:0:0:
256,192,32789,1,8,0:0:0:0:
256,192,32949,1,8,0:0:0:0:
256,192,33110,1,0,0:0:0:0:
256,192,33270,1,8,0:0:0:0:
256,192,33430,1,0,0:0:0:0:
256,192,33591,1,8,0:0:0:0:
256,192,33751,1,0,0:0:0:0:
256,192,33831,1,0,0:0:0:0:
256,192,33912,1,8,0:0:0:0:
256,192,34232,1,0,0:0:0:0:
256,192,34553,1,8,0:0:0:0:
256,192,34714,1,0,0:0:0:0:
256,192,34794,1,8,0:0:0:0:
256,192,34874,1,0,0:0:0:0:
256,192,35035,1,0,0:0:0:0:
256,192,35195,1,8,0:0:0:0:
256,192,35516,1,0,0:0:0:0:
256,192,35676,1,8,0:0:0:0:
256,192,35837,1,8,0:0:0:0:
256,192,36158,1,0,0:0:0:0:
256,192,36478,1,8,0:0:0:0:
256,192,36639,1,0,0:0:0:0:
256,192,36799,1,8,0:0:0:0:
256,192,37120,1,0,0:0:0:0:
256,192,37281,1,0,0:0:0:0:
256,192,37441,1,8,0:0:0:0:
256,192,37762,1,8,0:0:0:0:
256,192,38083,1,0,0:0:0:0:
256,192,38243,1,0,0:0:0:0:
256,192,38404,1,8,0:0:0:0:
256,192,38564,1,8,0:0:0:0:
256,192,38724,1,8,0:0:0:0:
256,192,38885,1,8,0:0:0:0:
256,192,39045,1,0,0:0:0:0:
256,192,39366,1,8,0:0:0:0:
256,192,39687,1,0,0:0:0:0:
256,192,39847,1,8,0:0:0:0:
256,192,39928,1,8,0:0:0:0:
256,192,40008,1,0,0:0:0:0:
256,192,40168,1,8,0:0:0:0:
256,192,40329,1,0,0:0:0:0:
256,192,40650,1,8,0:0:0:0:
256,192,40810,1,0,0:0:0:0:
256,192,40970,1,8,0:0:0:0:
256,192,41291,1,0,0:0:0:0:
256,192,41452,1,12,0:0:0:0:
256,192,41773,1,0,0:0:0:0:
256,192,41933,1,8,0:0:0:0:
256,192,42254,1,0,0:0:0:0:
256,192,42414,1,0,0:0:0:0:
256,192,42575,1,8,0:0:0:0:
256,192,42735,1,4,0:0:0:0:
256,192,43056,1,8,0:0:0:0:
256,192,43216,1,8,0:0:0:0:
256,192,43537,1,8,0:0:0:0:
256,192,43698,1,0,0:0:0:0:
256,192,43858,1,8,0:0:0:0:
256,192,44179,1,12,0:0:0:0:
256,192,44500,1,8,0:0:0:0:
256,192,44821,1,0,0:0:0:0:
256,192,44981,1,0,0:0:0:0:
256,192,45142,1,8,0:0:0:0:
256,192,45302,1,4,0:0:0:0:
256,192,45623,1,0,0:0:0:0:
256,192,45783,1,8,0:0:0:0:
256,192,46104,1,8,0:0:0:0:
256,192,46265,1,8,0:0:0:0:
256,192,46425,1,0,0:0:0:0:
256,192,46746,1,8,0:0:0:0:
256,192,47067,1,8,0:0:0:0:
256,192,47227,1,0,0:0:0:0:
256,192,47388,1,8,0:0:0:0:
256,192,47548,1,0,0:0:0:0:
256,192,47708,1,8,0:0:0:0:
256,192,47869,1,0,0:0:0:0:
256,192,47949,1,0,0:0:0:0:
256,192,48029,1,8,0:0:0:0:
256,192,48350,1,0,0:0:0:0:
256,192,48511,1,8,0:0:0:0:
256,192,48831,1,8,0:0:0:0:
256,192,48992,1,0,0:0:0:0:
256,192,49152,1,8,0:0:0:0:
256,192,49232,1,8,0:0:0:0:
256,192,49313,1,8,0:0:0:0:
256,192,49473,1,8,0:0:0:0:
256,192,49634,1,0,0:0:0:0:
256,192,49794,1,0,0:0:0:0:
256,192,49954,1,8,0:0:0:0:
256,192,50115,1,8,0:0:0:0:
256,192,50275,1,0,0:0:0:0:
256,192,50436,1,8,0:0:0:0:
256,192,50757,1,12,0:0:0:0:
256,192,51077,1,12,0:0:0:0:
256,192,51398,1,4,0:0:0:0:
256,192,51559,1,0,0:0:0:0:
256,192,51639,1,0,0:0:0:0:
256,192,51719,1,0,0:0:0:0:
256,192,51880,1,12,0:0:0:0:
256,192,52200,1,8,0:0:0:0:
256,192,52361,1,0,0:0:0:0:
256,192,52521,1,8,0:0:0:0:
256,192,52682,1,8,0:0:0:0:
256,192,52842,1,0,0:0:0:0:
256,192,53003,1,8,0:0:0:0:
256,192,53323,1,0,0:0:0:0:
256,192,53484,1,8,0:0:0:0:
256,192,53644,1,0,0:0:0:0:
256,192,53805,1,8,0:0:0:0:
256,192,53885,1,8,0:0:0:0:
256,192,53965,1,8,0:0:0:0:
256,192,54126,1,0,0:0:0:0:
256,192,54286,1,8,0:0:0:0:
256,192,54607,1,0,0:0:0:0:
256,192,54767,1,8,0:0:0:0:
256,192,55088,1,0,0:0:0:0:
256,192,55249,1,0,0:0:0:0:
256,192,55409,1,8,0:0:0:0:
256,192,55730,1,8,0:0:0:0:
256,192,55890,1,8,0:0:0:0:
256,192,56051,1,0,0:0:0:0:
256,192,56211,1,8,0:0:0:0:
256,192,56291,1,0,0:0:0:0:
256,192,56372,1,0,0:0:0:0:
256,192,56532,1,0,0:0:0:0:
256,192,56692,1,8,0:0:0:0:
256,192,56853,1,0,0:0:0:0:
256,192,56933,1,8,0:0:0:0:
256,192,57013,1,8,0:0:0:0:
256,192,57334,1,8,0:0:0:0:
256,192,57495,1,0,0:0:0:0:
256,192,57655,1,8,0:0:0:0:
256,192,57815,1,8,0:0:0:0:
256,192,57976,1,0,0:0:0:0:
256,192,58297,1,8,0:0:0:0:
256,192,58457,1,0,0:0:0:0:
256,192,58618,1,8,0:0:0:0:
256,192,58938,1,8,0:0:0:0:
256,192,59099,1,8,0:0:0:0:
256,192,59259,1,0,0:0:0:0:
256,192,59420,1,0,0:0:0:0:
256,192,59500,1,0,0:0:0:0:
256,192,59580,1,8,0:0:0:0:
256,192,59901,1,8,0:0:0:0:
256,192,60061,1,0,0:0:0:0:
256,192,60222,1,8,0:0:0:0:
256,192,60382,1,0,0:0:0:0:
256,192,60543,1,8,0:0:0:0:
256,192,60623,1,8,0:0:0:0:
256,192,60703,1,8,0:0:0:0:
256,192,61024,1,8,0:0:0:0:
256,192,61184,1,0,0:0:0:0:
256,192,61345,1,8,0:0:0:0:
256,192,61505,1,4,0:0:0:0:
256,192,61666,1,4,0:0:0:0:
256,192,61987,1,0,0:0:0:0:
256,192,62147,1,12,0:0:0:0:
256,192,62468,1,8,0:0:0:0:
256,192,62628,1,0,0:0:0:0:
256,192,62789,1,8,0:0:0:0:
256,192,62949,1,8,0:0:0:0:
256,192,63109,1,0,0:0:0:0:
256,192,63270,1,8,0:0:0:0:
256,192,63430,1,0,0:0:0:0:
256,192,63591,1,0,0:0:0:0:
256,192,63751,1,8,0:0:0:0:
256,192,63912,1,0,0:0:0:0:
256,192,63992,1,0,0:0:0:0:
256,192,64072,1,8,0:0:0:0:
256,192,64232,1,8,0:0:0:0:
256,192,64393,1,0,0:0:0:0:
256,192,64553,1,8,0:0:0:0:
256,192,64874,1,0,0:0:0:0:
256,192,65035,1,8,0:0:0:0:
256,192,65355,1,0,0:0:0:0:
256,192,65516,1,0,0:0:0:0:
256,192,65676,1,8,0:0:0:0:
256,192,65837,1,0,0:0:0:0:
256,192,65997,1,8,0:0:0:0:
256,192,66158,1,0,0:0:0:0:
256,192,66318,1,8,0:0:0:0:
256,192,66478,1,8,0:0:0:0:
256,192,66639,1,0,0:0:0:0:
256,192,66719,1,0,0:0:0:0:
256,192,66799,1,0,0:0:0:0:
256,192,66960,1,8,0:0:0:0:
256,192,67120,1,0,0:0:0:0:
256,192,67200,1,0,0:0:0:0:
256,192,67281,1,8,0:0:0:0:
256,192,67601,1,8,0:0:0:0:
256,192,67762,1,0,0:0:0:0:
256,192,67922,1,8,0:0:0:0:
256,192,68083,1,8,0:0:0:0:
256,192,68243,1,0,0:0:0:0:
256,192,68564,1,8,0:0:0:0:
256,192,68724,1,0,0:0:0:0:
256,192,68885,1,8,0:0:0:0:
256,192,69206,1,8,0:0:0:0:
256,192,69366,1,8,0:0:0:0:
256,192,69527,1,0,0:0:0:0:
256,192,69687,1,0,0:0:0:0:
256,192,69847,1,8,0:0:0:0:
256,192,70168,1,8,0:0:0:0:
256,192,70329,1,0,0:0:0:0:
256,192,70489,1,8,0:0:0:0:
256,192,70650,1,8,0:0:0:0:
256,192,70810,1,0,0:0:0:0:
256,192,70890,1,0,0:0:0:0:
256,192,70970,1,0,0:0:0:0:
256,192,71131,1,12,0:0:0:0:
256,192,71291,1,12,0:0:0:0:
256,192,71773,1,4,0:0:0:0:
256,192,71933,1,4,0:0:0:0:
256,192,72414,1,12,0:0:0:0:
256,192,72735,1,0,0:0:0:0:
256,192,72896,1,0,0:0:0:0:
256,192,73216,1,8,0:0:0:0:
256,192,73537,1,4,0:0:0:0:
256,192,73858,1,0,0:0:0:0:
256,192,74019,1,0,0:0:0:0:
256,192,74179,1,8,0:0:0:0:
256,192,74259,1,8,0:0:0:0:
256,192,74339,1,8,0:0:0:0:
256,192,74500,1,0,0:0:0:0:
256,192,74580,1,8,0:0:0:0:
256,192,74660,1,8,0:0:0:0:
256,192,74821,1,0,0:0:0:0:
256,192,74981,1,12,0:0:0:0:
256,192,75222,1,8,0:0:0:0:
256,192,75422,1,0,0:0:0:0:
256,192,75623,1,12,0:0:0:0:
256,192,75864,1,0,0:0:0:0:
256,192,76064,1,8,0:0:0:0:
256,192,76265,1,4,0:0:0:0:
256,192,76826,1,8,0:0:0:0:
256,192,76906,1,8,0:0:0:0:
256,192,77227,1,0,0:0:0:0:
256,192,77388,1,8,0:0:0:0:
256,192,77548,1,4,0:0:0:0:
256,192,77869,1,8,0:0:0:0:
256,192,78029,1,8,0:0:0:0:
256,192,78190,1,0,0:0:0:0:
256,192,78350,1,0,0:0:0:0:
256,192,78511,1,8,0:0:0:0:
256,192,78831,1,8,0:0:0:0:
256,192,78992,1,0,0:0:0:0:
256,192,79152,1,8,0:0:0:0:
256,192,79313,1,0,0:0:0:0:
256,192,79634,1,0,0:0:0:0:
256,192,79794,1,8,0:0:0:0:
256,192,79954,1,0,0:0:0:0:
256,192,80035,1,0,0:0:0:0:
256,192,80115,1,0,0:0:0:0:
256,192,80436,1,8,0:0:0:0:
256,192,80596,1,0,0:0:0:0:
256,192,80757,1,8,0:0:0:0:
256,192,80917,1,8,0:0:0:0:
256,192,81077,1,0,0:0:0:0:
256,192,81398,1,8,0:0:0:0:
256,192,81559,1,0,0:0:0:0:
256,192,81719,1,8,0:0:0:0:
256,192,81880,1,0,0:0:0:0:
256,192,82200,1,0,0:0:0:0:
256,192,82361,1,8,0:0:0:0:
256,192,82441,1,8,0:0:0:0:
256,192,82521,1,0,0:0:0:0:
256,192,82682,1,4,0:0:0:0:
256,192,83003,1,8,0:0:0:0:
256,192,83163,1,8,0:0:0:0:
256,192,83484,1,0,0:0:0:0:
256,192,83805,1,12,0:0:0:0:
256,192,84126,1,0,0:0:0:0:
256,192,84286,1,0,0:0:0:0:
256,192,84446,1,8,0:0:0:0:
256,192,84607,1,8,0:0:0:0:
256,192,84767,1,0,0:0:0:0:
256,192,84847,1,8,0:0:0:0:
256,192,84928,1,8,0:0:0:0:
256,192,85249,1,12,0:0:0:0:
256,192,85409,8,0,87815,0:0:0:0:
