osu file format v14

[General]
AudioFilename: audio.mp3
AudioLeadIn: 0
PreviewTime:51814
Countdown: 0
SampleSet: Soft
StackLeniency: 0.7
Mode: 0
LetterboxInBreaks: 0
WidescreenStoryboard: 1
EpilepsyWarning: 1

[Editor]
Bookmarks: 544,3125,13392,23660,33927,41467,51895,77563,87831,98098,108365,115905,126333,150718,160986,171253,181520,207189,217456,225157,227884
DistanceSpacing: 1
BeatDivisor: 4
GridSize: 32
TimelineZoom: 1.9

[Metadata]
Title:Univer Page
TitleUnicode:ユニバーページ
Artist:Mimori Suzuko
ArtistUnicode:三森すずこ
Creator:Amateurre
Version:Pile's Normal
Source:アウトブレイク・カンパニー
Tags:outbreak company moeru shinryakusha 萌える侵略者 moe invaders japanese pop j-pop jpop anime midorijeon shizuku- shikibe mayu kazato asa kowari xidorn koldnoodl airiesu pile ayamemymommy yogurtt
BeatmapID:3392560
BeatmapSetID:1658721

[Difficulty]
HPDrainRate:4
CircleSize:3.2
OverallDifficulty:4
ApproachRate:5.8
SliderMultiplier:0.999999999999999
SliderTickRate:1

[Events]
//Background and Video events
0,0,"amateurre_pinged_me_for_best_girl.jpg",0,0
//Break Periods
2,150908,154763
2,156042,159896
//Storyboard Layer 0 (Background)
//Storyboard Layer 1 (Fail)
//Storyboard Layer 2 (Pass)
//Storyboard Layer 3 (Foreground)
//Storyboard Layer 4 (Overlay)
//Storyboard Sound Samples

[TimingPoints]
-725,317.460317460317,4,2,1,70,1,0
544,-100,4,2,1,55,0,0
3115,320.855614973262,4,2,2,75,1,0
3115,-105.263157894737,4,2,2,75,0,0
8248,-105.263157894737,4,2,1,75,0,0
13382,-111.111111111111,4,2,2,70,0,0
18516,-111.111111111111,4,2,1,70,0,0
23649,-111.111111111111,4,2,2,70,0,0
31992,-111.111111111111,4,2,1,70,0,0
32633,-111.111111111111,4,2,2,70,0,0
33917,-111.111111111111,4,2,1,65,0,0
41457,-111.111111111111,4,2,2,65,0,0
42740,-111.111111111111,4,2,1,65,0,0
44184,-111.111111111111,4,2,2,65,0,0
49478,-111.111111111111,4,2,2,45,0,0
49639,-111.111111111111,4,2,2,50,0,0
49799,-111.111111111111,4,2,2,55,0,0
49959,-111.111111111111,4,2,2,60,0,0
50120,-111.111111111111,4,2,2,65,0,0
50280,-111.111111111111,4,2,2,70,0,0
50441,-111.111111111111,4,2,2,75,0,0
51885,-100,4,2,2,80,0,0
53008,-100,4,2,1,80,0,0
57018,-100,4,2,2,80,0,0
59585,-100,4,2,1,80,0,0
62152,-100,4,2,2,80,0,0
66644,-100,4,2,1,80,0,0
67286,-100,4,2,2,80,0,0
69852,-100,4,2,1,80,0,0
73542,-100,4,2,2,80,0,0
75628,-100,4,2,1,80,0,0
76270,-100,4,2,2,80,0,0
77553,-105.263157894737,4,2,2,75,0,0
82687,-105.263157894737,4,2,1,75,0,0
87820,-111.111111111111,4,2,2,75,0,0
88141,-111.111111111111,4,2,1,60,0,0
90387,-111.111111111111,4,2,1,70,0,0
92633,-111.111111111111,4,2,2,70,0,0
92954,-111.111111111111,4,2,1,70,0,0
98088,-111.111111111111,4,2,2,70,0,0
106431,-111.111111111111,4,2,1,70,0,0
107072,-111.111111111111,4,2,2,70,0,0
108356,-111.111111111111,4,2,1,65,0,0
115895,-111.111111111111,4,2,2,65,0,0
117178,-111.111111111111,4,2,1,65,0,0
118622,-111.111111111111,4,2,2,65,0,0
123916,-111.111111111111,4,2,2,45,0,0
124077,-111.111111111111,4,2,2,50,0,0
124237,-111.111111111111,4,2,2,55,0,0
124397,-111.111111111111,4,2,2,60,0,0
124558,-111.111111111111,4,2,2,65,0,0
124718,-111.111111111111,4,2,2,70,0,0
124879,-111.111111111111,4,2,2,75,0,0
126323,-100,4,2,2,80,0,0
127446,-100,4,2,1,80,0,0
131456,-100,4,2,2,80,0,0
134023,-100,4,2,1,80,0,0
136590,-100,4,2,2,80,0,0
141082,-100,4,2,1,80,0,0
141724,-100,4,2,2,80,0,0
144290,-100,4,2,1,80,0,0
147980,-100,4,2,2,80,0,0
150066,-100,4,2,1,80,0,0
150708,-100,4,2,2,80,0,0
151992,-100,4,2,2,60,0,0
160975,-111.111111111111,4,2,3,65,0,0
172526,-111.111111111111,4,2,2,65,0,0
177018,-111.111111111111,4,2,1,65,0,0
177660,-111.111111111111,4,2,2,65,0,0
181510,-100,4,2,2,80,0,0
182633,-100,4,2,1,80,0,0
191777,-100,4,2,2,80,0,0
196269,-100,4,2,1,80,0,0
196911,-100,4,2,2,80,0,0
199477,-100,4,2,1,80,0,0
203167,-100,4,2,2,80,0,0
205253,-100,4,2,1,80,0,0
205895,-100,4,2,2,80,0,0
207179,-100,4,2,2,75,0,0
208302,-100,4,2,1,75,0,0
212312,-100,4,2,2,75,0,0
213435,-100,4,2,1,75,0,0
217446,-100,4,2,2,75,0,0
218569,-100,4,2,1,75,0,0
223703,-100,4,2,2,75,0,0

[Colours]
Combo1 : 141,252,158
Combo2 : 251,220,164
Combo3 : 154,227,252
Combo4 : 244,199,254

[HitObjects]
26,21,3115,6,0,P|41:109|45:129,1,94.9999974632263,14|8,0:1|0:0,0:0:0:0:
97,191,3756,2,0,L|86:242,1,47.4999987316131,10|8,0:1|0:1,0:0:0:0:
61,277,4077,1,8,0:2:0:0:
128,343,4398,2,0,P|166:365|219:360,1,94.9999974632263,10|10,0:1|0:2,0:0:0:0:
252,331,4879,2,0,P|320:315|350:311,1,94.9999974632263,10|10,0:1|0:1,0:0:0:0:
385,337,5360,1,8,0:2:0:0:
457,275,5681,5,10,0:1:0:0:
394,203,6002,1,10,0:0:0:0:
444,122,6323,2,0,L|457:63,2,47.4999987316131,10|8|8,0:1|0:1|0:2,0:0:0:0:
394,203,6965,2,0,L|283:178,1,94.9999974632263,10|10,0:1|0:2,0:0:0:0:
262,151,7446,1,10,0:1:0:0:
195,218,7767,1,10,0:1:0:0:
195,218,7927,1,8,0:2:0:0:
128,150,8248,6,0,P|148:101|137:43,1,94.9999974632263,14|8,0:1|0:0,0:0:0:0:
50,44,8890,2,0,P|30:93|41:151,1,94.9999974632263,10|8,0:1|0:2,0:0:0:0:
63,224,9532,1,10,0:1:0:0:
63,224,9692,2,0,L|47:280,1,47.4999987316131,2|8,0:0|0:2,0:0:0:0:
42,316,10013,2,0,P|91:326|141:340,1,94.9999974632263,10|10,0:1|0:1,0:0:0:0:
172,366,10494,1,8,0:2:0:0:
245,306,10815,6,0,L|224:209,1,94.9999974632263,14|2,0:1|0:0,0:0:0:0:
174,132,11457,1,2,0:0:0:0:
323,15,12098,2,0,P|388:12|415:50,1,94.9999974632263,14|8,0:1|0:1,0:0:0:0:
476,95,12740,1,8,0:2:0:0:
430,178,13061,2,0,L|445:235,1,47.4999987316131,10|10,0:2|0:2,0:0:0:0:
468,260,13382,6,0,P|452:320|441:368,1,89.999997253418,14|10,0:1|0:2,0:0:0:0:
364,382,14024,1,10,0:1:0:0:
364,382,14184,2,0,L|275:363,1,89.999997253418,10|2,0:1|0:0,0:0:0:0:
238,338,14665,2,0,P|216:296|231:247,1,89.999997253418,8|10,0:1|0:2,0:0:0:0:
284,188,15307,2,0,L|333:199,2,44.999998626709,10|8|10,0:1|0:1|0:2,0:0:0:0:
210,135,15949,6,0,L|109:154,1,89.999997253418,10|8,0:1|0:2,0:0:0:0:
81,145,16430,1,2,0:0:0:0:
81,145,16590,2,0,P|52:106|70:62,1,89.999997253418,10|10,0:1|0:2,0:0:0:0:
124,3,17232,1,10,0:1:0:0:
212,39,17553,1,10,0:2:0:0:
212,39,17713,2,0,L|313:60,1,89.999997253418,10|8,0:1|0:1,0:0:0:0:
342,41,18195,1,14,0:2:0:0:
424,76,18516,6,0,P|445:114|435:169,1,89.999997253418,14|10,0:1|0:2,0:0:0:0:
367,210,19157,1,10,0:1:0:0:
367,210,19318,2,0,P|345:248|350:293,1,89.999997253418,10|2,0:1|0:0,0:0:0:0:
380,327,19799,1,8,0:1:0:0:
307,379,20120,2,0,L|216:357,1,89.999997253418,10|10,0:2|0:1,0:0:0:0:
133,330,20762,1,10,0:2:0:0:
196,266,21082,6,0,P|215:212|201:168,1,89.999997253418,10|8,0:1|0:2,0:0:0:0:
177,147,21564,1,10,0:2:0:0:
177,147,21724,2,0,L|194:52,1,89.999997253418,10|10,0:1|0:2,0:0:0:0:
115,12,22366,2,0,P|77:6|33:38,1,89.999997253418,10|10,0:1|0:2,0:0:0:0:
12,76,22847,1,10,0:2:0:0:
60,201,23328,2,0,L|43:257,1,44.999998626709,10|10,0:1|0:1,0:0:0:0:
46,289,23649,6,0,P|80:316|134:312,1,89.999997253418,14|10,0:1|0:2,0:0:0:0:
198,367,24291,1,10,0:1:0:0:
198,367,24451,2,0,L|287:345,1,89.999997253418,10|2,0:1|0:0,0:0:0:0:
329,355,24933,2,0,P|351:301|339:272,1,89.999997253418,8|10,0:1|0:2,0:0:0:0:
281,206,25574,2,0,L|292:148,2,44.999998626709,10|8|10,0:1|0:1|0:2,0:0:0:0:
196,238,26216,6,0,P|183:163|180:138,1,89.999997253418,10|8,0:1|0:2,0:0:0:0:
178,108,26697,1,2,0:0:0:0:
178,108,26858,2,0,P|225:75|271:87,1,89.999997253418,10|8,0:1|0:2,0:0:0:0:
326,23,27500,2,0,L|427:50,1,89.999997253418,10|10,0:1|0:2,0:0:0:0:
444,78,27981,1,8,0:1:0:0:
391,202,28462,2,0,L|404:254,1,44.999998626709,10|10,0:2|0:1,0:0:0:0:
415,288,28783,6,0,P|369:293|338:328,1,89.999997253418,14|10,0:1|0:2,0:0:0:0:
306,353,29264,2,0,P|253:341|208:332,1,89.999997253418,2|10,0:0|0:1,0:0:0:0:
176,351,29746,1,8,0:2:0:0:
107,293,30066,2,0,L|130:190,1,89.999997253418,10|8,0:1|0:2,0:0:0:0:
67,136,30708,2,0,L|20:145,2,44.999998626709,10|10|10,0:1|0:1|0:2,0:0:0:0:
129,71,31350,6,0,P|183:62|212:86,1,89.999997253418,14|8,0:1|0:2,0:0:0:0:
275,142,31992,2,0,P|336:126|372:122,1,89.999997253418,14|8,0:1|0:2,0:0:0:0:
435,69,32633,2,0,P|465:108|461:152,1,89.999997253418,14|10,0:1|0:2,0:0:0:0:
505,226,33275,2,0,L|496:280,1,44.999998626709,10|10,0:2|0:3,0:0:0:0:
493,315,33596,1,6,0:3:0:0:
412,362,33917,6,0,L|310:335,1,89.999997253418,14|10,0:1|0:1,0:0:0:0:
262,273,34558,2,0,L|160:300,1,89.999997253418,10|10,0:1|0:1,0:0:0:0:
100,347,35200,2,0,P|77:309|100:254,1,89.999997253418,10|8,0:1|0:1,0:0:0:0:
105,228,35681,1,2,0:2:0:0:
105,228,35842,2,0,P|96:165|87:126,1,89.999997253418,10|8,0:1|0:1,0:0:0:0:
35,67,36483,5,10,0:1:0:0:
109,15,36804,1,10,0:1:0:0:
182,66,37125,2,0,L|284:84,1,89.999997253418,10|10,0:1|0:1,0:0:0:0:
334,145,37767,2,0,B|405:130|375:92|450:78,1,134.999995880127,10|2,0:1|0:2,0:0:0:0:
491,87,38409,2,0,L|505:141,1,44.999998626709,10|8,0:1|0:2,0:0:0:0:
486,172,38729,1,10,0:2:0:0:
432,244,39050,6,0,L|415:347,1,89.999997253418,14|10,0:1|0:2,0:0:0:0:
338,376,39692,2,0,L|230:357,1,89.999997253418,10|10,0:1|0:2,0:0:0:0:
181,301,40334,2,0,P|158:252|202:173,1,134.999995880127,10|2,0:1|0:2,0:0:0:0:
217,148,40975,1,10,0:2:0:0:
181,71,41296,1,10,0:1:0:0:
181,71,41457,6,0,P|110:33|50:57,1,134.999995880127,14|10,0:1|0:2,0:0:0:0:
1,114,42259,1,10,0:1:0:0:
62,197,42580,1,10,0:2:0:0:
62,197,42740,2,0,B|136:205|102:254|182:270,1,134.999995880127,14|10,0:1|0:2,0:0:0:0:
231,334,43542,2,0,L|291:323,1,44.999998626709,10|8,0:1|0:1,0:0:0:0:
317,341,43863,1,10,0:2:0:0:
386,284,44184,6,0,P|406:237|388:182,1,89.999997253418,14|10,0:1|0:2,0:0:0:0:
451,126,44826,2,0,L|507:140,2,44.999998626709,10|10|10,0:1|0:1|0:2,0:0:0:0:
422,90,45307,2,0,L|324:67,1,89.999997253418,10|8,0:1|0:1,0:0:0:0:
302,37,45788,1,8,0:2:0:0:
239,102,46109,2,0,L|226:157,1,44.999998626709,10|10,0:1|0:1,0:0:0:0:
256,181,46430,1,10,0:2:0:0:
198,250,46751,6,0,P|140:246|117:219,1,89.999997253418,10|10,0:1|0:2,0:0:0:0:
62,155,47393,2,0,L|74:104,2,44.999998626709,10|8|10,0:1|0:1|0:2,0:0:0:0:
20,234,48034,2,0,L|38:332,1,89.999997253418,10|10,0:1|0:2,0:0:0:0:
61,360,48516,1,2,0:2:0:0:
137,310,48836,1,10,0:1:0:0:
137,310,48997,1,8,0:2:0:0:
200,374,49318,6,0,L|290:350,1,89.999997253418,14|10,0:1|0:2,0:0:0:0:
357,294,49959,2,0,L|414:308,1,44.999998626709,10|10,0:2|0:2,0:0:0:0:
440,336,50280,1,10,0:2:0:0:
440,336,50441,1,10,0:2:0:0:
502,270,50762,1,14,0:1:0:0:
439,206,51082,1,14,0:1:0:0:
502,141,51403,2,0,P|485:84|471:39,1,89.999997253418,14|8,0:1|0:2,0:0:0:0:
438,21,51885,5,14,0:1:0:0:
371,95,52205,1,10,0:2:0:0:
288,37,52526,2,0,L|224:52,1,50,10|10,0:1|0:1,0:0:0:0:
207,88,52847,1,10,0:2:0:0:
207,88,53008,2,0,L|109:64,1,99.9999999999999,14|8,0:1|0:1,0:0:0:0:
62,80,53489,1,10,0:2:0:0:
9,165,53810,2,0,L|24:222,1,50,10|10,0:1|0:1,0:0:0:0:
16,266,54131,1,10,0:2:0:0:
16,266,54291,6,0,P|47:288|112:274,1,99.9999999999999,14|8,0:1|0:1,0:0:0:0:
145,248,54772,1,10,0:2:0:0:
222,311,55093,2,0,L|281:325,1,50,10|8,0:1|0:1,0:0:0:0:
309,354,55414,1,10,0:2:0:0:
391,296,55735,2,0,P|374:225|366:190,1,99.9999999999999,14|10,0:1|0:2,0:0:0:0:
343,155,56216,1,2,0:0:0:0:
265,217,56537,1,10,0:1:0:0:
265,217,56697,1,10,0:2:0:0:
187,154,57018,6,0,P|164:112|181:62,1,99.9999999999999,14|8,0:1|0:2,0:0:0:0:
268,19,57660,2,0,L|324:30,1,50,10|8,0:1|0:1,0:0:0:0:
358,57,57981,1,10,0:2:0:0:
450,18,58302,2,0,P|478:51|465:108,1,99.9999999999999,10|10,0:1|0:2,0:0:0:0:
413,187,58943,2,0,L|424:243,1,50,10|8,0:1|0:1,0:0:0:0:
454,274,59264,1,10,0:2:0:0:
388,350,59585,5,14,0:1:0:0:
306,291,59906,1,10,0:2:0:0:
240,366,60227,2,0,L|136:340,1,99.9999999999999,10|10,0:1|0:2,0:0:0:0:
96,361,60708,1,14,0:1:0:0:
32,283,61029,2,0,L|58:167,1,99.9999999999999,10|10,0:2|0:1,0:0:0:0:
38,137,61510,1,10,0:2:0:0:
38,137,61671,1,10,0:2:0:0:
133,21,62152,5,14,0:1:0:0:
215,77,62473,1,10,0:2:0:0:
302,27,62794,2,0,L|361:44,1,50,10|10,0:2|0:1,0:0:0:0:
386,74,63114,2,0,L|445:57,1,50,10|10,0:2|0:1,0:0:0:0:
481,42,63435,2,0,P|515:79|500:132,1,99.9999999999999,8|10,0:2|0:2,0:0:0:0:
437,197,64077,2,0,L|448:255,1,50,10|10,0:2|0:1,0:0:0:0:
469,288,64398,1,10,0:2:0:0:
394,354,64719,6,0,P|327:335|277:322,1,99.9999999999999,8|8,0:2|0:2,0:0:0:0:
255,351,65200,1,8,0:1:0:0:
255,351,65360,1,10,0:2:0:0:
180,284,65681,2,0,L|168:223,1,50,10|8,0:2|0:1,0:0:0:0:
135,199,66002,2,0,P|87:226|43:217,1,99.9999999999999,14|10,0:2|0:2,0:0:0:0:
11,188,66483,1,10,0:1:0:0:
61,101,66804,1,10,0:1:0:0:
61,101,66965,2,0,L|50:38,1,50,10|8,0:2|0:2,0:0:0:0:
86,15,67286,6,0,L|187:45,1,99.9999999999999,14|8,0:1|0:2,0:0:0:0:
257,108,67927,2,0,L|314:93,1,50,10|8,0:1|0:1,0:0:0:0:
348,69,68248,1,10,0:2:0:0:
429,126,68569,2,0,P|456:164|441:228,1,99.9999999999999,10|8,0:1|0:2,0:0:0:0:
393,297,69211,2,0,L|407:352,2,50,10|8|8,0:1|0:1|0:2,0:0:0:0:
302,253,69852,6,0,L|276:137,2,99.9999999999999,14|8|8,0:1|0:2|0:1,0:0:0:0:
243,334,70815,2,0,L|186:321,1,50,10|10,0:2|0:1,0:0:0:0:
149,300,71136,1,10,0:2:0:0:
149,300,71296,1,10,0:2:0:0:
17,372,71778,1,10,0:2:0:0:
17,372,71938,1,10,0:2:0:0:
51,226,72419,6,0,L|31:112,1,99.9999999999999,14|10,0:1|0:2,0:0:0:0:
10,82,72901,1,10,0:2:0:0:
81,12,73221,1,10,0:2:0:0:
149,84,73542,2,0,P|225:97|286:42,1,150,14|4,0:1|0:3,0:0:0:0:
372,17,74344,2,0,L|429:31,1,50,10|4,0:3|0:3,0:0:0:0:
457,62,74665,1,10,0:2:0:0:
407,148,74986,6,0,B|400:221|462:207|451:295,1,150,14|2,0:1|0:2,0:0:0:0:
485,323,75628,2,0,B|431:326|386:361|386:361|331:329,1,150,14|2,0:1|0:2,0:0:0:0:
306,365,76270,1,14,0:1:0:0:
155,233,76911,1,10,0:1:0:0:
10,356,77553,6,0,P|25:268|29:248,1,94.9999974632263,14|8,0:1|0:0,0:0:0:0:
81,186,78194,2,0,L|70:135,1,47.4999987316131,10|8,0:1|0:1,0:0:0:0:
45,100,78515,1,8,0:2:0:0:
122,44,78836,2,0,P|160:22|213:27,1,94.9999974632263,10|10,0:1|0:2,0:0:0:0:
252,53,79318,2,0,P|320:69|350:73,1,94.9999974632263,10|10,0:1|0:1,0:0:0:0:
385,47,79798,1,8,0:2:0:0:
457,109,80119,5,10,0:1:0:0:
394,181,80440,1,10,0:0:0:0:
444,262,80761,2,0,L|457:321,2,47.4999987316131,10|8|8,0:1|0:1|0:2,0:0:0:0:
394,181,81403,2,0,L|283:206,1,94.9999974632263,10|10,0:1|0:2,0:0:0:0:
262,233,81884,1,10,0:1:0:0:
195,166,82205,1,10,0:1:0:0:
195,166,82365,1,8,0:2:0:0:
128,234,82687,6,0,P|148:283|137:341,1,94.9999974632263,14|8,0:1|0:0,0:0:0:0:
50,340,83328,2,0,P|30:291|41:233,1,94.9999974632263,10|8,0:1|0:2,0:0:0:0:
63,160,83970,1,10,0:1:0:0:
63,160,84130,2,0,L|47:104,1,47.4999987316131,2|8,0:0|0:2,0:0:0:0:
42,68,84451,2,0,P|91:58|141:44,1,94.9999974632263,10|10,0:1|0:1,0:0:0:0:
172,18,84932,1,8,0:2:0:0:
245,78,85253,6,0,L|224:175,1,94.9999974632263,14|2,0:1|0:0,0:0:0:0:
174,252,85895,1,2,0:0:0:0:
323,369,86537,2,0,P|388:372|415:334,1,94.9999974632263,14|8,0:1|0:1,0:0:0:0:
476,289,87178,1,10,0:2:0:0:
416,214,87500,2,0,L|432:158,1,47.4999987316131,10|10,0:2|0:2,0:0:0:0:
439,124,87820,5,14,0:1:0:0:
332,40,88302,1,8,0:1:0:0:
87,362,90066,5,10,0:2:0:0:
31,291,90387,2,0,L|53:188,1,89.999997253418,14|8,0:1|0:2,0:0:0:0:
73,163,90869,1,2,0:0:0:0:
73,163,91029,2,0,P|125:155|161:202,1,89.999997253418,10|10,0:1|0:2,0:0:0:0:
220,235,91671,1,10,0:1:0:0:
293,183,91992,1,10,0:2:0:0:
293,183,92152,2,0,L|266:75,1,89.999997253418,10|8,0:1|0:1,0:0:0:0:
255,53,92633,1,10,0:2:0:0:
333,9,92954,6,0,L|434:32,1,89.999997253418,14|10,0:1|0:2,0:0:0:0:
490,86,93596,1,10,0:1:0:0:
495,90,93756,2,0,P|514:129|508:177,1,89.999997253418,10|2,0:1|0:0,0:0:0:0:
492,216,94237,1,8,0:1:0:0:
435,286,94558,2,0,P|391:273|348:261,1,89.999997253418,10|10,0:2|0:1,0:0:0:0:
273,210,95200,1,10,0:2:0:0:
193,258,95521,6,0,P|168:293|181:348,1,89.999997253418,10|8,0:1|0:2,0:0:0:0:
143,370,96002,1,10,0:2:0:0:
143,370,96163,2,0,L|46:342,1,89.999997253418,10|10,0:1|0:2,0:0:0:0:
11,267,96804,2,0,P|3:212|-2:172,1,89.999997253418,10|10,0:1|0:2,0:0:0:0:
21,138,97286,1,10,0:2:0:0:
111,37,97767,2,0,L|171:51,1,44.999998626709,10|10,0:1|0:1,0:0:0:0:
185,80,98088,6,0,P|219:53|273:57,1,89.999997253418,14|10,0:1|0:2,0:0:0:0:
345,10,98730,1,10,0:1:0:0:
345,10,98890,2,0,L|434:32,1,89.999997253418,10|2,0:1|0:0,0:0:0:0:
459,68,99372,2,0,P|469:110|444:149,1,89.999997253418,8|10,0:1|0:2,0:0:0:0:
367,191,100013,2,0,L|378:249,2,44.999998626709,10|8|10,0:1|0:1|0:2,0:0:0:0:
285,151,100655,6,0,P|272:226|269:251,1,89.999997253418,10|8,0:1|0:2,0:0:0:0:
248,281,101136,1,2,0:0:0:0:
248,281,101297,2,0,P|295:314|341:302,1,89.999997253418,10|8,0:1|0:2,0:0:0:0:
396,366,101939,2,0,L|497:339,1,89.999997253418,10|10,0:1|0:2,0:0:0:0:
509,306,102420,1,8,0:1:0:0:
422,202,102901,2,0,L|435:150,1,44.999998626709,10|10,0:2|0:1,0:0:0:0:
427,113,103222,6,0,P|381:108|350:73,1,89.999997253418,14|10,0:1|0:2,0:0:0:0:
320,44,103703,2,0,P|267:56|222:65,1,89.999997253418,2|10,0:0|0:1,0:0:0:0:
192,40,104185,1,8,0:2:0:0:
107,91,104505,2,0,L|130:194,1,89.999997253418,14|8,0:1|0:2,0:0:0:0:
67,248,105147,2,0,L|20:239,2,44.999998626709,10|10|10,0:1|0:1|0:2,0:0:0:0:
129,313,105789,6,0,P|183:322|212:298,1,89.999997253418,14|8,0:1|0:2,0:0:0:0:
275,242,106431,2,0,P|336:258|372:262,1,89.999997253418,14|8,0:1|0:2,0:0:0:0:
435,315,107072,2,0,P|465:276|461:232,1,89.999997253418,14|10,0:1|0:2,0:0:0:0:
505,158,107714,2,0,L|496:104,1,44.999998626709,10|10,0:2|0:3,0:0:0:0:
493,69,108035,1,6,0:3:0:0:
412,22,108355,6,0,L|310:49,1,89.999997253418,14|10,0:1|0:1,0:0:0:0:
262,111,108997,2,0,L|160:84,1,89.999997253418,10|10,0:1|0:1,0:0:0:0:
100,37,109638,2,0,P|77:75|100:130,1,89.999997253418,10|8,0:1|0:1,0:0:0:0:
105,156,110119,1,2,0:2:0:0:
105,156,110280,2,0,P|96:219|87:258,1,89.999997253418,10|8,0:1|0:1,0:0:0:0:
35,317,110921,5,10,0:1:0:0:
109,369,111242,1,10,0:1:0:0:
182,318,111564,2,0,L|284:300,1,89.999997253418,10|10,0:1|0:1,0:0:0:0:
334,239,112205,2,0,B|405:254|375:292|450:306,1,134.999995880127,10|2,0:1|0:2,0:0:0:0:
491,297,112847,2,0,L|505:243,1,44.999998626709,10|8,0:1|0:2,0:0:0:0:
486,212,113167,1,10,0:2:0:0:
432,140,113489,6,0,L|415:37,1,89.999997253418,14|10,0:1|0:2,0:0:0:0:
338,8,114130,2,0,L|230:27,1,89.999997253418,10|10,0:1|0:2,0:0:0:0:
181,83,114772,2,0,P|158:132|202:211,1,134.999995880127,10|2,0:1|0:2,0:0:0:0:
217,236,115413,1,10,0:2:0:0:
181,313,115734,1,10,0:1:0:0:
181,313,115895,6,0,P|110:351|50:327,1,134.999995880127,14|10,0:1|0:2,0:0:0:0:
1,270,116697,1,10,0:1:0:0:
62,187,117018,1,10,0:2:0:0:
62,187,117178,2,0,B|137:171|102:130|182:114,1,134.999995880127,14|10,0:1|0:2,0:0:0:0:
231,50,117980,2,0,L|291:61,1,44.999998626709,10|8,0:1|0:1,0:0:0:0:
317,43,118301,1,10,0:2:0:0:
386,100,118622,6,0,P|406:147|388:202,1,89.999997253418,14|10,0:1|0:2,0:0:0:0:
451,258,119264,2,0,L|507:244,2,44.999998626709,10|10|10,0:1|0:1|0:2,0:0:0:0:
422,294,119745,2,0,L|324:317,1,89.999997253418,10|8,0:1|0:1,0:0:0:0:
302,347,120226,1,8,0:2:0:0:
239,282,120547,2,0,L|226:227,1,44.999998626709,10|10,0:1|0:1,0:0:0:0:
256,203,120868,1,10,0:2:0:0:
198,134,121189,6,0,P|140:138|117:165,1,89.999997253418,14|10,0:1|0:2,0:0:0:0:
62,229,121831,2,0,L|74:280,2,44.999998626709,10|8|10,0:1|0:1|0:2,0:0:0:0:
20,150,122473,2,0,L|38:52,1,89.999997253418,10|10,0:1|0:2,0:0:0:0:
61,24,122954,1,2,0:2:0:0:
137,74,123274,1,10,0:1:0:0:
137,74,123435,1,8,0:2:0:0:
200,10,123756,6,0,L|290:34,1,89.999997253418,14|10,0:1|0:2,0:0:0:0:
357,90,124397,2,0,L|414:76,1,44.999998626709,10|10,0:2|0:2,0:0:0:0:
440,48,124718,1,10,0:2:0:0:
440,48,124879,1,10,0:2:0:0:
502,114,125200,1,14,0:1:0:0:
439,178,125520,1,14,0:1:0:0:
502,243,125842,2,0,P|485:300|471:345,1,89.999997253418,14|8,0:1|0:2,0:0:0:0:
438,363,126324,5,14,0:1:0:0:
371,289,126644,1,10,0:2:0:0:
288,347,126965,2,0,L|224:332,1,50,10|10,0:1|0:1,0:0:0:0:
207,296,127286,1,10,0:2:0:0:
207,296,127447,2,0,L|109:320,1,99.9999999999999,14|8,0:1|0:1,0:0:0:0:
62,304,127928,1,10,0:2:0:0:
9,219,128249,2,0,L|24:162,1,50,10|10,0:1|0:1,0:0:0:0:
16,118,128570,1,10,0:2:0:0:
16,118,128730,6,0,P|47:96|112:110,1,99.9999999999999,14|8,0:1|0:1,0:0:0:0:
145,136,129211,1,10,0:2:0:0:
222,73,129532,2,0,L|281:59,1,50,10|8,0:1|0:1,0:0:0:0:
309,30,129853,1,10,0:2:0:0:
391,88,130174,2,0,P|374:159|366:194,1,99.9999999999999,14|10,0:1|0:2,0:0:0:0:
343,229,130655,1,2,0:0:0:0:
265,167,130976,1,10,0:1:0:0:
265,167,131136,1,10,0:2:0:0:
187,230,131457,6,0,P|164:272|181:322,1,99.9999999999999,14|8,0:1|0:2,0:0:0:0:
268,365,132099,2,0,L|324:354,1,50,10|8,0:1|0:1,0:0:0:0:
358,327,132420,1,10,0:2:0:0:
450,366,132741,2,0,P|478:333|465:276,1,99.9999999999999,10|10,0:1|0:2,0:0:0:0:
413,197,133382,2,0,L|424:141,1,50,10|8,0:1|0:1,0:0:0:0:
454,110,133703,1,10,0:2:0:0:
388,34,134024,5,14,0:1:0:0:
306,93,134345,1,10,0:2:0:0:
240,18,134666,2,0,L|136:44,1,99.9999999999999,10|10,0:1|0:2,0:0:0:0:
96,23,135147,1,14,0:1:0:0:
32,101,135468,2,0,L|58:217,1,99.9999999999999,10|10,0:2|0:1,0:0:0:0:
38,247,135949,1,10,0:2:0:0:
38,247,136110,1,10,0:2:0:0:
133,363,136591,5,14,0:1:0:0:
215,307,136912,1,10,0:2:0:0:
302,357,137233,2,0,L|361:340,1,50,10|10,0:2|0:1,0:0:0:0:
386,309,137553,2,0,L|445:326,1,50,10|10,0:2|0:1,0:0:0:0:
480,341,137874,2,0,P|514:304|499:251,1,99.9999999999999,8|10,0:2|0:2,0:0:0:0:
435,187,138516,2,0,L|446:129,1,50,10|10,0:2|0:1,0:0:0:0:
469,96,138837,1,10,0:2:0:0:
394,30,139158,6,0,P|327:49|277:62,1,99.9999999999999,8|8,0:2|0:2,0:0:0:0:
255,33,139639,1,8,0:1:0:0:
255,33,139799,1,10,0:2:0:0:
180,100,140120,2,0,L|168:161,1,50,10|8,0:2|0:1,0:0:0:0:
135,185,140441,2,0,P|87:158|43:167,1,99.9999999999999,14|10,0:2|0:2,0:0:0:0:
11,196,140922,1,10,0:1:0:0:
11,196,141083,1,12,0:2:0:0:
61,283,141404,2,0,L|50:346,1,50,10|8,0:2|0:2,0:0:0:0:
86,369,141725,6,0,L|187:339,1,99.9999999999999,14|8,0:1|0:2,0:0:0:0:
257,276,142366,2,0,L|314:291,1,50,10|8,0:1|0:1,0:0:0:0:
348,315,142687,1,10,0:2:0:0:
429,258,143008,2,0,P|456:220|441:156,1,99.9999999999999,10|8,0:1|0:2,0:0:0:0:
393,87,143650,2,0,L|407:32,2,50,10|8|8,0:1|0:1|0:2,0:0:0:0:
302,131,144291,6,0,L|272:248,2,99.9999999999999,14|8|8,0:1|0:2|0:1,0:0:0:0:
243,50,145254,2,0,L|186:63,1,50,10|10,0:2|0:1,0:0:0:0:
149,84,145575,1,10,0:2:0:0:
149,84,145735,1,10,0:2:0:0:
17,12,146217,1,10,0:2:0:0:
17,12,146377,1,10,0:2:0:0:
51,158,146858,6,0,L|31:272,1,99.9999999999999,14|10,0:1|0:2,0:0:0:0:
10,302,147340,1,10,0:2:0:0:
81,372,147660,1,10,0:2:0:0:
149,300,147981,2,0,P|225:287|286:342,1,150,14|4,0:1|0:3,0:0:0:0:
372,367,148783,2,0,L|429:353,1,50,10|4,0:3|0:3,0:0:0:0:
457,322,149104,1,10,0:2:0:0:
402,238,149425,6,0,B|372:187|372:187|409:85,1,150,14|2,0:1|0:2,0:0:0:0:
413,52,150066,2,0,P|363:92|280:83,1,150,14|2,0:1|0:2,0:0:0:0:
241,53,150708,1,14,0:1:0:0:
89,182,155842,5,10,0:1:0:0:
29,37,160975,6,0,P|44:119|61:233,1,179.999994506836,14|8,0:1|0:0,0:0:0:0:
23,297,161938,1,10,0:0:0:0:
101,341,162259,2,0,B|195:301|191:384|280:349,1,179.999994506836,10|8,0:1|0:2,0:0:0:0:
337,288,163221,1,10,0:0:0:0:
277,220,163542,2,0,P|296:137|301:111,1,89.999997253418,10|10,0:1|0:0,0:0:0:0:
258,50,164184,2,0,L|206:62,2,44.999998626709,10|8|10,0:2|0:2|0:0,0:0:0:0:
341,14,164826,2,0,P|431:20|448:51,1,134.999995880127,10|8,0:1|0:2,0:0:0:0:
477,85,165467,2,0,P|465:134|450:184,1,89.999997253418,10|8,0:2|0:2,0:0:0:0:
487,257,166109,6,0,B|422:275|422:275|400:320|400:320|327:343,1,179.999994506836,12|10,0:1|0:0,0:0:0:0:
275,275,167072,1,10,0:0:0:0:
207,334,167393,2,0,P|112:339|63:258,1,179.999994506836,10|10,0:1|0:2,0:0:0:0:
11,204,168355,1,10,0:0:0:0:
72,137,168676,2,0,P|131:122|172:110,1,89.999997253418,10|10,0:1|0:0,0:0:0:0:
239,154,169318,2,0,L|256:215,2,44.999998626709,10|8|10,0:2|0:2|0:0,0:0:0:0:
282,66,169959,6,0,P|356:18|426:49,1,134.999995880127,10|8,0:1|0:2,0:0:0:0:
435,51,170601,2,0,P|448:116|455:157,1,89.999997253418,10|8,0:2|0:2,0:0:0:0:
463,228,171243,6,0,B|371:242|393:161|289:186,1,179.999994506836,14|2,0:1|0:2,0:0:0:0:
230,245,172205,1,2,0:2:0:0:
155,194,172526,2,0,P|136:158|160:100,2,89.999997253418,14|10|2,0:1|0:2|0:0,0:0:0:0:
230,245,173489,2,0,L|220:303,1,44.999998626709,10|8,0:2|0:2,0:0:0:0:
246,327,173810,6,0,P|319:344|351:352,1,89.999997253418,14|10,0:1|0:1,0:0:0:0:
416,383,174451,1,10,0:1:0:0:
477,316,174772,2,0,L|462:262,1,44.999998626709,10|2,0:1|0:0,0:0:0:0:
433,239,175093,2,0,L|450:142,1,89.999997253418,8|10,0:1|0:1,0:0:0:0:
412,67,175735,1,10,0:1:0:0:
344,127,176056,1,14,0:1:0:0:
281,62,176377,6,0,P|191:37|129:106,1,179.999994506836,14|14,0:1|0:1,0:0:0:0:
12,224,177660,2,0,B|116:205|93:276|200:259,1,179.999994506836,14|14,0:1|0:1,0:0:0:0:
342,178,178943,6,0,B|432:113|421:-26|305:-70|250:-3|267:73|314:82,1,359.999989013672,14|0,0:1|0:0,0:0:0:0:
434,208,180869,2,0,P|458:257|449:297,1,89.999997253418,4|10,0:3|0:0,0:0:0:0:
396,373,181510,5,14,0:1:0:0:
340,289,181831,1,10,0:2:0:0:
268,359,182152,2,0,L|210:343,1,50,10|10,0:1|0:1,0:0:0:0:
185,316,182473,1,10,0:2:0:0:
185,316,182633,2,0,P|129:313|95:357,1,99.9999999999999,14|8,0:1|0:1,0:0:0:0:
61,374,183114,1,10,0:2:0:0:
5,290,183435,2,0,L|26:219,1,50,10|10,0:1|0:1,0:0:0:0:
51,203,183756,1,10,0:2:0:0:
51,203,183917,6,0,L|34:100,1,99.9999999999999,14|8,0:1|0:1,0:0:0:0:
9,61,184398,1,10,0:2:0:0:
101,22,184719,2,0,L|158:35,1,50,10|8,0:1|0:1,0:0:0:0:
194,56,185040,1,10,0:2:0:0:
285,16,185360,2,0,P|317:68|298:122,1,99.9999999999999,14|10,0:1|0:2,0:0:0:0:
276,140,185842,1,2,0:0:0:0:
214,219,186163,1,10,0:1:0:0:
214,219,186323,1,10,0:2:0:0:
294,278,186644,6,0,P|349:267|398:257,1,99.9999999999999,14|8,0:1|0:2,0:0:0:0:
484,297,187286,2,0,L|499:238,1,50,10|8,0:1|0:1,0:0:0:0:
510,200,187606,1,10,0:2:0:0:
447,121,187927,2,0,P|431:55|424:19,1,99.9999999999999,10|10,0:1|0:2,0:0:0:0:
338,74,188569,2,0,L|275:60,1,50,10|8,0:1|0:1,0:0:0:0:
240,50,188890,1,10,0:2:0:0:
154,101,189211,5,14,0:1:0:0:
228,168,189532,1,10,0:2:0:0:
144,222,189852,2,0,L|46:201,1,99.9999999999999,10|10,0:1|0:2,0:0:0:0:
11,237,190334,1,14,0:1:0:0:
66,320,190655,2,0,P|117:353|162:338,1,99.9999999999999,10|10,0:2|0:1,0:0:0:0:
195,319,191136,1,10,0:2:0:0:
195,319,191296,1,10,0:2:0:0:
334,375,191778,5,14,0:1:0:0:
406,306,192098,1,10,0:2:0:0:
337,233,192419,2,0,L|326:175,1,50,10|10,0:2|0:1,0:0:0:0:
289,151,192740,2,0,L|300:93,1,50,10|10,0:2|0:1,0:0:0:0:
336,69,193061,2,0,P|382:45|433:65,1,99.9999999999999,8|10,0:2|0:2,0:0:0:0:
507,116,193703,2,0,L|494:173,1,50,10|10,0:2|0:1,0:0:0:0:
478,211,194024,1,10,0:2:0:0:
508,305,194344,6,0,P|452:317|402:331,1,99.9999999999999,8|8,0:2|0:2,0:0:0:0:
369,353,194826,1,8,0:1:0:0:
369,353,194986,1,10,0:2:0:0:
291,289,195307,2,0,L|309:219,1,50,10|8,0:2|0:1,0:0:0:0:
311,192,195628,2,0,P|267:163|212:179,1,99.9999999999999,14|10,0:2|0:2,0:0:0:0:
178,195,196109,1,10,0:1:0:0:
109,268,196430,1,10,0:1:0:0:
109,268,196590,2,0,L|57:257,1,50,10|8,0:2|0:2,0:0:0:0:
23,221,196911,6,0,L|5:101,1,99.9999999999999,14|8,0:1|0:2,0:0:0:0:
64,39,197553,2,0,L|126:52,1,50,10|8,0:1|0:1,0:0:0:0:
153,78,197874,1,10,0:2:0:0:
239,27,198195,2,0,P|269:68|255:125,1,99.9999999999999,10|8,0:1|0:2,0:0:0:0:
197,190,198836,2,0,L|144:176,2,50,10|8|8,0:1|0:1|0:2,0:0:0:0:
265,263,199478,6,0,L|379:230,1,99.9999999999999,14|8,0:1|0:2,0:0:0:0:
454,272,200120,1,8,0:1:0:0:
499,182,200441,2,0,L|482:122,1,50,10|10,0:2|0:1,0:0:0:0:
474,84,200762,1,10,0:2:0:0:
474,84,200922,1,10,0:2:0:0:
350,166,201403,1,10,0:2:0:0:
350,166,201564,1,10,0:2:0:0:
248,56,202045,6,0,P|202:26|145:38,1,99.9999999999999,14|10,0:1|0:2,0:0:0:0:
126,68,202526,1,10,0:2:0:0:
39,17,202847,1,10,0:2:0:0:
9,112,203168,2,0,L|31:218,1,99.9999999999999,14|8,0:1|0:3,0:0:0:0:
12,257,203649,1,4,0:3:0:0:
79,330,203970,2,0,L|132:313,1,50,10|4,0:3|0:3,0:0:0:0:
168,287,204291,1,10,0:2:0:0:
246,348,204612,6,0,B|326:328|284:270|385:262,1,150,14|2,0:1|0:2,0:0:0:0:
408,241,205254,2,0,L|249:200,1,150,14|2,0:1|0:2,0:0:0:0:
226,168,205895,1,14,0:1:0:0:
71,41,206537,2,0,P|44:69|45:127,1,99.9999999999999,10|4,0:1|0:3,0:0:0:0:
84,219,207179,5,14,0:1:0:0:
15,291,207500,1,10,0:2:0:0:
92,353,207820,2,0,L|140:340,1,50,10|10,0:1|0:1,0:0:0:0:
184,315,208141,1,10,0:2:0:0:
184,315,208302,2,0,L|293:338,1,99.9999999999999,14|8,0:1|0:1,0:0:0:0:
321,365,208783,1,8,0:2:0:0:
392,295,209104,2,0,L|449:308,2,50,10|10|10,0:1|0:1|0:2,0:0:0:0:
358,257,209585,6,0,P|346:212|385:160,1,99.9999999999999,14|8,0:1|0:1,0:0:0:0:
409,134,210066,1,8,0:2:0:0:
345,56,210387,2,0,L|334:-3,2,50,10|10|10,0:1|0:1|0:2,0:0:0:0:
271,123,211029,2,0,L|164:94,1,99.9999999999999,14|10,0:1|0:2,0:0:0:0:
84,51,211671,1,10,0:1:0:0:
34,138,211992,2,0,L|46:192,1,50,10|10,0:2|0:2,0:0:0:0:
76,225,212312,6,0,L|50:332,1,99.9999999999999,14|10,0:1|0:2,0:0:0:0:
139,372,212954,2,0,L|204:357,1,50,10|10,0:1|0:1,0:0:0:0:
226,328,213275,1,10,0:2:0:0:
226,328,213435,2,0,P|249:285|234:232,1,99.9999999999999,14|8,0:1|0:1,0:0:0:0:
204,198,213917,1,8,0:2:0:0:
255,112,214237,2,0,L|242:52,2,50,10|10|10,0:1|0:1|0:2,0:0:0:0:
299,139,214719,6,0,L|412:162,1,99.9999999999999,14|8,0:1|0:1,0:0:0:0:
444,141,215200,1,8,0:2:0:0:
496,226,215521,2,0,L|482:279,1,50,10|8,0:1|0:1,0:0:0:0:
500,321,215842,1,8,0:2:0:0:
421,382,216163,1,14,0:1:0:0:
421,382,216323,1,10,0:1:0:0:
355,306,216644,1,2,0:0:0:0:
271,360,216965,2,0,P|247:318|260:263,1,99.9999999999999,10|8,0:1|0:2,0:0:0:0:
283,227,217446,5,14,0:1:0:0:
227,143,217767,1,10,0:2:0:0:
157,214,218088,2,0,L|108:224,1,50,10|10,0:1|0:1,0:0:0:0:
73,260,218409,1,10,0:2:0:0:
73,260,218569,6,0,L|50:151,1,99.9999999999999,14|8,0:1|0:1,0:0:0:0:
28,117,219050,1,8,0:2:0:0:
112,63,219371,2,0,L|125:-3,2,50,10|10|10,0:1|0:1|0:2,0:0:0:0:
142,102,219852,2,0,P|178:128|239:115,1,99.9999999999999,14|8,0:1|0:1,0:0:0:0:
269,89,220334,1,8,0:2:0:0:
347,27,220655,2,0,L|403:45,1,50,10|10,0:1|0:1,0:0:0:0:
435,71,220975,1,10,0:2:0:0:
384,157,221296,6,0,L|407:261,1,99.9999999999999,14|10,0:1|0:2,0:0:0:0:
428,299,221778,1,10,0:1:0:0:
355,366,222098,1,10,0:2:0:0:
355,366,222259,1,8,0:2:0:0:
281,298,222580,6,0,P|234:291|186:327,1,99.9999999999999,14|10,0:1|0:2,0:0:0:0:
163,359,223061,1,10,0:2:0:0:
82,299,223382,1,10,0:2:0:0:
143,220,223703,2,0,L|119:109,1,99.9999999999999,14|8,0:2|0:3,0:0:0:0:
107,74,224184,1,8,0:1:0:0:
193,24,224505,2,0,L|296:46,1,99.9999999999999,8|8,0:1|0:2,0:0:0:0:
256,192,225147,12,0,227874,0:0:0:0:
