osu file format v14

[General]
AudioFilename: audio.mp3
AudioLeadIn: 0
PreviewTime:51814
Countdown: 0
SampleSet: Soft
StackLeniency: 0.7
Mode: 0
LetterboxInBreaks: 0
WidescreenStoryboard: 1
EpilepsyWarning: 1

[Editor]
Bookmarks: 544,87831,150718,151039,151360,151681,152002,152322,152643,152964,153285,153606,153927,154247,154568,154889,155210,155531,155852,156173,156493,156814,157135,157456,157777,158098,158419,158739,159060,159381,159702,160023,160344,160665,160986,191788,225157,227884
DistanceSpacing: 1.5
BeatDivisor: 4
GridSize: 32
TimelineZoom: 1.9

[Metadata]
Title:Univer Page
TitleUnicode:ユニバーページ
Artist:Mimori Suzuko
ArtistUnicode:三森すずこ
Creator:Amateurre
Version:Amawari's Insane
Source:アウトブレイク・カンパニー
Tags:outbreak company moeru shinryakusha 萌える侵略者 moe invaders japanese pop j-pop jpop anime midorijeon shizuku- shikibe mayu kazato asa kowari xidorn koldnoodl airiesu pile ayamemymommy yogurtt
BeatmapID:3390576
BeatmapSetID:1658721

[Difficulty]
HPDrainRate:6
CircleSize:4
OverallDifficulty:7.6
ApproachRate:9
SliderMultiplier:1.7
SliderTickRate:1

[Events]
//Background and Video events
0,0,"amateurre_pinged_me_for_best_girl.jpg",0,0
//Break Periods
2,77753,87220
2,156042,160375
//Storyboard Layer 0 (Background)
//Storyboard Layer 1 (Fail)
//Storyboard Layer 2 (Pass)
//Storyboard Layer 3 (Foreground)
Sprite,Foreground,Centre,"sb\kowari.png",595.2,86.40003 F,0,544,862,0,1 S,0,544,77553,0.4530909 F,0,77553,87830,0 F,0,160985,191787,1
Sprite,Foreground,Centre,"sb\amateurre.png",595.2,86.40003 F,0,87830,150708,1 S,0,87830,150708,0.4530909 F,0,150708,160985,0 F,0,191787,227072,1
//Storyboard Layer 4 (Overlay)
//Storyboard Sound Samples

[TimingPoints]
-725,317.460317460317,4,2,1,70,1,0
544,-100,4,2,1,55,0,0
3115,320.855614973262,4,2,2,75,1,0
8248,-100,4,2,1,75,0,0
13382,-125,4,2,2,70,0,0
18516,-125,4,2,1,70,0,0
23649,-111.111111111111,4,2,2,70,0,0
31992,-111.111111111111,4,2,1,70,0,0
32633,-111.111111111111,4,2,2,70,0,0
33917,-111.111111111111,4,2,1,65,0,0
41457,-111.111111111111,4,2,2,65,0,0
42740,-111.111111111111,4,2,1,65,0,0
44184,-111.111111111111,4,2,2,65,0,0
49478,-111.111111111111,4,2,2,45,0,0
49639,-111.111111111111,4,2,2,50,0,0
49799,-111.111111111111,4,2,2,55,0,0
49959,-111.111111111111,4,2,2,60,0,0
50120,-111.111111111111,4,2,2,65,0,0
50280,-111.111111111111,4,2,2,70,0,0
50441,-111.111111111111,4,2,2,75,0,0
51885,-100,4,2,2,80,0,1
53008,-100,4,2,1,80,0,1
57018,-100,4,2,2,80,0,1
59585,-100,4,2,1,80,0,1
62152,-100,4,2,2,80,0,1
66644,-100,4,2,1,80,0,1
67286,-100,4,2,2,80,0,1
69852,-100,4,2,1,80,0,1
73542,-100,4,2,2,80,0,1
75628,-100,4,2,1,80,0,1
76270,-100,4,2,2,80,0,0
77553,-100,4,2,2,75,0,0
82687,-100,4,2,1,75,0,0
87820,-166.666666666666,4,2,2,75,0,0
88141,-166.666666666666,4,2,1,60,0,0
90387,-111.111111111111,4,2,1,70,0,0
92633,-111.111111111111,4,2,2,70,0,0
92954,-111.111111111111,4,2,1,70,0,0
98088,-111.111111111111,4,2,2,70,0,0
106431,-111.111111111111,4,2,1,70,0,0
107072,-111.111111111111,4,2,2,70,0,0
108356,-111.111111111111,4,2,1,65,0,0
115895,-111.111111111111,4,2,2,65,0,0
117178,-111.111111111111,4,2,1,65,0,0
118622,-111.111111111111,4,2,2,65,0,0
123916,-111.111111111111,4,2,2,45,0,0
124077,-111.111111111111,4,2,2,50,0,0
124237,-111.111111111111,4,2,2,55,0,0
124397,-111.111111111111,4,2,2,60,0,0
124558,-111.111111111111,4,2,2,65,0,0
124718,-111.111111111111,4,2,2,70,0,0
124879,-111.111111111111,4,2,2,75,0,0
126323,-100,4,2,2,80,0,1
127446,-100,4,2,1,80,0,1
131456,-100,4,2,2,80,0,1
134023,-100,4,2,1,80,0,1
136590,-100,4,2,2,80,0,1
141082,-100,4,2,1,80,0,1
141724,-100,4,2,2,80,0,1
144290,-100,4,2,1,80,0,1
147980,-100,4,2,2,80,0,1
150066,-100,4,2,1,80,0,1
150708,-100,4,2,2,80,0,0
151992,-100,4,2,2,60,0,0
160975,-111.111111111111,4,2,3,65,0,0
172526,-111.111111111111,4,2,2,65,0,0
177018,-111.111111111111,4,2,1,65,0,0
177660,-111.111111111111,4,2,2,65,0,0
181510,-100,4,2,2,80,0,1
182633,-100,4,2,1,80,0,1
191777,-100,4,2,2,80,0,1
196269,-100,4,2,1,80,0,1
196911,-100,4,2,2,80,0,1
199477,-100,4,2,1,80,0,1
203167,-100,4,2,2,80,0,1
205253,-100,4,2,1,80,0,1
205895,-100,4,2,2,80,0,0
207179,-100,4,2,2,75,0,0
208302,-100,4,2,1,75,0,0
212312,-100,4,2,2,75,0,0
213435,-100,4,2,1,75,0,0
217446,-100,4,2,2,75,0,0
218569,-100,4,2,1,75,0,0
223703,-100,4,2,2,75,0,0

[Colours]
Combo1 : 141,252,158
Combo2 : 251,220,164
Combo3 : 154,227,252
Combo4 : 244,199,254

[HitObjects]
256,192,544,12,2,2767,0:0:0:0:
201,293,3115,6,0,P|343:274|400:268,2,170,14|8|10,0:1|0:0|0:1,0:0:0:0:
58,192,3917,1,8,0:1:0:0:
124,354,4077,2,0,P|110:297|115:256,1,85,8|0,0:2|0:0,0:0:0:0:
282,125,4398,6,0,P|220:140|128:85,1,170,10|10,0:1|0:2,0:0:0:0:
368,64,4879,2,0,P|383:121|374:164,1,85,10|0,0:1|0:0,0:0:0:0:
281,278,5200,1,10,0:1:0:0:
236,158,5360,1,8,0:2:0:0:
406,270,5521,5,0,0:0:0:0:
406,270,5601,1,0,0:0:0:0:
406,270,5681,2,0,P|456:277|500:279,1,85,10|0,0:1|0:0,0:0:0:0:
309,165,6002,2,0,P|266:167|224:173,1,85,10|0,0:0|0:0,0:0:0:0:
375,383,6323,2,0,P|392:271|349:220,1,170,10|8,0:1|0:2,0:0:0:0:
210,162,6804,1,0,0:0:0:0:
123,276,6965,6,0,P|72:281|29:281,1,85,10|0,0:1|0:0,0:0:0:0:
249,312,7286,1,10,0:2:0:0:
177,163,7446,2,0,P|150:281|144:349,1,170,10|10,0:1|0:1,0:0:0:0:
290,168,7927,2,0,P|287:104|276:67,1,85,8|0,0:2|0:0,0:0:0:0:
62,71,8248,6,0,P|90:128|196:129,2,170,14|8|10,0:1|0:0|0:1,0:0:0:0:
210,17,9050,1,8,0:1:0:0:
289,142,9211,2,0,P|286:206|275:243,1,85,8|0,0:2|0:0,0:0:0:0:
469,56,9532,5,10,0:1:0:0:
390,183,9692,1,2,0:0:0:0:
350,14,9852,1,8,0:2:0:0:
501,78,10013,2,0,B|514:210|514:210|496:250,1,170,10|10,0:1|0:1,0:0:0:0:
389,361,10494,2,0,P|378:293|374:255,1,85,8|0,0:2|0:0,0:0:0:0:
354,144,10815,1,14,0:1:0:0:
256,192,10895,12,2,11778,0:0:0:0:
22,234,12098,6,0,P|82:222|130:210,1,85,14|0,0:1|0:0,0:0:0:0:
181,110,12419,2,0,P|222:117|264:127,1,85,8|0,0:1|0:0,0:0:0:0:
361,221,12740,1,8,0:2:0:0:
361,221,12820,1,8,0:2:0:0:
225,304,12981,1,8,0:2:0:0:
225,304,13061,1,10,0:2:0:0:
342,368,13221,1,10,0:2:0:0:
259,201,13382,6,0,P|248:116|288:49,2,136,14|10|10,0:1|0:2|0:1,0:0:0:0:
376,101,14184,2,0,P|384:45|387:17,1,68,10|8,0:1|0:2,0:0:0:0:
437,186,14505,1,2,0:0:0:0:
267,71,14665,6,0,P|197:50|128:40,1,136,8|10,0:1|0:2,0:0:0:0:
6,128,15147,1,0,0:0:0:0:
147,189,15307,1,10,0:1:0:0:
40,240,15467,1,8,0:1:0:0:
127,107,15628,2,0,P|136:68|132:30,1,68,10|0,0:2|0:0,0:0:0:0:
40,240,15949,6,0,P|92:207|188:221,2,136,10|8|10,0:1|0:2|0:1,0:0:0:0:
134,356,16751,1,8,0:1:0:0:
225,285,16911,2,0,P|268:292|300:299,1,68,10|0,0:2|0:0,0:0:0:0:
126,375,17232,6,0,P|113:249|110:215,1,136,10|10,0:1|0:2,0:0:0:0:
31,102,17713,2,0,P|87:108|121:119,1,68,10|0,0:1|0:0,0:0:0:0:
220,183,18034,1,8,0:1:0:0:
101,249,18195,1,14,0:2:0:0:
104,127,18355,1,2,0:0:0:0:
238,226,18516,6,0,P|320:232|371:196,2,136,14|10|10,0:1|0:2|0:1,0:0:0:0:
335,102,19318,1,10,0:1:0:0:
449,161,19478,2,0,L|445:253,1,68,8|2,0:2|0:0,0:0:0:0:
331,338,19799,2,0,L|328:270,1,68,8|0,0:1|0:0,0:0:0:0:
204,141,20120,6,0,P|299:151|358:165,1,136,10|10,0:2|0:1,0:0:0:0:
240,234,20601,1,8,0:1:0:0:
313,68,20762,2,0,P|263:58|217:55,1,68,10|0,0:2|0:0,0:0:0:0:
83,18,21082,6,0,P|90:60|98:89,1,68,10|8,0:1|0:1,0:0:0:0:
161,210,21403,2,0,P|169:177|174:143,1,68,8|10,0:2|0:2,0:0:0:0:
48,273,21724,2,0,L|199:246,2,136,10|10|10,0:1|0:2|0:1,0:0:0:0:
90,176,22526,5,8,0:2:0:0:
177,338,22687,1,10,0:2:0:0:
302,259,22847,1,10,0:2:0:0:
302,259,22927,1,8,0:2:0:0:
302,259,23008,1,8,0:2:0:0:
203,167,23168,1,4,0:3:0:0:
195,301,23328,1,10,0:1:0:0:
326,283,23489,1,10,0:1:0:0:
344,126,23649,6,0,P|423:135|518:159,1,152.999995330811,14|10,0:1|0:2,0:0:0:0:
373,267,24131,1,0,0:0:0:0:
250,157,24291,2,0,P|242:95|245:65,1,76.4999976654053,10|10,0:1|0:1,0:0:0:0:
412,17,24612,2,0,P|420:79|417:109,1,76.4999976654053,8|2,0:2|0:0,0:0:0:0:
386,273,24933,6,0,P|316:278|235:219,1,152.999995330811,8|10,0:1|0:2,0:0:0:0:
185,124,25414,1,0,0:0:0:0:
64,224,25574,2,0,L|47:315,1,76.4999976654053,10|8,0:1|0:1,0:0:0:0:
160,384,25895,2,0,L|177:293,1,76.4999976654053,10|0,0:2|0:0,0:0:0:0:
124,132,26216,6,0,P|111:70|177:0,2,152.999995330811,10|8|10,0:1|0:2|0:1,0:0:0:0:
29,41,27018,1,8,0:1:0:0:
211,88,27179,2,0,P|252:84|291:75,1,76.4999976654053,8|0,0:2|0:0,0:0:0:0:
448,11,27500,6,0,P|436:73|425:120,1,76.4999976654053,10|0,0:1|0:0,0:0:0:0:
320,0,27820,1,10,0:2:0:0:
364,183,27981,2,0,P|427:205|512:174,1,152.999995330811,8|10,0:1|0:1,0:0:0:0:
506,178,28382,1,0,0:0:0:0:
506,178,28462,1,10,0:2:0:0:
433,86,28623,1,10,0:1:0:0:
332,265,28783,6,0,P|317:175|316:93,1,152.999995330811,14|10,0:1|0:2,0:0:0:0:
426,255,29264,2,0,P|417:307|403:352,1,76.4999976654053,2|8,0:0|0:1,0:0:0:0:
242,258,29585,2,0,P|251:206|265:161,1,76.4999976654053,10|8,0:1|0:2,0:0:0:0:
332,265,29906,1,0,0:0:0:0:
166,322,30066,6,0,P|228:293|320:310,2,152.999995330811,10|8|10,0:1|0:2|0:1,0:0:0:0:
54,175,30869,1,10,0:1:0:0:
206,206,31029,1,10,0:2:0:0:
99,75,31189,5,0,0:0:0:0:
99,75,31270,1,0,0:0:0:0:
99,75,31350,2,0,P|81:163|65:240,1,152.999995330811,14|8,0:1|0:2,0:0:0:0:
413,309,31991,2,0,P|431:221|447:144,1,152.999995330811,14|8,0:1|0:2,0:0:0:0:
277,16,32633,5,14,0:1:0:0:
171,106,32794,1,10,0:2:0:0:
171,106,32874,1,10,0:2:0:0:
171,106,32954,1,10,0:2:0:0:
333,147,33115,1,10,0:2:0:0:
195,263,33275,1,10,0:2:0:0:
241,158,33435,1,10,0:3:0:0:
99,308,33596,1,6,0:3:0:0:
78,219,33756,1,6,0:3:0:0:
23,349,33917,6,0,P|88:368|175:336,1,152.999995330811,14|10,0:1|0:1,0:0:0:0:
238,211,34398,1,0,0:0:0:0:
94,268,34558,2,0,P|85:218|85:175,1,76.4999976654053,10|0,0:1|0:0,0:0:0:0:
226,99,34879,2,0,P|223:137|216:174,1,76.4999976654053,10|0,0:1|0:0,0:0:0:0:
96,59,35200,6,0,P|235:45|280:41,1,152.999995330811,10|8,0:1|0:1,0:0:0:0:
361,140,35681,1,2,0:2:0:0:
417,28,35842,2,0,L|427:-22,2,38.2499988327027,10|0|0,0:1|0:0|0:0,0:0:0:0:
332,90,36163,1,8,0:1:0:0:
470,132,36323,1,0,0:0:0:0:
383,193,36483,6,0,P|370:235|362:284,1,76.4999976654053,10|0,0:1|0:0,0:0:0:0:
457,319,36804,2,0,P|470:277|478:228,1,76.4999976654053,10|0,0:1|0:0,0:0:0:0:
259,262,37125,2,0,P|271:317|283:355,1,76.4999976654053,10|0,0:1|0:0,0:0:0:0:
383,193,37446,2,0,P|333:175|285:167,1,76.4999976654053,10|0,0:1|0:0,0:0:0:0:
179,327,37767,6,0,P|159:262|201:181,1,152.999995330811,10|8,0:1|0:1,0:0:0:0:
314,135,38248,1,2,0:2:0:0:
191,49,38409,1,10,0:1:0:0:
170,203,38569,1,8,0:2:0:0:
286,50,38729,1,10,0:2:0:0:
170,203,38890,1,10,0:2:0:0:
91,103,39050,6,0,P|43:93|11:94,1,76.4999976654053,14|0,0:1|0:0,0:0:0:0:
156,184,39371,2,0,P|188:147|203:119,1,76.4999976654053,10|0,0:2|0:0,0:0:0:0:
43,195,39692,2,0,P|58:241|75:268,1,76.4999976654053,10|8,0:1|0:2,0:0:0:0:
231,193,40013,2,0,P|215:146|198:119,1,76.4999976654053,10|8,0:2|0:2,0:0:0:0:
2,338,40334,6,0,P|86:354|162:319,1,152.999995330811,10|8,0:1|0:2,0:0:0:0:
266,196,40815,1,2,0:2:0:0:
337,281,40975,2,0,P|389:289|438:290,2,76.4999976654053,10|8|10,0:2|0:1|0:1,0:0:0:0:
217,86,41457,6,0,P|225:180|235:257,1,152.999995330811,14|8,0:1|0:1,0:0:0:0:
347,368,41938,2,0,P|361:310|368:266,1,76.4999976654053,10|0,0:2|0:0,0:0:0:0:
478,151,42259,2,0,P|425:159|390:166,1,76.4999976654053,10|8,0:1|0:1,0:0:0:0:
232,238,42580,1,10,0:2:0:0:
271,57,42740,6,0,P|344:31|434:84,1,152.999995330811,14|8,0:1|0:1,0:0:0:0:
180,113,43221,2,0,P|163:60|166:14,1,76.4999976654053,10|0,0:2|0:0,0:0:0:0:
347,128,43543,2,0,P|343:165|329:201,1,76.4999976654053,10|8,0:1|0:1,0:0:0:0:
193,273,43863,2,0,L|59:261,1,114.749996498108,10|0,0:2|0:0,0:0:0:0:
61,223,44184,6,0,P|22:272|12:364,1,152.999995330811,14|10,0:1|0:2,0:0:0:0:
124,297,44665,1,2,0:2:0:0:
14,140,44826,2,0,P|63:134|98:134,1,76.4999976654053,10|10,0:1|0:1,0:0:0:0:
224,224,45147,1,10,0:2:0:0:
170,8,45307,6,0,P|150:84|129:182,1,152.999995330811,10|8,0:1|0:1,0:0:0:0:
323,104,45788,2,0,P|278:93|229:89,1,76.4999976654053,8|0,0:2|0:0,0:0:0:0:
350,198,46109,1,10,0:1:0:0:
466,67,46270,1,10,0:1:0:0:
507,196,46430,2,0,P|509:248|510:282,1,76.4999976654053,10|0,0:2|0:0,0:0:0:0:
344,367,46751,6,0,P|326:287|391:235,2,152.999995330811,10|10|10,0:1|0:2|0:1,0:0:0:0:
498,269,47553,1,8,0:1:0:0:
370,240,47713,2,0,P|322:226|276:204,1,76.4999976654053,10|0,0:2|0:0,0:0:0:0:
223,79,48034,5,10,0:1:0:0:
347,123,48195,1,8,0:1:0:0:
374,0,48355,1,10,0:2:0:0:
188,71,48516,2,0,P|189:136|193:168,1,76.4999976654053,2|8,0:2|0:1,0:0:0:0:
297,257,48836,1,10,0:1:0:0:
173,377,48997,1,8,0:2:0:0:
173,377,49318,5,14,0:1:0:0:
36,296,49478,1,10,0:2:0:0:
268,265,49639,1,10,0:2:0:0:
107,220,49799,1,10,0:2:0:0:
259,154,49959,1,10,0:2:0:0:
175,332,50120,1,10,0:2:0:0:
259,154,50280,1,10,0:2:0:0:
88,110,50441,5,10,0:2:0:0:
102,184,50762,1,14,0:1:0:0:
116,257,51082,1,14,0:1:0:0:
18,37,51403,5,14,0:1:0:0:
18,37,51483,1,0,0:0:0:0:
18,37,51564,1,8,0:2:0:0:
18,37,51644,1,8,0:2:0:0:
18,37,51724,1,8,0:2:0:0:
18,37,51804,1,8,0:2:0:0:
18,37,51885,2,0,P|75:2|199:12,2,170,14|10|10,0:1|0:2|0:1,0:0:0:0:
244,141,52687,2,0,P|305:129|352:115,1,85,10|10,0:1|0:2,0:0:0:0:
116,100,53008,6,0,B|86:228|86:228|112:277,1,170,14|8,0:1|0:1,0:0:0:0:
226,362,53489,2,0,P|242:299|239:244,1,85,10|0,0:2|0:0,0:0:0:0:
394,189,53810,1,10,0:1:0:0:
435,340,53970,1,10,0:1:0:0:
290,270,54131,1,10,0:2:0:0:
486,203,54291,6,0,P|504:113|449:49,1,170,14|8,0:1|0:1,0:0:0:0:
327,154,54772,2,0,P|391:151|433:128,1,85,10|0,0:2|0:0,0:0:0:0:
244,24,55093,2,0,P|230:88|228:118,1,85,10|8,0:1|0:1,0:0:0:0:
342,237,55414,2,0,P|336:194|326:153,1,85,10|0,0:2|0:0,0:0:0:0:
125,91,55735,5,14,0:1:0:0:
83,216,55895,1,0,0:0:0:0:
216,167,56056,1,10,0:2:0:0:
91,94,56216,1,2,0:0:0:0:
91,94,56296,1,0,0:0:0:0:
91,94,56377,1,8,0:1:0:0:
59,244,56537,1,10,0:1:0:0:
209,280,56697,1,10,0:2:0:0:
31,354,56858,5,8,0:2:0:0:
31,354,56938,1,8,0:2:0:0:
31,354,57018,2,0,P|5:290|72:203,2,170,14|8|10,0:1|0:2|0:1,0:0:0:0:
166,257,57820,1,8,0:1:0:0:
166,257,57981,2,0,P|224:247|263:243,1,85,10|0,0:2|0:0,0:0:0:0:
409,349,58302,6,0,P|336:339|303:330,1,85,10|8,0:1|0:1,0:0:0:0:
342,148,58623,2,0,P|369:216|378:249,1,85,10|0,0:2|0:0,0:0:0:0:
219,383,58944,2,0,P|191:314|190:278,1,85,10|8,0:1|0:1,0:0:0:0:
245,131,59264,1,10,0:2:0:0:
291,261,59425,1,0,0:0:0:0:
322,50,59585,6,0,P|236:80|136:77,2,170,14|10|10,0:1|0:2|0:1,0:0:0:0:
464,134,60387,2,0,P|475:181|465:224,1,85,8|10,0:1|0:2,0:0:0:0:
336,326,60708,6,0,P|352:216|365:145,1,170,14|10,0:1|0:2,0:0:0:0:
446,247,61189,1,0,0:0:0:0:
257,264,61350,1,10,0:1:0:0:
257,264,61430,1,10,0:1:0:0:
257,264,61510,1,10,0:2:0:0:
334,81,61671,1,10,0:2:0:0:
32,190,61992,5,8,0:2:0:0:
32,190,62072,1,8,0:2:0:0:
32,190,62152,2,0,P|12:237|56:355,1,170,14|10,0:1|0:2,0:0:0:0:
205,380,62633,1,0,0:0:0:0:
209,241,62794,2,0,P|143:247|104:257,1,85,10|10,0:2|0:1,0:0:0:0:
92,58,63114,2,0,P|106:104|124:145,1,85,10|10,0:2|0:1,0:0:0:0:
305,94,63435,6,0,P|243:87|209:84,1,85,8|0,0:2|0:0,0:0:0:0:
424,27,63756,2,0,B|434:85|439:122,1,85,10|8,0:2|0:1,0:0:0:0:
352,288,64077,1,10,0:2:0:0:
293,179,64237,1,10,0:1:0:0:
439,219,64398,1,10,0:2:0:0:
378,365,64558,1,10,0:1:0:0:
378,365,64639,1,0,0:0:0:0:
378,365,64719,6,0,P|313:369|242:278,2,170,8|8|10,0:2|0:2|0:2,0:0:0:0:
471,242,65521,1,8,0:1:0:0:
316,189,65681,1,10,0:2:0:0:
434,102,65842,1,8,0:1:0:0:
294,213,66002,6,0,P|211:194|119:170,1,170,14|10,0:2|0:2,0:0:0:0:
16,47,66483,2,0,P|35:97|32:147,1,85,10|12,0:1|0:2,0:0:0:0:
0,296,66804,1,10,0:1:0:0:
122,210,66965,1,10,0:2:0:0:
175,337,67125,5,8,0:2:0:0:
175,337,67205,1,8,0:2:0:0:
175,337,67286,2,0,P|236:352|336:297,2,170,14|8|10,0:1|0:2|0:1,0:0:0:0:
262,193,68088,1,8,0:1:0:0:
328,306,68248,2,0,P|385:317|433:319,1,85,10|0,0:2|0:0,0:0:0:0:
503,171,68569,6,0,P|443:181|401:191,1,85,10|8,0:1|0:1,0:0:0:0:
345,25,68890,2,0,P|334:87|329:122,1,85,8|0,0:2|0:0,0:0:0:0:
226,225,69211,2,0,P|219:183|211:141,1,85,10|8,0:1|0:1,0:0:0:0:
96,84,69532,2,0,P|48:74|-5:68,1,85,8|0,0:2|0:0,0:0:0:0:
53,331,69852,6,0,P|95:260|52:173,2,170,14|8|8,0:1|0:2|0:1,0:0:0:0:
0,245,70655,1,8,0:1:0:0:
161,349,70815,1,10,0:2:0:0:
226,222,70975,1,10,0:1:0:0:
226,222,71056,1,10,0:1:0:0:
226,222,71136,5,10,0:2:0:0:
51,321,71296,1,10,0:2:0:0:
347,274,71778,5,10,0:2:0:0:
147,151,71938,1,10,0:2:0:0:
421,100,72419,6,0,P|431:47|436:9,1,85,14|0,0:1|0:0,0:0:0:0:
299,70,72740,1,10,0:2:0:0:
339,255,72901,1,10,0:2:0:0:
347,274,73221,1,10,0:2:0:0:
355,293,73542,6,0,P|286:333|186:308,1,170,14|8,0:1|0:3,0:0:0:0:
75,232,74024,2,0,P|133:216|166:210,1,85,4|8,0:3|0:3,0:0:0:0:
157,211,74264,1,8,0:3:0:0:
157,211,74344,1,10,0:3:0:0:
269,237,74505,1,4,0:3:0:0:
335,83,74665,1,10,0:2:0:0:
225,127,74826,1,4,0:3:0:0:
374,184,74986,6,0,P|381:120|394:60,2,113.333333333333,14|2|2,0:1|0:2|0:2,0:0:0:0:
251,241,75628,2,0,P|264:303|271:360,2,113.333333333333,14|2|2,0:1|0:2|0:2,0:0:0:0:
159,167,76270,6,0,P|75:142|3:191,1,170,14|0,0:1|0:0,0:0:0:0:
97,263,76751,1,2,0:0:0:0:
97,263,76831,1,2,0:0:0:0:
97,263,76911,1,10,0:1:0:0:
296,147,77232,5,4,0:3:0:0:
203,263,77393,2,0,L|211:310,1,42.5,8|8,0:2|0:2,0:0:0:0:
228,384,77553,1,14,0:1:0:0:
399,338,87820,5,14,0:1:0:0:
399,338,88302,1,8,0:1:0:0:
491,141,89264,5,2,0:2:0:0:
463,127,89425,1,2,0:2:0:0:
433,124,89585,1,0,0:0:0:0:
404,132,89746,1,2,0:2:0:0:
379,150,89906,1,0,0:0:0:0:
363,176,90066,2,0,P|341:171|313:165,1,50.9999984436036,10|0,0:2|0:0,0:0:0:0:
221,91,90387,6,0,P|209:166|203:242,1,152.999995330811,14|8,0:1|0:2,0:0:0:0:
106,326,90869,1,2,0:0:0:0:
19,255,91029,2,0,P|79:241|110:227,1,76.4999976654053,10|8,0:1|0:1,0:0:0:0:
190,352,91350,2,0,P|153:339|116:332,1,76.4999976654053,10|8,0:2|0:1,0:0:0:0:
39,168,91671,6,0,P|143:198|213:207,1,152.999995330811,10|10,0:1|0:2,0:0:0:0:
347,270,92152,2,0,P|332:211|323:165,1,76.4999976654053,10|0,0:1|0:0,0:0:0:0:
389,69,92473,1,8,0:1:0:0:
212,97,92633,2,0,P|269:108|306:123,1,76.4999976654053,10|2,0:2|0:0,0:0:0:0:
478,232,92954,6,0,P|401:223|338:293,2,152.999995330811,14|10|10,0:1|0:2|0:1,0:0:0:0:
374,356,93756,2,0,P|338:349|298:341,1,76.4999976654053,10|8,0:1|0:2,0:0:0:0:
220,233,94077,2,0,P|211:291|201:384,1,152.999995330811,2|0,0:0|0:0,0:0:0:0:
118,261,94558,2,0,P|105:218|189:130,1,152.999995330811,10|10,0:2|0:1,0:0:0:0:
316,74,95040,1,8,0:1:0:0:
206,0,95200,2,0,P|223:49|230:81,1,76.4999976654053,10|0,0:2|0:0,0:0:0:0:
327,180,95521,6,0,B|406:169|396:217|502:203,1,152.999995330811,10|8,0:1|0:2,0:0:0:0:
346,258,96002,1,10,0:2:0:0:
253,125,96163,2,0,P|235:170|238:211,1,76.4999976654053,10|8,0:1|0:1,0:0:0:0:
159,305,96483,2,0,P|157:267|141:232,1,76.4999976654053,10|0,0:2|0:0,0:0:0:0:
13,151,96804,5,10,0:1:0:0:
168,78,96965,1,8,0:2:0:0:
68,0,97125,2,0,P|83:34|85:72,1,76.4999976654053,10|10,0:2|0:2,0:0:0:0:
78,91,97366,1,8,0:2:0:0:
78,91,97446,1,8,0:2:0:0:
198,171,97606,1,4,0:3:0:0:
57,254,97767,1,10,0:1:0:0:
100,173,97927,1,10,0:1:0:0:
201,283,98088,6,0,P|272:292|357:318,2,152.999995330811,14|10|10,0:1|0:2|0:1,0:0:0:0:
84,341,98890,2,0,P|75:295|63:257,1,76.4999976654053,10|8,0:1|0:2,0:0:0:0:
2,141,99211,2,0,P|71:183|159:147,1,152.999995330811,2|0,0:0|0:0,0:0:0:0:
284,66,99692,2,0,P|213:54|107:21,1,152.999995330811,10|10,0:2|0:1,0:0:0:0:
228,144,100173,1,8,0:1:0:0:
362,15,100334,2,0,P|370:56|375:101,1,76.4999976654053,10|0,0:2|0:0,0:0:0:0:
480,195,100655,6,0,B|393:179|417:233|326:211,1,152.999995330811,10|8,0:1|0:2,0:0:0:0:
213,183,101136,1,2,0:0:0:0:
239,339,101296,2,0,P|253:278|264:244,1,76.4999976654053,10|8,0:1|0:1,0:0:0:0:
220,99,101617,2,0,P|209:135|201:173,1,76.4999976654053,8|0,0:2|0:0,0:0:0:0:
123,287,101938,6,0,P|191:256|279:286,1,152.999995330811,10|10,0:1|0:2,0:0:0:0:
448,256,102419,1,8,0:1:0:0:
448,256,102500,1,0,0:0:0:0:
448,256,102580,1,10,0:2:0:0:
329,170,102740,1,10,0:1:0:0:
367,354,102901,2,0,P|362:302|349:252,1,76.4999976654053,10|10,0:2|0:1,0:0:0:0:
255,116,103221,6,0,B|342:100|318:154|409:132,1,152.999995330811,14|10,0:1|0:2,0:0:0:0:
512,35,103703,2,0,P|424:17|369:74,1,152.999995330811,2|10,0:0|0:1,0:0:0:0:
270,190,104184,2,0,P|261:133|247:98,1,76.4999976654053,8|0,0:2|0:0,0:0:0:0:
125,17,104505,6,0,P|108:85|100:168,2,152.999995330811,14|8|10,0:1|0:2|0:1,0:0:0:0:
21,103,105307,1,10,0:1:0:0:
182,166,105467,2,0,P|124:174|83:190,1,76.4999976654053,10|8,0:2|0:0,0:0:0:0:
5,280,105788,6,0,P|43:320|155:305,1,152.999995330811,14|8,0:1|0:2,0:0:0:0:
221,256,106270,1,0,0:0:0:0:
296,384,106430,2,0,P|308:269|319:227,1,152.999995330811,14|8,0:1|0:2,0:0:0:0:
264,110,106911,1,0,0:0:0:0:
388,157,107072,6,0,P|441:146|486:143,1,76.4999976654053,14|10,0:1|0:2,0:0:0:0:
489,153,107312,1,10,0:2:0:0:
489,153,107393,1,10,0:2:0:0:
413,240,107553,1,10,0:2:0:0:
270,106,107713,1,10,0:2:0:0:
210,287,107874,1,10,0:3:0:0:
296,215,108034,1,6,0:3:0:0:
210,173,108195,1,6,0:3:0:0:
200,298,108355,6,0,P|118:313|43:340,2,152.999995330811,14|10|10,0:1|0:1|0:1,0:0:0:0:
384,255,109157,1,0,0:0:0:0:
384,255,109237,1,0,0:0:0:0:
384,255,109318,2,0,P|381:293|374:330,1,76.4999976654053,10|0,0:1|0:0,0:0:0:0:
285,269,109639,6,0,P|271:130|267:85,1,152.999995330811,10|8,0:1|0:1,0:0:0:0:
125,41,110120,1,2,0:2:0:0:
220,6,110281,2,0,L|212:43,2,38.2499988327027,10|0|0,0:1|0:0|0:0,0:0:0:0:
162,143,110602,1,8,0:1:0:0:
282,100,110762,1,0,0:0:0:0:
379,227,110922,6,0,P|421:240|470:248,1,76.4999976654053,10|0,0:1|0:0,0:0:0:0:
505,153,111243,2,0,P|463:140|414:132,1,76.4999976654053,10|0,0:1|0:0,0:0:0:0:
288,222,111564,2,0,P|300:277|312:315,1,76.4999976654053,10|0,0:1|0:0,0:0:0:0:
227,372,111885,2,0,P|218:334|204:299,1,76.4999976654053,10|0,0:1|0:0,0:0:0:0:
197,175,112206,6,0,P|130:208|57:188,1,152.999995330811,10|8,0:1|0:1,0:0:0:0:
117,118,112687,1,2,0:2:0:0:
236,269,112848,1,10,0:1:0:0:
270,106,113009,1,8,0:2:0:0:
138,231,113169,1,10,0:2:0:0:
270,106,113329,1,10,0:2:0:0:
391,212,113489,6,0,P|325:199|297:202,1,76.4999976654053,14|0,0:1|0:0,0:0:0:0:
356,50,113810,2,0,P|376:100|382:136,1,76.4999976654053,10|0,0:2|0:0,0:0:0:0:
461,267,114131,2,0,P|481:217|487:181,1,76.4999976654053,10|8,0:1|0:2,0:0:0:0:
495,81,114452,2,0,P|461:99|425:110,1,76.4999976654053,10|8,0:2|0:2,0:0:0:0:
273,17,114773,6,0,P|189:1|113:36,1,152.999995330811,10|8,0:1|0:2,0:0:0:0:
107,140,115254,1,2,0:2:0:0:
23,75,115415,2,0,P|31:23|32:-26,2,76.4999976654053,10|8|10,0:2|0:1|0:1,0:0:0:0:
208,114,115896,6,0,P|216:208|226:285,1,152.999995330811,14|8,0:1|0:1,0:0:0:0:
111,384,116377,2,0,P|125:326|132:282,1,76.4999976654053,10|0,0:2|0:0,0:0:0:0:
23,182,116698,2,0,P|76:190|111:197,1,76.4999976654053,10|8,0:1|0:1,0:0:0:0:
23,279,117019,1,10,0:2:0:0:
209,237,117179,6,0,P|283:229|344:273,1,152.999995330811,14|8,0:1|0:1,0:0:0:0:
284,384,117660,2,0,P|267:331|270:285,1,76.4999976654053,10|0,0:2|0:0,0:0:0:0:
441,263,117982,2,0,P|437:300|423:336,1,76.4999976654053,10|8,0:1|0:1,0:0:0:0:
355,198,118302,2,0,L|367:64,1,114.749996498108,10|0,0:2|0:0,0:0:0:0:
315,14,118623,6,0,P|376:58|452:63,1,152.999995330811,14|10,0:1|0:2,0:0:0:0:
346,187,119104,1,2,0:2:0:0:
262,81,119265,2,0,P|256:118|255:157,1,76.4999976654053,10|10,0:1|0:1,0:0:0:0:
208,228,119586,1,10,0:2:0:0:
349,302,119746,6,0,P|425:282|523:261,1,152.999995330811,10|8,0:1|0:1,0:0:0:0:
512,382,120227,2,0,P|467:371|418:367,1,76.4999976654053,8|0,0:2|0:0,0:0:0:0:
324,204,120548,1,10,0:1:0:0:
418,256,120709,1,10,0:1:0:0:
269,365,120869,2,0,P|267:326|266:288,1,76.4999976654053,10|0,0:2|0:0,0:0:0:0:
149,171,121190,6,0,P|69:153|17:218,2,152.999995330811,14|10|10,0:1|0:2|0:1,0:0:0:0:
299,109,121992,1,8,0:1:0:0:
185,29,122152,2,0,P|199:64|209:101,1,76.4999976654053,10|0,0:2|0:0,0:0:0:0:
257,199,122473,5,10,0:1:0:0:
122,164,122634,1,8,0:1:0:0:
275,210,122794,1,10,0:2:0:0:
161,335,122955,2,0,P|152:297|146:259,1,76.4999976654053,2|8,0:2|0:1,0:0:0:0:
202,123,123275,1,10,0:1:0:0:
46,70,123436,1,8,0:2:0:0:
46,70,123757,5,14,0:1:0:0:
169,12,123917,1,10,0:2:0:0:
216,160,124078,1,10,0:2:0:0:
119,103,124238,1,10,0:2:0:0:
70,253,124398,1,10,0:2:0:0:
242,166,124559,1,10,0:2:0:0:
43,93,124719,1,10,0:2:0:0:
187,258,124880,5,10,0:2:0:0:
261,273,125201,1,14,0:1:0:0:
334,287,125521,1,14,0:1:0:0:
475,216,125842,5,14,0:1:0:0:
475,216,125922,1,0,0:0:0:0:
475,216,126003,1,8,0:2:0:0:
475,216,126083,1,8,0:2:0:0:
475,216,126163,1,8,0:2:0:0:
475,216,126243,1,8,0:2:0:0:
475,216,126324,2,0,P|510:273|500:397,2,170,14|10|10,0:1|0:2|0:1,0:0:0:0:
306,150,127125,2,0,P|368:142|417:122,1,85,10|10,0:1|0:2,0:0:0:0:
408,292,127446,6,0,P|315:298|264:217,1,170,14|8,0:1|0:1,0:0:0:0:
154,178,127927,2,0,P|148:211|143:262,1,85,10|0,0:2|0:0,0:0:0:0:
277,128,128248,1,10,0:1:0:0:
258,328,128409,2,0,P|261:285|268:243,1,85,10|10,0:1|0:2,0:0:0:0:
343,52,128729,6,0,P|278:97|183:72,1,170,14|8,0:1|0:1,0:0:0:0:
20,104,129211,2,0,P|79:129|118:157,1,85,10|0,0:2|0:0,0:0:0:0:
225,228,129532,1,10,0:1:0:0:
66,269,129692,1,8,0:1:0:0:
169,382,129852,2,0,P|165:339|155:298,1,85,10|0,0:2|0:0,0:0:0:0:
109,147,130173,5,14,0:1:0:0:
237,246,130334,1,0,0:0:0:0:
288,69,130494,1,10,0:2:0:0:
208,137,130655,1,2,0:0:0:0:
208,137,130735,1,0,0:0:0:0:
208,137,130815,1,8,0:1:0:0:
339,177,130975,1,10,0:1:0:0:
478,214,131136,1,10,0:2:0:0:
390,340,131296,5,8,0:2:0:0:
390,340,131376,1,8,0:2:0:0:
390,340,131457,2,0,P|374:246|358:173,2,170,14|8|10,0:1|0:2|0:1,0:0:0:0:
275,227,132259,1,8,0:1:0:0:
444,168,132419,2,0,P|456:110|466:73,1,85,10|0,0:2|0:0,0:0:0:0:
313,3,132740,6,0,P|329:64|355:182,1,170,10|10,0:1|0:2,0:0:0:0:
275,322,133221,1,0,0:0:0:0:
420,278,133382,2,0,P|369:261|331:251,1,85,10|8,0:1|0:1,0:0:0:0:
178,170,133703,2,0,P|218:158|259:144,1,85,10|0,0:2|0:0,0:0:0:0:
272,333,134024,6,0,P|203:378|104:345,1,170,14|10,0:1|0:2,0:0:0:0:
105,184,134505,1,0,0:0:0:0:
29,253,134665,2,0,P|94:268|131:281,1,85,10|8,0:1|0:1,0:0:0:0:
205,191,134986,5,10,0:2:0:0:
281,347,135147,2,0,P|290:305|300:264,1,85,14|0,0:1|0:0,0:0:0:0:
413,193,135468,2,0,P|423:234|432:275,1,85,10|0,0:2|0:0,0:0:0:0:
303,174,135788,1,10,0:1:0:0:
303,174,135869,1,10,0:1:0:0:
303,174,135949,1,10,0:2:0:0:
294,363,136109,1,10,0:2:0:0:
512,256,136430,5,8,0:2:0:0:
512,256,136510,1,8,0:2:0:0:
512,256,136590,2,0,P|518:167|467:95,1,170,14|10,0:1|0:2,0:0:0:0:
334,174,137072,1,0,0:0:0:0:
368,0,137233,2,0,P|374:66|384:105,1,85,10|10,0:2|0:1,0:0:0:0:
420,222,137553,2,0,P|380:205|340:193,1,85,10|10,0:2|0:1,0:0:0:0:
163,267,137874,6,0,P|203:279|242:295,1,85,8|0,0:2|0:0,0:0:0:0:
343,384,138195,2,0,B|346:358|356:300,1,85,10|8,0:2|0:1,0:0:0:0:
205,188,138516,1,10,0:2:0:0:
152,353,138676,1,10,0:1:0:0:
265,294,138837,1,10,0:2:0:0:
112,220,138997,1,10,0:1:0:0:
112,220,139078,1,0,0:0:0:0:
112,220,139158,6,0,P|108:155|199:84,2,170,8|8|10,0:2|0:2|0:2,0:0:0:0:
244,326,139960,1,8,0:1:0:0:
61,362,140120,1,10,0:2:0:0:
125,233,140281,1,8,0:1:0:0:
257,345,140441,6,0,P|276:262|300:170,1,170,14|10,0:2|0:2,0:0:0:0:
185,45,140922,2,0,P|204:95|201:145,1,85,10|12,0:1|0:2,0:0:0:0:
304,262,141243,1,10,0:1:0:0:
152,235,141404,1,10,0:2:0:0:
301,361,141564,5,8,0:2:0:0:
301,361,141644,1,8,0:2:0:0:
301,361,141725,2,0,P|362:376|462:321,2,170,14|8|10,0:1|0:2|0:1,0:0:0:0:
173,229,142527,1,8,0:1:0:0:
211,384,142687,2,0,P|222:327|224:279,1,85,10|0,0:2|0:0,0:0:0:0:
97,178,143008,6,0,P|37:188|-5:198,1,85,10|8,0:1|0:1,0:0:0:0:
165,50,143329,2,0,P|176:112|181:147,1,85,8|0,0:2|0:0,0:0:0:0:
283,248,143650,2,0,P|296:203|304:161,1,85,10|8,0:1|0:1,0:0:0:0:
364,52,143971,2,0,P|316:62|263:68,1,85,8|0,0:2|0:0,0:0:0:0:
274,261,144291,6,0,P|345:303|432:260,2,170,14|8|8,0:1|0:2|0:1,0:0:0:0:
174,149,145094,1,8,0:1:0:0:
107,257,145254,1,10,0:2:0:0:
296,175,145414,1,10,0:1:0:0:
296,175,145495,1,10,0:1:0:0:
296,175,145575,5,10,0:2:0:0:
98,97,145735,1,10,0:2:0:0:
363,236,146217,5,10,0:2:0:0:
113,302,146377,1,10,0:2:0:0:
198,145,146858,6,0,P|208:92|213:54,1,85,14|0,0:1|0:0,0:0:0:0:
289,157,147179,1,10,0:2:0:0:
142,236,147340,1,10,0:2:0:0:
134,255,147660,1,10,0:2:0:0:
126,274,147981,6,0,P|195:314|295:289,1,170,14|8,0:1|0:3,0:0:0:0:
442,384,148463,2,0,P|426:326|420:293,1,85,4|8,0:3|0:3,0:0:0:0:
421,302,148703,1,8,0:3:0:0:
421,302,148783,1,10,0:3:0:0:
368,167,148944,1,4,0:3:0:0:
294,280,149104,1,10,0:2:0:0:
233,125,149265,1,4,0:3:0:0:
368,188,149425,6,0,P|432:195|493:209,2,113.333333333333,14|2|2,0:1|0:2|0:2,0:0:0:0:
280,291,150067,2,0,P|218:278|157:271,2,113.333333333333,14|2|2,0:1|0:2|0:2,0:0:0:0:
363,335,150708,1,14,0:1:0:0:
256,192,150788,12,10,155842,0:1:0:0:
147,244,160975,6,0,P|104:232|66:229,1,76.4999976654053,14|8,0:1|0:0,0:0:0:0:
21,315,161296,2,0,P|64:327|102:330,1,76.4999976654053,8|8,0:0|0:0,0:0:0:0:
239,299,161617,1,8,0:0:0:0:
239,299,161778,2,0,P|243:226|210:138,1,152.999995330811,8|8,0:0|0:0,0:0:0:0:
132,80,162259,6,0,P|86:87|49:93,2,76.4999976654053,10|8|8,0:1|0:2|0:0,0:0:0:0:
213,15,162740,1,8,0:2:0:0:
297,72,162901,1,8,0:2:0:0:
297,72,163061,1,8,0:2:0:0:
402,75,163221,2,0,P|409:20|412:-9,1,76.4999976654053,10|8,0:0|0:2,0:0:0:0:
484,136,163542,5,10,0:1:0:0:
362,154,163703,2,0,P|354:222|408:299,1,152.999995330811,8|8,0:2|0:2,0:0:0:0:
512,218,164184,2,0,P|458:205|422:208,1,76.4999976654053,10|8,0:2|0:2,0:0:0:0:
322,303,164505,2,0,P|360:301|396:290,1,76.4999976654053,10|8,0:0|0:0,0:0:0:0:
260,227,164826,5,10,0:1:0:0:
179,202,164986,1,8,0:2:0:0:
115,259,165147,1,8,0:0:0:0:
138,341,165307,1,8,0:2:0:0:
207,284,165467,5,10,0:2:0:0:
95,182,165628,1,8,0:2:0:0:
35,251,165788,1,8,0:2:0:0:
179,202,165949,1,8,0:2:0:0:
121,96,166109,6,0,P|75:80|32:69,1,76.4999976654053,12|8,0:1|0:0,0:0:0:0:
78,189,166430,2,0,P|90:224|101:261,1,76.4999976654053,8|8,0:0|0:0,0:0:0:0:
48,368,166751,1,10,0:0:0:0:
48,368,166911,2,0,P|106:382|184:330,1,152.999995330811,10|8,0:0|0:0,0:0:0:0:
227,215,167393,6,0,P|289:226|334:240,1,76.4999976654053,10|8,0:1|0:2,0:0:0:0:
390,283,167713,1,8,0:0:0:0:
473,210,167874,1,8,0:2:0:0:
360,161,168034,1,10,0:2:0:0:
360,161,168195,1,10,0:2:0:0:
438,83,168355,2,0,P|481:91|519:101,1,76.4999976654053,10|8,0:0|0:2,0:0:0:0:
370,169,168676,6,0,P|352:94|349:18,1,152.999995330811,10|10,0:1|0:0,0:0:0:0:
446,91,169157,1,8,0:2:0:0:
370,167,169318,2,0,P|316:178|286:179,1,76.4999976654053,10|8,0:2|0:2,0:0:0:0:
189,74,169639,2,0,P|227:77|264:86,1,76.4999976654053,10|8,0:0|0:0,0:0:0:0:
344,261,169959,5,10,0:1:0:0:
344,261,170120,2,0,P|278:264|200:204,1,152.999995330811,8|8,0:2|0:2,0:0:0:0:
125,99,170601,1,10,0:2:0:0:
65,204,170762,1,8,0:2:0:0:
200,184,170922,1,8,0:2:0:0:
149,66,171082,1,8,0:2:0:0:
17,116,171243,5,14,0:1:0:0:
453,302,172526,1,14,0:1:0:0:
453,302,172847,2,0,P|436:354|430:384,1,76.4999976654053,10|8,0:2|0:3,0:0:0:0:
290,242,173168,2,0,P|335:278|365:287,1,76.4999976654053,2|4,0:0|0:3,0:0:0:0:
498,140,173489,2,0,P|460:149|427:167,1,76.4999976654053,10|8,0:2|0:2,0:0:0:0:
427,167,173729,1,8,0:2:0:0:
427,167,173810,6,0,P|373:185|277:136,1,152.999995330811,14|10,0:1|0:1,0:0:0:0:
226,18,174291,1,0,0:0:0:0:
136,102,174451,2,0,P|120:156|116:182,1,76.4999976654053,10|0,0:1|0:0,0:0:0:0:
254,249,174772,2,0,P|246:211|234:175,1,76.4999976654053,10|2,0:1|0:0,0:0:0:0:
139,263,175093,6,0,P|147:321|159:381,1,114.749996498108,8|0,0:1|0:0,0:0:0:0:
160,384,175414,2,0,P|205:371|246:365,1,76.4999976654053,10|0,0:1|0:0,0:0:0:0:
369,289,175735,2,0,P|406:295|443:306,1,76.4999976654053,10|0,0:1|0:0,0:0:0:0:
268,224,176056,2,0,P|251:165|245:119,1,76.4999976654053,14|0,0:1|0:0,0:0:0:0:
354,21,176377,5,14,0:1:0:0:
142,143,177018,1,14,0:1:0:0:
289,267,177339,2,0,L|301:220,3,38.2499988327027,8|8|4|4,0:3|0:3|0:3|0:3,0:0:0:0:
309,198,177660,1,14,0:1:0:0:
177,282,178301,1,14,0:1:0:0:
258,370,178943,5,14,0:1:0:0:
256,192,179024,12,0,180548,0:0:0:0:
397,31,180869,5,4,0:3:0:0:
312,186,181029,2,0,L|298:132,2,38.2499988327027,8|8|10,0:1|0:1|0:0,0:0:0:0:
470,109,181350,5,4,0:3:0:0:
470,109,181430,1,4,0:3:0:0:
470,109,181510,2,0,P|368:77|290:121,1,170,14|10,0:1|0:2,0:0:0:0:
206,217,181992,1,0,0:0:0:0:
345,286,182152,1,10,0:1:0:0:
172,127,182312,1,10,0:1:0:0:
337,65,182473,1,10,0:2:0:0:
129,214,182633,6,0,P|153:86|168:24,1,170,14|8,0:1|0:1,0:0:0:0:
326,211,183114,2,0,P|249:197|222:189,1,85,10|0,0:2|0:0,0:0:0:0:
21,175,183435,1,10,0:1:0:0:
153,294,183596,1,10,0:1:0:0:
169,126,183756,1,10,0:2:0:0:
58,351,183917,6,0,P|134:310|236:320,1,170,14|8,0:1|0:1,0:0:0:0:
350,384,184398,2,0,P|364:316|368:271,1,85,10|0,0:2|0:0,0:0:0:0:
304,126,184719,1,10,0:1:0:0:
235,232,184879,1,8,0:1:0:0:
412,181,185040,2,0,P|477:171|509:168,1,85,10|0,0:2|0:0,0:0:0:0:
341,32,185360,5,14,0:1:0:0:
202,155,185521,1,0,0:0:0:0:
342,247,185681,1,10,0:2:0:0:
388,131,185842,1,2,0:0:0:0:
388,131,185922,1,0,0:0:0:0:
388,131,186002,1,8,0:1:0:0:
237,63,186163,1,10,0:1:0:0:
241,260,186323,1,10,0:2:0:0:
100,157,186483,5,8,0:2:0:0:
100,157,186564,1,8,0:2:0:0:
100,157,186644,2,0,P|84:83|132:-10,2,170,14|8|10,0:1|0:2|0:1,0:0:0:0:
219,280,187446,1,8,0:1:0:0:
272,152,187606,1,10,0:2:0:0:
120,201,187767,1,0,0:0:0:0:
171,361,187927,6,0,P|232:371|276:376,1,85,10|8,0:1|0:1,0:0:0:0:
384,192,188248,2,0,P|341:197|299:204,1,85,10|0,0:2|0:0,0:0:0:0:
409,384,188569,2,0,P|404:341|388:302,1,85,10|8,0:1|0:1,0:0:0:0:
205,145,188890,2,0,P|188:184|184:226,1,85,10|0,0:2|0:0,0:0:0:0:
426,84,189211,6,0,P|312:45|246:31,2,170,14|10|10,0:1|0:2|0:1,0:0:0:0:
287,191,190013,1,8,0:1:0:0:
192,94,190173,1,10,0:2:0:0:
403,181,190334,6,0,P|421:245|363:329,1,170,14|10,0:1|0:2,0:0:0:0:
231,372,190815,1,0,0:0:0:0:
204,206,190975,1,10,0:1:0:0:
204,206,191056,1,10,0:1:0:0:
204,206,191136,5,10,0:2:0:0:
419,312,191297,1,10,0:2:0:0:
486,93,191617,5,8,0:2:0:0:
486,93,191697,1,8,0:2:0:0:
486,93,191777,2,0,P|449:128|323:129,1,170,14|10,0:1|0:2,0:0:0:0:
180,86,192258,1,0,0:0:0:0:
258,249,192419,2,0,P|252:183|242:144,1,85,10|10,0:2|0:1,0:0:0:0:
337,37,192740,2,0,P|343:103|353:142,1,85,10|10,0:2|0:1,0:0:0:0:
435,239,193060,6,0,P|374:222|341:214,1,85,8|0,0:2|0:0,0:0:0:0:
176,295,193381,2,0,B|166:353|162:378,1,85,10|8,0:2|0:1,0:0:0:0:
77,235,193702,1,10,0:2:0:0:
233,175,193862,1,10,0:1:0:0:
172,282,194023,1,10,0:2:0:0:
79,139,194183,1,10,0:1:0:0:
79,139,194264,1,0,0:0:0:0:
79,139,194344,6,0,P|139:115|235:179,2,170,8|8|10,0:2|0:2|0:2,0:0:0:0:
246,264,195146,1,8,0:1:0:0:
338,104,195306,1,10,0:2:0:0:
216,158,195467,1,8,0:1:0:0:
387,264,195628,6,0,P|368:181|344:89,1,170,14|10,0:2|0:2,0:0:0:0:
442,14,196109,2,0,P|461:64|458:114,1,85,10|12,0:1|0:2,0:0:0:0:
322,197,196429,1,10,0:1:0:0:
449,317,196590,1,10,0:2:0:0:
504,196,196750,5,8,0:2:0:0:
504,196,196830,1,8,0:2:0:0:
504,196,196911,2,0,B|412:172|427:236|336:211,2,170,14|8|10,0:1|0:2|0:1,0:0:0:0:
355,130,197713,1,8,0:1:0:0:
273,289,197873,2,0,P|269:246|260:205,1,85,10|0,0:2|0:0,0:0:0:0:
238,74,198194,6,0,P|178:84|136:94,1,85,10|8,0:1|0:1,0:0:0:0:
28,212,198515,2,0,P|34:170|42:128,1,85,8|0,0:2|0:0,0:0:0:0:
10,0,198836,2,0,P|70:10|112:20,1,85,10|8,0:1|0:1,0:0:0:0:
178,179,199157,2,0,P|170:220|163:262,1,85,8|0,0:2|0:0,0:0:0:0:
63,346,199478,6,0,P|140:317|211:359,2,170,14|8|8,0:1|0:2|0:1,0:0:0:0:
256,261,200280,1,8,0:1:0:0:
94,167,200440,1,10,0:2:0:0:
146,287,200600,1,10,0:1:0:0:
146,287,200681,1,10,0:1:0:0:
146,287,200761,5,10,0:2:0:0:
239,106,200921,1,10,0:2:0:0:
240,320,201403,5,10,0:2:0:0:
120,161,201563,1,10,0:2:0:0:
357,290,202044,6,0,P|410:280|448:275,1,85,14|0,0:1|0:0,0:0:0:0:
306,381,202365,1,10,0:2:0:0:
395,202,202526,1,10,0:2:0:0:
403,183,202846,1,10,0:2:0:0:
411,164,203168,6,0,P|342:124|242:149,1,170,14|8,0:1|0:3,0:0:0:0:
107,230,203649,2,0,P|165:214|198:208,1,85,4|8,0:3|0:3,0:0:0:0:
189,209,203889,1,8,0:3:0:0:
189,209,203969,1,10,0:3:0:0:
143,126,204130,1,4,0:3:0:0:
302,48,204290,1,10,0:2:0:0:
247,146,204451,1,4,0:3:0:0:
128,41,204611,6,0,P|64:34|6:21,2,113.333333333333,14|2|2,0:1|0:2|0:2,0:0:0:0:
257,155,205253,2,0,P|319:142|377:134,2,113.333333333333,14|2|2,0:1|0:2|0:2,0:0:0:0:
67,292,205895,2,0,P|136:247|215:269,1,170,14|0,0:1|0:0,0:0:0:0:
288,347,206377,1,2,0:0:0:0:
288,347,206457,1,2,0:0:0:0:
288,347,206537,1,10,0:1:0:0:
401,167,206858,5,4,0:3:0:0:
494,128,207018,2,0,L|486:169,1,42.5,8|8,0:2|0:2,0:0:0:0:
512,286,207179,6,0,P|433:260|346:247,2,170,14|10|10,0:1|0:2|0:1,0:0:0:0:
361,345,207981,2,0,P|293:328|253:317,1,85,10|10,0:1|0:2,0:0:0:0:
131,230,208302,2,0,P|236:217|271:136,1,170,14|8,0:1|0:1,0:0:0:0:
147,60,208783,2,0,P|178:148|177:170,1,85,8|0,0:2|0:0,0:0:0:0:
213,258,209104,1,10,0:1:0:0:
130,229,209264,2,0,P|88:228|50:245,1,85,10|10,0:1|0:2,0:0:0:0:
243,344,209585,6,0,P|365:310|430:301,1,170,14|8,0:1|0:1,0:0:0:0:
500,379,210066,1,8,0:2:0:0:
487,217,210227,1,0,0:0:0:0:
487,217,210307,1,0,0:0:0:0:
487,217,210387,2,0,P|421:185|319:240,1,170,10|10,0:1|0:2,0:0:0:0:
236,150,210869,1,0,0:0:0:0:
176,264,211029,6,0,P|161:318|155:353,1,85,14|2,0:1|0:0,0:0:0:0:
51,175,211350,2,0,P|36:121|30:86,1,85,10|2,0:2|0:0,0:0:0:0:
47,274,211671,1,10,0:1:0:0:
151,171,211831,1,10,0:1:0:0:
262,298,211992,2,0,P|306:290|351:291,1,85,10|10,0:2|0:2,0:0:0:0:
362,302,212232,1,10,0:2:0:0:
362,302,212312,6,0,P|371:215|383:133,2,170,14|10|10,0:1|0:2|0:1,0:0:0:0:
286,148,213114,2,0,P|284:106|308:71,1,85,10|10,0:1|0:2,0:0:0:0:
499,158,213435,2,0,P|422:171|328:223,1,170,14|8,0:1|0:1,0:0:0:0:
211,307,213917,2,0,P|187:257|200:208,1,85,8|0,0:2|0:0,0:0:0:0:
110,77,214237,1,10,0:1:0:0:
19,188,214398,2,0,P|71:173|120:169,1,85,10|10,0:1|0:2,0:0:0:0:
285,108,214719,6,0,P|210:94|111:58,1,170,14|8,0:1|0:1,0:0:0:0:
203,187,215200,1,8,0:2:0:0:
360,51,215360,1,0,0:0:0:0:
360,51,215441,1,0,0:0:0:0:
360,51,215521,2,0,P|375:104|380:140,1,85,10|8,0:1|0:1,0:0:0:0:
478,243,215842,2,0,P|431:227|379:219,1,85,8|0,0:2|0:0,0:0:0:0:
225,238,216163,5,14,0:1:0:0:
345,384,216323,2,0,P|338:332|324:289,1,85,10|8,0:1|0:2,0:0:0:0:
232,142,216644,2,0,P|220:182|215:225,1,85,2|8,0:0|0:1,0:0:0:0:
128,285,216965,1,10,0:1:0:0:
309,207,217125,1,8,0:2:0:0:
152,84,217286,5,8,0:2:0:0:
152,84,217366,1,8,0:2:0:0:
152,84,217446,2,0,P|61:76|19:146,2,170,14|10|10,0:1|0:2|0:1,0:0:0:0:
216,219,218248,2,0,P|149:195|116:196,1,85,10|10,0:1|0:2,0:0:0:0:
0,304,218569,2,0,B|102:292|58:355|182:349,1,170,14|8,0:1|0:1,0:0:0:0:
268,373,219050,2,0,P|247:326|237:287,1,85,8|0,0:2|0:0,0:0:0:0:
334,202,219371,1,10,0:1:0:0:
203,132,219532,1,10,0:1:0:0:
245,276,219692,1,10,0:2:0:0:
354,196,219852,6,0,P|449:206|484:300,1,170,14|8,0:1|0:1,0:0:0:0:
320,345,220334,1,8,0:2:0:0:
394,275,220494,1,0,0:0:0:0:
394,275,220574,1,0,0:0:0:0:
394,275,220655,2,0,P|405:318|410:358,1,85,10|10,0:1|0:1,0:0:0:0:
234,266,220975,2,0,P|244:224|250:182,1,85,10|0,0:2|0:0,0:0:0:0:
186,47,221296,5,14,0:1:0:0:
313,84,221457,1,0,0:0:0:0:
172,35,221617,1,10,0:2:0:0:
165,195,221778,2,0,P|103:222|4:162,1,170,10|10,0:1|0:2,0:0:0:0:
75,31,222259,2,0,P|93:80|99:122,1,85,8|8,0:2|0:2,0:0:0:0:
101,135,222500,1,0,0:0:0:0:
101,135,222580,6,0,B|206:129|170:188|285:174,1,170,14|10,0:1|0:2,0:0:0:0:
391,232,223061,2,0,P|370:169|356:139,1,85,10|0,0:2|0:0,0:0:0:0:
499,69,223382,2,0,P|478:132|464:162,1,85,10|0,0:2|0:0,0:0:0:0:
454,309,223703,2,0,P|369:262|269:291,1,170,14|8,0:2|0:3,0:0:0:0:
184,234,224184,1,8,0:1:0:0:
137,338,224344,2,0,L|124:389,2,42.5,4|4|8,0:3|0:3|0:1,0:0:0:0:
19,224,224665,1,4,0:3:0:0:
19,224,224746,1,0,0:0:0:0:
19,224,224826,2,0,P|81:209|117:181,1,85,8|8,0:2|0:1,0:0:0:0:
184,127,225147,5,14,0:1:0:0:
256,192,225227,12,0,227874,0:0:0:0:
