osu file format v14

[General]
AudioFilename: audio.mp3
AudioLeadIn: 0
PreviewTime: 54104
Countdown: 0
SampleSet: Soft
StackLeniency: 0.7
Mode: 0
LetterboxInBreaks: 0
WidescreenStoryboard: 1

[Editor]
Bookmarks: 49412
DistanceSpacing: 0.4
BeatDivisor: 4
GridSize: 8
TimelineZoom: 1.8

[Metadata]
Title:Sakiwau Hana (movie ver.)
TitleUnicode:サキワフハナ (movie ver.)
Artist:Mimori Suzuko
ArtistUnicode:三森すずこ
Creator:Rensia
Version:Normal
Source:結城友奈は勇者である -鷲尾須美の章-
Tags:Alexsander Ataraxia Sakiwafu Hana Version Yuuki Yuki Yuuna Yuna wa Yuusha de Aru Is a Hero Washio Sumi no Shou Chapter YuYuYu ゆゆゆ WaSuYu わすゆ Japanese Anime Movie Opening ともだち Tomodachi Friends たましい Tamashii Spirit やくそく Yakusoku Promise 岡部啓一 Keiichi Okabe Keichi MONACA
BeatmapID:2399674
BeatmapSetID:1118283

[Difficulty]
HPDrainRate:3
CircleSize:3
OverallDifficulty:4
ApproachRate:5.5
SliderMultiplier:1.1
SliderTickRate:1

[Events]
//Background and Video events
0,0,"sakiwafuhana.jpg",0,0
Video,259,"OP.mp4"
//Break Periods
//Storyboard Layer 0 (Background)
//Storyboard Layer 1 (Fail)
//Storyboard Layer 2 (Pass)
//Storyboard Layer 3 (Foreground)
//Storyboard Layer 4 (Overlay)
//Storyboard Sound Samples

[TimingPoints]
895,370.37037037037,4,2,1,65,1,0
895,-100,4,2,1,65,0,0
3857,-100,4,2,1,80,0,0
5344,-100,4,2,1,100,0,0
6080,-100,4,2,1,5,0,0
6450,-100,4,2,1,60,0,0
6820,-111.111111111111,4,2,1,45,0,0
18672,-111.111111111111,4,2,1,55,0,0
24598,-111.111111111111,4,2,1,60,0,0
30431,-111.111111111111,4,2,1,65,0,0
30524,-99.9999999999999,4,2,4,80,0,0
30894,-100,4,2,6,50,0,0
31080,-100,4,2,4,80,0,0
31265,-100,4,2,4,60,0,0
32006,-100,4,2,6,50,0,0
32191,-100,4,2,4,80,0,0
32376,-100,4,2,4,60,0,0
32931,-100,4,2,4,75,0,0
33487,-100,4,2,4,80,0,0
33857,-100,4,2,6,50,0,0
34043,-100,4,2,4,80,0,0
34228,-100,4,2,4,60,0,0
34968,-100,4,2,6,50,0,0
35154,-100,4,2,4,50,0,0
35709,-100,4,2,4,60,0,0
35894,-100,4,2,4,50,0,0
36080,-100,4,2,6,85,0,0
36172,-100,4,2,6,65,0,0
36450,-100,4,2,4,80,0,0
36820,-100,4,2,6,50,0,0
37006,-100,4,2,4,80,0,0
37191,-100,4,2,4,60,0,0
37561,-100,4,2,4,80,0,0
37932,-100,4,2,6,50,0,0
38117,-100,4,2,4,80,0,0
38302,-100,4,2,4,60,0,0
38672,-100,4,2,4,80,0,0
39783,-100,4,2,6,50,0,0
39969,-100,4,2,4,80,0,0
40154,-100,4,2,4,60,0,0
40524,-100,4,2,4,50,0,0
40894,-100,4,2,4,60,0,0
41080,-100,4,2,6,50,0,0
41450,-100,4,2,6,60,0,0
41635,-100,4,2,4,70,0,0
41820,-100,4,2,6,55,0,0
42006,-100,4,2,6,75,0,0
42376,-100,4,2,4,80,0,0
42746,-100,4,2,6,60,0,0
42932,-100,4,2,4,90,0,0
43117,-100,4,2,4,60,0,0
43857,-100,4,2,6,50,0,0
44043,-100,4,2,4,80,0,0
44598,-100,4,2,4,60,0,0
44783,-100,4,2,4,80,0,0
45709,-100,4,2,6,50,0,0
45894,-100,4,2,4,80,0,0
46080,-100,4,2,4,60,0,0
46820,-100,4,2,6,50,0,0
47006,-100,4,2,4,80,0,0
47191,-100,4,2,4,60,0,0
47376,-100,4,2,4,50,0,0
47746,-100,4,2,6,70,0,0
47932,-100,4,2,4,85,0,0
48117,-100,4,2,4,100,0,0
48302,-100,4,2,12,70,0,0
51265,-100,4,2,14,70,0,0
52376,-100,4,2,14,80,0,0
52654,-100,4,2,14,65,0,0
52746,-100,4,2,16,90,0,0
53857,-100,4,2,1,76,0,0
54228,-100,4,2,20,80,0,1
58857,-100,4,2,20,65,0,1
59043,-100,4,2,20,80,0,1
59228,-100,4,2,20,65,0,1
59413,-100,4,2,20,80,0,1
59598,-100,4,2,20,65,0,1
59783,-100,4,2,20,80,0,1
59968,-100,4,2,20,65,0,1
60154,-100,4,2,20,80,0,1
65709,-100,4,2,20,100,0,1
66080,-100,4,2,20,80,0,1
70709,-100,4,2,20,65,0,1
70894,-100,4,2,20,80,0,1
71079,-100,4,2,20,65,0,1
71265,-100,4,2,20,80,0,1
71450,-100,4,2,20,65,0,1
71635,-100,4,2,20,80,0,1
71820,-100,4,2,20,65,0,1
72006,-100,4,2,20,80,0,1
77191,-100,4,2,20,100,0,1
77932,-100,4,2,20,80,0,0
79413,-100,4,2,1,80,0,0
82376,-100,4,2,69,80,0,0
83117,-100,4,2,1,80,0,0
83214,-100,4,2,1,5,0,0

[Colours]
Combo1 : 220,35,49
Combo2 : 122,210,239
Combo3 : 171,146,237
Combo4 : 164,81,145
Combo5 : 217,113,201
Combo6 : 254,65,94

[HitObjects]
96,136,895,6,0,P|144:168|232:160,1,110,4|0,1:1|0:0,0:0:0:0:
280,104,1635,2,0,P|328:72|416:80,1,110,0|0,1:0|0:0,0:0:0:0:
472,128,2376,2,0,P|424:160|336:152,1,110,0|0,1:0|0:0,0:0:0:0:
272,216,3117,2,0,L|208:208,1,55,0|0,1:0|0:0,0:0:0:0:
168,184,3487,2,0,L|104:192,1,55,2|0,0:0|0:0,0:0:0:0:
256,192,3857,12,0,6080,0:0:0:0:
376,40,6820,6,0,P|361:92|368:159,1,98.9999969787599,0|0,3:0|0:0,0:0:0:0:
384,232,7561,2,0,P|339:218|281:224,1,98.9999969787599,2|0,0:0|0:0,0:0:0:0:
216,288,8302,2,0,P|169:300|111:295,1,98.9999969787599,0|0,3:0|3:0,0:0:0:0:
72,280,8857,1,2,0:0:0:0:
0,152,9413,2,0,L|6:88,1,49.4999984893799
16,56,9783,6,0,P|60:87|119:89,1,98.9999969787599,0|0,3:0|0:0,0:0:0:0:
184,40,10524,2,0,P|228:8|287:5,1,98.9999969787599,2|0,0:0|0:0,0:0:0:0:
360,48,11265,2,0,L|354:159,1,98.9999969787599,0|0,3:0|3:0,0:0:0:0:
352,196,11820,1,2,0:0:0:0:
280,328,12376,2,0,P|235:315|209:315,1,49.4999984893799
184,320,12746,6,0,L|187:221,1,98.9999969787599,0|0,3:0|0:0,0:0:0:0:
240,136,13487,2,0,P|176:121|127:136,1,98.9999969787599,0|2,3:0|0:0,0:0:0:0:
56,172,14228,2,0,P|50:117|66:65,1,98.9999969787599,0|2,3:0|0:0,0:0:0:0:
136,8,14969,2,0,L|258:15,1,98.9999969787599,0|0,3:0|0:0,0:0:0:0:
296,88,15709,6,0,L|418:80,1,98.9999969787599,0|0,3:0|0:0,0:0:0:0:
448,88,16265,1,2,0:0:0:0:
448,88,16450,2,0,P|435:126|448:196,1,98.9999969787599,0|2,3:0|0:0,0:0:0:0:
512,256,17191,2,0,P|458:238|362:256,1,148.49999546814,0|2,3:0|0:0,0:0:0:0:
328,280,17932,1,0,3:0:0:0:
248,336,18302,2,0,L|176:344,1,49.4999984893799,0|0,3:0|3:0,0:0:0:0:
152,344,18672,6,0,P|157:304|146:232,1,98.9999969787599,4|2,3:2|0:0,0:0:0:0:
72,184,19413,2,0,P|66:144|77:71,1,98.9999969787599,2|0,0:2|0:0,0:0:0:0:
136,8,20154,2,0,L|248:3,1,98.9999969787599,0|0,3:0|3:0,0:0:0:0:
284,0,20709,1,2,0:0:0:0:
416,64,21265,2,0,P|410:89|410:131,1,49.4999984893799,2|0,0:0|0:0,0:0:0:0:
424,160,21635,6,0,L|308:155,1,98.9999969787599,0|2,3:0|0:0,0:0:0:0:
256,232,22376,2,0,L|140:236,1,98.9999969787599,2|0,0:0|0:0,0:0:0:0:
160,336,23117,2,0,L|269:331,1,98.9999969787599,2|0,0:0|3:0,0:0:0:0:
312,328,23672,1,2,0:0:0:0:
456,304,24228,2,0,P|464:264|464:232,1,49.4999984893799,2|0,0:0|3:0,0:0:0:0:
448,208,24598,6,0,P|436:152|436:108,1,98.9999969787599,2|2,3:0|0:0,0:0:0:0:
368,40,25339,2,0,P|309:36|252:24,1,98.9999969787599,2|0,3:3|0:0,0:0:0:0:
168,16,26080,2,0,P|184:104|168:169,1,148.49999546814,2|2,3:0|0:0,0:0:0:0:
144,200,26820,2,0,P|132:261|144:307,1,98.9999969787599,2|0,3:0|0:0,0:0:0:0:
216,360,27561,6,0,L|331:352,1,98.9999969787599,2|0,3:0|0:0,0:0:0:0:
364,344,28117,1,0,3:0:0:0:
416,208,28672,2,0,P|424:168|424:152,1,49.4999984893799,2|2,0:0|0:0,0:0:0:0:
408,112,29043,2,0,P|299:128|190:112,1,197.99999395752,0|0,3:0|0:0,0:0:0:0:
216,320,30524,6,0,L|136:328,2,55,4|0|0,1:0|0:0|1:0,0:0:0:0:
272,312,31080,1,0,1:0:0:0:
272,312,31265,1,0,3:0:0:0:
384,312,31635,2,0,L|392:248,1,55,0|0,1:0|0:0,0:0:0:0:
368,208,32006,2,0,L|360:144,1,55,0|0,1:0|1:0,0:0:0:0:
352,96,32376,1,0,3:0:0:0:
264,24,32746,2,0,B|176:16|112:32,1,110,2|0,0:3|0:0,0:0:0:0:
104,48,33302,1,0,0:0:0:0:
104,48,33487,6,0,P|128:128|112:192,1,110,0|0,1:0|1:0,0:0:0:0:
112,208,34043,1,0,1:0:0:0:
0,328,34598,1,0,1:0:0:0:
112,368,34969,1,0,0:0:0:0:
112,368,35154,2,0,P|143:357|232:368,1,110,0|0,1:0|1:2,0:0:0:0:
272,376,35709,2,0,L|336:384,2,55,2|0|0,1:2|1:2|1:0,0:0:0:0:
264,264,36450,6,0,L|209:257,2,55,4|0|0,1:2|0:0|1:0,0:0:0:0:
324,276,37006,1,0,1:0:0:0:
324,276,37191,1,0,3:0:0:0:
424,240,37561,2,0,L|416:160,1,55,0|0,1:0|0:0,0:0:0:0:
440,136,37932,2,0,L|448:56,1,55,0|0,1:0|1:0,0:0:0:0:
424,32,38302,1,0,3:0:0:0:
320,8,38672,2,0,P|232:0|184:0,1,110,2|0,1:3|1:3,0:0:0:0:
168,32,39228,1,0,0:0:0:0:
168,32,39413,6,0,P|80:40|32:40,1,110,0|0,1:0|1:0,0:0:0:0:
8,136,40154,2,0,P|5:190|0:245,1,110,0|0,3:0|1:0,0:0:0:0:
112,272,40894,1,0,1:0:0:0:
112,272,41080,2,0,P|166:274|221:280,1,110,0|0,1:0|1:0,0:0:0:0:
272,264,41635,2,0,P|288:242|300:217,2,55,2|0|0,1:2|1:0|1:0,0:0:0:0:
280,376,42376,6,0,P|307:375|408:368,1,110,4|0,1:0|0:0,0:0:0:0:
448,360,42932,1,0,1:0:0:0:
448,360,43117,1,0,3:0:0:0:
488,256,43487,2,0,P|480:200|480:192,1,55,0|0,1:0|0:0,0:0:0:0:
488,148,43857,2,0,P|496:92|496:84,1,55,0|0,1:0|1:0,0:0:0:0:
488,40,44228,1,0,3:0:0:0:
376,24,44598,2,0,P|312:16|240:24,1,110,2|0,1:3|0:0,0:0:0:0:
216,32,45154,1,0,0:0:0:0:
216,32,45339,6,0,P|152:40|80:32,1,110,0|0,1:0|1:0,0:0:0:0:
52,32,45894,1,0,1:0:0:0:
0,192,46450,2,0,L|121:186,1,110,0|2,1:0|1:2,0:0:0:0:
164,184,47006,6,0,L|238:187,1,55,0|0,1:0|1:0,0:0:0:0:
328,160,47561,2,0,L|330:214,1,55,2|0,1:2|1:0,0:0:0:0:
344,268,47932,2,0,L|341:322,1,55,0|0,1:0|1:0,0:0:0:0:
328,376,48302,1,4,1:0:0:0:
224,352,48672,2,0,L|168:344,1,55,0|0,1:2|3:0,0:0:0:0:
112,344,49043,2,0,P|16:360|-32:344,1,110,0|0,1:0|1:0,0:0:0:0:
48,256,49783,6,0,L|40:184,1,55,0|0,1:0|3:0,0:0:0:0:
40,152,50154,1,0,1:0:0:0:
40,152,50339,2,0,L|53:32,1,110,0|0,3:0|3:0,0:0:0:0:
160,8,51080,1,0,3:0:0:0:
160,8,51265,2,0,P|216:32|280:24,1,110,4|0,1:2|1:0,0:0:0:0:
318,16,51820,2,0,L|310:168,1,110,2|2,3:0|3:0,0:0:0:0:
312,181,52376,1,0,1:0:0:0:
376,272,52746,2,0,L|380:348,2,55,0|0|0,1:3|1:3|1:3,0:0:0:0:
48,344,54228,6,0,P|104:336|176:344,1,110,12|8,1:1|1:2,0:0:0:0:
216,360,54783,1,8,0:0:0:0:
216,360,54969,1,0,1:0:0:0:
328,384,55339,2,0,L|336:312,1,55,8|0,1:2|0:0,0:0:0:0:
332,279,55709,1,6,1:3:0:0:
332,279,55894,2,0,L|318:155,1,110,8|8,0:0|0:0,0:0:0:0:
308,115,56450,1,8,0:0:0:0:
240,24,56820,2,0,P|204:12|160:16,1,55,8|8,1:2|0:2,0:0:0:0:
144,40,57191,6,0,P|96:55|35:50,1,110,8|0,1:2|1:0,0:0:0:0:
0,19,57746,1,10,0:0:0:0:
0,19,57932,2,0,L|-8:148,1,110,0|8,1:0|1:0,0:0:0:0:
65,213,58672,2,0,L|136:216,1,55,10|0,1:1|0:0,0:0:0:0:
176,221,59043,1,8,1:2:0:0:
256,144,59413,2,0,L|327:140,1,55,8|0,1:2|0:0,0:0:0:0:
362,159,59783,1,8,1:2:0:0:
472,152,60154,6,0,P|448:224|456:280,1,110,10|8,1:0|1:2,0:0:0:0:
464,312,60709,2,0,P|392:288|336:296,1,110,8|8,0:0|0:0,0:0:0:0:
312,312,61265,1,8,1:2:0:0:
208,272,61635,2,0,L|147:288,2,55,10|8|0,1:1|0:0|1:0,0:0:0:0:
232,224,62191,2,0,L|242:112,1,110,8|8,0:0|0:0,0:0:0:0:
247,60,62746,1,8,1:2:0:0:
140,84,63117,6,0,P|92:84|46:92,2,82.5,12|8|10,1:2|0:0|0:2,0:0:0:0:
180,124,63857,2,0,P|220:129|261:129,2,82.5,8|8|8,1:2|0:0|0:2,0:0:0:0:
148,164,64598,2,0,P|150:220|140:292,1,110,12|8,1:2|1:2,0:0:0:0:
124,324,65154,1,8,1:2:0:0:
124,324,65339,2,0,P|180:321|252:332,1,110,8|8,1:2|1:2,0:0:0:0:
336,368,66080,6,0,P|392:370|464:360,1,110,12|8,1:1|1:0,0:0:0:0:
504,344,66635,1,8,0:0:0:0:
504,344,66820,1,0,1:0:0:0:
488,232,67191,2,0,P|475:186|480:160,1,55,8|0,1:2|0:0,0:0:0:0:
488,128,67561,1,6,1:3:0:0:
488,128,67746,2,0,P|432:144|376:136,1,110,8|8,0:2|1:0,0:0:0:0:
336,112,68302,1,0,0:0:0:0:
240,56,68672,2,0,P|224:104|224:128,1,55,8|8,1:2|0:0,0:0:0:0:
240,160,69043,6,0,P|267:241|267:281,1,110,8|0,1:2|1:0,0:0:0:0:
248,320,69598,1,10,0:0:0:0:
248,320,69783,2,0,L|112:328,1,110,8|8,1:2|1:2,0:0:0:0:
56,248,70524,2,0,P|56:212|48:176,1,55,12|0,1:2|0:0,0:0:0:0:
24,144,70894,1,8,1:2:0:0:
104,64,71265,2,0,P|140:64|176:56,1,55,12|0,1:2|0:0,0:0:0:0:
207,32,71635,1,12,1:2:0:0:
312,72,72006,6,0,L|304:200,1,110,14|8,1:0|1:0,0:0:0:0:
272,224,72561,2,0,L|280:352,1,110,8|8,0:0|0:0,0:0:0:0:
320,368,73117,1,8,1:0:0:0:
424,328,73487,2,0,L|480:344,2,55,10|8|0,1:1|0:0|1:0,0:0:0:0:
416,272,74043,2,0,P|414:202|408:149,1,110,8|8,0:0|0:0,0:0:0:0:
392,112,74598,1,8,1:0:0:0:
288,80,74969,6,0,P|256:32|232:16,2,82.5,12|8|8,1:2|0:0|0:0,0:0:0:0:
280,136,75709,2,0,P|248:184|224:200,2,82.5,8|8|8,1:0|0:0|0:0,0:0:0:0:
336,144,76450,2,0,L|464:152,1,110,12|8,1:2|1:0,0:0:0:0:
480,192,77006,1,8,0:0:0:0:
480,192,77191,2,0,L|472:320,1,110,12|12,0:0|0:0,0:0:0:0:
392,376,77932,5,12,1:2:0:0:
392,376,78117,1,12,1:2:0:0:
392,376,78302,1,12,1:2:0:0:
80,296,79413,22,0,P|80:232|72:184,1,110,0|0,1:0|0:0,0:0:0:0:
184,192,80154,2,0,P|175:137|176:82,1,110,0|0,1:0|0:0,0:0:0:0:
256,8,80894,2,0,L|384:16,1,110,0|0,1:0|0:0,0:0:0:0:
376,128,81635,2,0,L|266:121,1,110,0|0,1:2|0:0,0:0:0:0:
184,192,82376,1,2,0:3:0:0:
256,192,83117,12,0,87561,0:0:0:0:
