osu file format v14

[General]
AudioFilename: audio.mp3
AudioLeadIn: 0
PreviewTime: 54104
Countdown: 0
SampleSet: Soft
StackLeniency: 0.7
Mode: 0
LetterboxInBreaks: 0
WidescreenStoryboard: 1

[Editor]
Bookmarks: 49412
DistanceSpacing: 0.4
BeatDivisor: 4
GridSize: 8
TimelineZoom: 1.8

[Metadata]
Title:Sakiwau Hana (movie ver.)
TitleUnicode:サキワフハナ (movie ver.)
Artist:Mimori Suzuko
ArtistUnicode:三森すずこ
Creator:Rensia
Version:Easy
Source:結城友奈は勇者である -鷲尾須美の章-
Tags:Alexsander Ataraxia Sakiwafu Hana Version Yuuki Yuki Yuuna Yuna wa Yuusha de Aru Is a Hero Washio Sumi no Shou Chapter YuYuYu ゆゆゆ WaSuYu わすゆ Japanese Anime Movie Opening ともだち Tomodachi Friends たましい Tamashii Spirit やくそく Yakusoku Promise 岡部啓一 Keiichi Okabe Keichi MONACA
BeatmapID:2409738
BeatmapSetID:1118283

[Difficulty]
HPDrainRate:2
CircleSize:2.6
OverallDifficulty:2
ApproachRate:4
SliderMultiplier:0.9
SliderTickRate:1

[Events]
//Background and Video events
0,0,"sakiwafuhana.jpg",0,0
Video,259,"OP.mp4"
//Break Periods
//Storyboard Layer 0 (Background)
//Storyboard Layer 1 (Fail)
//Storyboard Layer 2 (Pass)
//Storyboard Layer 3 (Foreground)
//Storyboard Layer 4 (Overlay)
//Storyboard Sound Samples

[TimingPoints]
895,370.37037037037,4,2,1,65,1,0
895,-100,4,2,1,65,0,0
3857,-100,4,2,1,80,0,0
5339,-100,4,2,1,100,0,0
5344,-100,4,2,1,100,0,0
6080,-100,4,2,1,5,0,0
6450,-100,4,2,1,60,0,0
6820,-105.263157894737,4,2,1,45,0,0
18672,-105.263157894737,4,2,1,55,0,0
24598,-105.263157894737,4,2,1,60,0,0
30431,-105.263157894737,4,2,1,65,0,0
30524,-100,4,2,4,80,0,0
30894,-100,4,2,6,50,0,0
31080,-100,4,2,4,80,0,0
31265,-100,4,2,4,60,0,0
32006,-100,4,2,6,50,0,0
32191,-100,4,2,4,80,0,0
32376,-100,4,2,4,60,0,0
32931,-100,4,2,4,75,0,0
33487,-100,4,2,4,80,0,0
33857,-100,4,2,6,50,0,0
34043,-100,4,2,4,80,0,0
34228,-100,4,2,4,60,0,0
34968,-100,4,2,6,50,0,0
35154,-100,4,2,4,50,0,0
35709,-100,4,2,4,60,0,0
35894,-100,4,2,4,50,0,0
36080,-100,4,2,6,85,0,0
36172,-100,4,2,6,65,0,0
36450,-100,4,2,4,80,0,0
36820,-100,4,2,6,50,0,0
37006,-100,4,2,4,80,0,0
37191,-100,4,2,4,60,0,0
37561,-100,4,2,4,80,0,0
37932,-100,4,2,6,50,0,0
38117,-100,4,2,4,80,0,0
38302,-100,4,2,4,60,0,0
38672,-100,4,2,4,80,0,0
39783,-100,4,2,6,50,0,0
39969,-100,4,2,4,80,0,0
40154,-100,4,2,4,60,0,0
40524,-100,4,2,4,50,0,0
40894,-100,4,2,4,60,0,0
41080,-100,4,2,6,50,0,0
41450,-100,4,2,6,60,0,0
41635,-100,4,2,4,70,0,0
42006,-100,4,2,6,75,0,0
42376,-100,4,2,4,80,0,0
42746,-100,4,2,6,60,0,0
42932,-100,4,2,4,90,0,0
43117,-100,4,2,4,60,0,0
43857,-100,4,2,6,50,0,0
44043,-100,4,2,4,80,0,0
44598,-100,4,2,4,60,0,0
44783,-100,4,2,4,80,0,0
45709,-100,4,2,6,50,0,0
45894,-100,4,2,4,80,0,0
46080,-100,4,2,4,60,0,0
46820,-100,4,2,6,50,0,0
47006,-100,4,2,4,80,0,0
47191,-100,4,2,4,60,0,0
47376,-100,4,2,4,50,0,0
47746,-100,4,2,6,70,0,0
47932,-100,4,2,4,85,0,0
48117,-100,4,2,4,100,0,0
48302,-100,4,2,12,70,0,0
51265,-100,4,2,14,70,0,0
52376,-100,4,2,14,80,0,0
52654,-100,4,2,14,65,0,0
52746,-100,4,2,16,90,0,0
53857,-100,4,2,1,76,0,0
54228,-100,4,2,20,80,0,1
59043,-100,4,2,20,80,0,1
59228,-100,4,2,20,65,0,1
59413,-100,4,2,20,80,0,1
59783,-100,4,2,20,80,0,1
59968,-100,4,2,20,65,0,1
60154,-100,4,2,20,80,0,1
65709,-100,4,2,20,100,0,1
66080,-100,4,2,20,80,0,1
70894,-100,4,2,20,80,0,1
71079,-100,4,2,20,65,0,1
71265,-100,4,2,20,80,0,1
71635,-100,4,2,20,80,0,1
71820,-100,4,2,20,65,0,1
72006,-100,4,2,20,80,0,1
77191,-100,4,2,20,100,0,1
77932,-100,4,2,20,80,0,0
79413,-100,4,2,1,80,0,0
82376,-100,4,2,69,80,0,0
83117,-100,4,2,1,80,0,0
83214,-100,4,2,1,5,0,0

[Colours]
Combo1 : 220,35,49
Combo2 : 122,210,239
Combo3 : 171,146,237
Combo4 : 164,81,145
Combo5 : 217,113,201
Combo6 : 254,65,94

[HitObjects]
80,168,895,6,0,L|208:176,1,90,4|0,1:1|0:0,0:0:0:0:
224,248,1635,2,0,P|272:248|352:240,1,90,0|0,1:0|0:0,0:0:0:0:
392,192,2376,2,0,P|395:147|394:102,1,90,0|0,1:0|0:0,0:0:0:0:
344,24,3117,1,0,1:0:0:0:
264,64,3487,1,2,0:0:0:0:
256,192,3857,12,0,5339,0:0:0:0:
56,192,6820,6,0,L|228:204,1,170.999995433807,0|2,3:0|0:0,0:0:0:0:
296,152,7932,1,0,0:0:0:0:
368,200,8302,2,0,L|356:346,1,128.249996575356,0|2,3:0|0:0,0:0:0:0:
232,368,9413,1,0,0:0:0:0:
176,304,9783,6,0,P|168:216|184:120,1,170.999995433807,0|2,3:0|0:0,0:0:0:0:
216,56,10894,1,0,0:0:0:0:
300,72,11265,2,0,P|363:77|433:65,1,128.249996575356,0|2,3:0|0:0,0:0:0:0:
480,184,12376,1,0,0:0:0:0:
420,244,12746,6,0,P|375:237|324:244,1,85.4999977169037,0|0,3:0|0:0,0:0:0:0:
268,296,13487,2,0,P|228:301|184:296,1,85.4999977169037,0|2,3:0|0:0,0:0:0:0:
108,252,14228,2,0,L|100:68,1,170.999995433807,0|0,3:0|3:0,0:0:0:0:
272,76,15709,2,0,L|456:68,2,170.999995433807,0|0|0,3:0|3:0|3:0,0:0:0:0:
196,116,17561,1,2,0:0:0:0:
116,84,17932,1,0,3:0:0:0:
36,236,18672,6,0,P|122:228|216:243,1,170.999995433807,4|2,3:2|0:2,0:0:0:0:
268,300,19783,1,0,0:0:0:0:
336,352,20154,2,0,P|402:357|475:346,1,128.249996575356,0|2,3:0|0:0,0:0:0:0:
508,228,21265,1,2,0:0:0:0:
452,164,21635,6,0,P|372:142|279:164,1,170.999995433807,0|2,3:0|0:0,0:0:0:0:
208,208,22746,1,0,0:0:0:0:
136,256,23117,2,0,P|74:272|1:256,1,128.249996575356,2|2,0:0|0:0,0:0:0:0:
0,132,24228,1,2,0:0:0:0:
56,68,24598,6,0,L|152:74,1,85.4999977169037,2|2,3:0|0:0,0:0:0:0:
216,116,25339,2,0,L|312:109,1,85.4999977169037,2|0,3:3|0:0,0:0:0:0:
356,44,26080,2,0,P|341:130|363:224,1,170.999995433807,2|2,3:0|3:0,0:0:0:0:
468,344,27561,2,0,P|381:329|288:351,1,170.999995433807,2|0,3:0|3:0,0:0:0:0:
220,372,28672,1,2,0:0:0:0:
236,288,29043,2,0,P|251:200|235:112,1,170.999995433807,0|0,3:0|0:0,0:0:0:0:
408,72,30524,6,0,L|424:200,2,90,4|0|0,1:0|1:0|3:0,0:0:0:0:
328,24,31635,1,0,1:0:0:0:
240,56,32006,2,0,P|184:48|120:56,1,90,0|0,1:0|3:0,0:0:0:0:
144,136,32746,2,0,P|200:144|264:136,1,90,2|0,0:3|0:0,0:0:0:0:
312,104,33487,2,0,L|456:96,2,135,0|0|0,1:0|1:0|1:0,0:0:0:0:
233,142,34969,2,0,L|237:214,1,45,0|0,0:0|1:0,0:0:0:0:
192,312,35709,2,0,P|240:320|297:306,1,90,2|0,1:2|1:0,0:0:0:0:
360,264,36450,6,0,P|408:256|465:269,2,90,4|0|0,1:2|1:0|3:0,0:0:0:0:
280,313,37561,1,0,1:0:0:0:
200,363,37932,2,0,P|155:370|111:364,1,90,0|0,1:0|3:0,0:0:0:0:
56,296,38672,2,0,P|49:250|55:207,1,90,2|0,1:3|1:3,0:0:0:0:
144,192,39413,2,0,P|158:100|146:10,2,180,0|0|0,1:0|3:0|1:0,0:0:0:0:
32,336,41635,2,0,P|104:336|160:352,1,90,2|0,1:2|1:0,0:0:0:0:
208,368,42376,6,0,P|280:368|336:352,2,90,4|0|0,1:0|1:0|3:0,0:0:0:0:
121,339,43487,1,0,1:0:0:0:
64,272,43857,2,0,L|72:168,1,90,0|0,1:0|3:0,0:0:0:0:
136,120,44598,2,0,L|128:16,1,90,2|0,1:3|0:0,0:0:0:0:
216,16,45339,2,0,L|351:5,2,135,0|0|0,1:0|1:0|1:0,0:0:0:0:
144,72,46820,2,0,L|147:116,1,45,2|0,1:2|1:0,0:0:0:0:
256,200,47561,2,0,L|248:328,1,90,2|0,1:2|1:0,0:0:0:0:
304,360,48302,6,0,P|360:352|432:368,1,90,4|0,1:0|1:2,0:0:0:0:
464,296,49043,2,0,P|460:251|468:207,1,90,0|0,1:0|1:0,0:0:0:0:
408,144,49783,2,0,P|411:99|403:55,2,90,0|0|0,1:0|1:0|1:0,0:0:0:0:
328,176,50894,1,0,1:0:0:0:
248,144,51265,2,0,L|64:136,1,180,4|0,1:2|1:0,0:0:0:0:
16,208,52376,1,0,1:0:0:0:
68,279,52746,2,0,L|163:276,1,90,0|0,1:3|1:3,0:0:0:0:
336,328,54228,6,0,L|344:176,1,135,12|8,1:1|0:0,0:0:0:0:
272,80,55339,2,0,L|137:72,1,135,8|8,1:2|0:0,0:0:0:0:
64,128,56265,2,0,P|56:208|64:272,1,135,8|8,0:0|1:2,0:0:0:0:
128,320,57191,2,0,P|216:336|240:336,1,90,8|0,1:2|1:0,0:0:0:0:
296,296,57932,2,0,P|384:280|408:280,1,90,0|8,1:0|1:0,0:0:0:0:
464,320,58672,5,10,1:1:0:0:
472,232,59043,1,8,1:2:0:0:
392,192,59413,2,0,P|380:144|400:84,1,90,8|8,1:2|1:2,0:0:0:0:
448,40,60154,1,10,1:0:0:0:
360,20,60524,2,0,P|288:4|240:12,1,90,8|0,1:2|1:0,0:0:0:0:
200,56,61265,1,8,1:2:0:0:
112,32,61635,6,0,L|104:104,1,45,10|8,1:1|0:0,0:0:0:0:
64,160,62191,2,0,L|78:293,1,135,8|8,0:0|1:2,0:0:0:0:
152,344,63117,2,0,L|258:332,1,90,12|8,1:2|0:0,0:0:0:0:
312,280,63857,2,0,L|418:291,1,90,8|8,1:2|0:0,0:0:0:0:
472,344,64598,2,0,P|448:296|480:160,1,180,12|8,1:2|1:2,0:0:0:0:
344,48,66080,6,0,P|272:56|168:40,1,135,12|8,1:1|0:0,0:0:0:0:
176,184,67191,2,0,P|248:176|352:192,1,135,8|8,1:2|0:2,0:0:0:0:
400,208,68117,2,0,L|404:384,1,135,8|8,1:0|1:2,0:0:0:0:
320,376,69043,2,0,L|196:378,1,90,8|0,1:2|1:0,0:0:0:0:
160,320,69783,2,0,L|36:318,1,90,8|8,1:2|1:2,0:0:0:0:
8,256,70524,5,12,1:2:0:0:
8,168,70894,1,8,1:2:0:0:
69,104,71265,2,0,L|193:102,1,90,12|12,1:2|1:2,0:0:0:0:
221,168,72006,1,14,1:0:0:0:
283,102,72376,2,0,L|373:104,1,90,8|0,1:0|1:0,0:0:0:0:
448,56,73117,1,8,1:0:0:0:
512,120,73487,6,0,L|504:192,1,45,10|8,1:1|0:0,0:0:0:0:
432,216,74043,2,0,L|449:372,1,135,8|8,0:0|1:0,0:0:0:0:
360,352,74969,2,0,P|312:344|248:344,1,90,12|8,1:2|1:0,0:0:0:0:
216,272,75709,2,0,P|224:224|224:160,1,90,8|8,1:0|0:0,0:0:0:0:
184,104,76450,2,0,P|92:88|-28:88,1,180,12|12,1:2|0:0,0:0:0:0:
0,176,77561,1,12,0:0:0:0:
8,269,77932,2,0,L|1:360,1,90,12|12,1:2|1:2,0:0:0:0:
264,344,79413,54,0,P|336:352|384:344,1,90,0|0,1:0|0:0,0:0:0:0:
424,296,80154,2,0,L|432:184,1,90,0|0,1:0|0:0,0:0:0:0:
368,144,80894,2,0,L|360:32,1,90,0|0,1:0|0:0,0:0:0:0:
280,16,81635,2,0,P|216:24|168:16,1,90,0|0,1:2|0:0,0:0:0:0:
104,0,82376,1,2,0:3:0:0:
256,192,83117,12,0,87561,0:0:0:0:
