osu file format v14

[General]
AudioFilename: audio.ogg
AudioLeadIn: 0
PreviewTime: 57882
Countdown: 0
SampleSet: Normal
StackLeniency: 0.7
Mode: 3
LetterboxInBreaks: 0
SpecialStyle: 0
WidescreenStoryboard: 1

[Editor]
DistanceSpacing: 1.3
BeatDivisor: 4
GridSize: 8
TimelineZoom: 1.700003

[Metadata]
Title:Mirai Start (TV Size)
TitleUnicode:ミライスタート (TV Size)
Artist:Mimori Suzuko
ArtistUnicode:三森すずこ
Creator:Rivals_7
Version:Standard
Source:マイリトルポニー ~トモダチは魔法~
Tags:pop anime jpop j-pop My Little Pony MLP FiM friendship is magic tomodachi wa mahou 1st japanese opening hasbro dhx media vancouver bushiroad pony canyon lauren faust pinkie pie twilight sparkle applejack rarity fluttershy rainbow dash spike
BeatmapID:1756874
BeatmapSetID:839243

[Difficulty]
HPDrainRate:7
CircleSize:4
OverallDifficulty:7
ApproachRate:5
SliderMultiplier:1.4
SliderTickRate:1

[Events]
//Background and Video events
0,0,"b5ac899b315eb70f6bdac1a3d472539f3ea209e4_s2_n1.jpg",0,0
Video,269,"My Little Pony FiM Japanese Opening ''Mirai Start''.mp4"
//Break Periods
//Storyboard Layer 0 (Background)
//Storyboard Layer 1 (Fail)
//Storyboard Layer 2 (Pass)
//Storyboard Layer 3 (Foreground)
//Storyboard Layer 4 (Overlay)
//Storyboard Sound Samples

[TimingPoints]
1769,363.636363636364,4,1,1,35,1,0
58496,-100,4,1,1,35,0,1
69769,-100,4,1,1,35,0,0
70132,-100,4,1,1,35,0,1
78859,-100,4,1,1,35,0,0

[HitObjects]
64,192,1769,5,4,0:0:0:0:
448,192,1769,1,8,0:0:0:0:
448,192,2132,1,0,0:0:0:0:
192,192,2314,1,0,0:0:0:0:
448,192,2496,128,0,2859:0:0:0:0:
64,192,2859,1,0,0:0:0:0:
320,192,3041,1,0,0:0:0:0:
64,192,3223,128,2,4678:0:0:0:0:
448,192,3223,1,0,0:0:0:0:
320,192,4314,1,0,0:0:0:0:
192,192,4678,1,2,0:0:0:0:
448,192,4678,1,0,0:0:0:0:
448,192,5041,1,0,0:0:0:0:
64,192,5223,1,2,0:0:0:0:
448,192,5405,128,2,5769:0:0:0:0:
192,192,5769,1,0,0:0:0:0:
320,192,5950,1,2,0:0:0:0:
64,192,6132,128,2,6859:0:0:0:0:
448,192,6132,1,0,0:0:0:0:
320,192,6678,1,2,0:0:0:0:
192,192,6859,1,2,0:0:0:0:
320,192,7041,1,2,0:0:0:0:
64,192,7223,1,2,0:0:0:0:
448,192,7223,1,0,0:0:0:0:
192,192,7405,1,0,0:0:0:0:
320,192,7587,1,4,0:0:0:0:
448,192,7587,1,8,0:0:0:0:
192,192,7769,1,0,0:0:0:0:
64,192,7950,1,0,0:0:0:0:
320,192,8314,1,8,0:0:0:0:
448,192,8314,1,4,0:0:0:0:
192,192,8496,1,2,0:0:0:0:
64,192,8678,1,8,0:0:0:0:
320,192,8859,1,0,0:0:0:0:
64,192,9041,1,8,0:0:0:0:
448,192,9041,1,4,0:0:0:0:
192,192,9405,1,8,0:0:0:0:
448,192,9405,1,4,0:0:0:0:
64,192,9769,1,8,0:0:0:0:
320,192,9769,1,4,0:0:0:0:
64,192,10132,1,8,0:0:0:0:
192,192,10132,1,4,0:0:0:0:
320,192,10314,1,2,0:0:0:0:
64,192,10496,1,8,0:0:0:0:
448,192,10496,1,0,0:0:0:0:
192,192,10678,1,12,0:0:0:0:
64,192,11223,1,8,0:0:0:0:
448,192,11223,1,0,0:0:0:0:
320,192,11405,1,12,0:0:0:0:
192,192,11950,1,12,0:0:0:0:
192,192,12132,1,12,0:0:0:0:
320,192,12314,1,12,0:0:0:0:
64,192,12496,1,4,0:0:0:0:
448,192,12496,1,8,0:0:0:0:
64,192,13041,1,8,0:0:0:0:
448,192,13041,128,0,13405:0:0:0:0:
192,192,13223,1,2,0:0:0:0:
320,192,13405,1,6,0:0:0:0:
192,192,13587,1,0,0:0:0:0:
64,192,13769,1,8,0:0:0:0:
448,192,13769,1,0,0:0:0:0:
320,192,13950,1,0,0:0:0:0:
192,192,14132,1,2,0:0:0:0:
64,192,14314,1,0,0:0:0:0:
320,192,14496,1,8,0:0:0:0:
448,192,14496,1,0,0:0:0:0:
192,192,14678,1,0,0:0:0:0:
64,192,14859,1,2,0:0:0:0:
320,192,15041,1,0,0:0:0:0:
64,192,15223,1,8,0:0:0:0:
448,192,15223,1,0,0:0:0:0:
192,192,15405,1,0,0:0:0:0:
320,192,15587,1,2,0:0:0:0:
448,192,15769,1,0,0:0:0:0:
64,192,15950,1,8,0:0:0:0:
192,192,15950,1,0,0:0:0:0:
320,192,16132,1,0,0:0:0:0:
64,192,16314,1,2,0:0:0:0:
448,192,16314,1,4,0:0:0:0:
192,192,16496,1,0,0:0:0:0:
320,192,16678,1,8,0:0:0:0:
192,192,16859,1,0,0:0:0:0:
64,192,17041,1,4,0:0:0:0:
448,192,17041,1,2,0:0:0:0:
320,192,17223,1,0,0:0:0:0:
192,192,17405,1,2,0:0:0:0:
64,192,17587,1,0,0:0:0:0:
320,192,17769,1,6,0:0:0:0:
448,192,17950,1,0,0:0:0:0:
192,192,18132,1,6,0:0:0:0:
320,192,18314,1,0,0:0:0:0:
64,192,18496,128,4,19223:0:0:0:0:
192,192,18496,1,8,0:0:0:0:
448,192,18859,1,8,0:0:0:0:
192,192,19223,1,4,0:0:0:0:
448,192,19223,1,2,0:0:0:0:
320,192,19405,1,0,0:0:0:0:
64,192,19587,1,2,0:0:0:0:
192,192,19769,1,0,0:0:0:0:
320,192,19950,1,2,0:0:0:0:
448,192,20132,1,0,0:0:0:0:
192,192,20314,1,2,0:0:0:0:
192,192,20678,1,2,0:0:0:0:
64,192,20859,1,0,0:0:0:0:
448,192,21041,1,2,0:0:0:0:
320,192,21223,1,0,0:0:0:0:
64,192,21405,1,2,0:0:0:0:
192,192,21587,1,0,0:0:0:0:
320,192,21769,1,2,0:0:0:0:
320,192,22132,1,2,0:0:0:0:
448,192,22314,1,0,0:0:0:0:
192,192,22496,1,2,0:0:0:0:
64,192,22678,1,0,0:0:0:0:
320,192,22859,1,2,0:0:0:0:
448,192,23041,1,0,0:0:0:0:
192,192,23223,1,2,0:0:0:0:
320,192,23405,1,0,0:0:0:0:
64,192,23587,1,2,0:0:0:0:
448,192,23769,128,0,23950:0:0:0:0:
192,192,23950,1,2,0:0:0:0:
320,192,24132,128,0,24314:0:0:0:0:
64,192,24314,1,2,0:0:0:0:
192,192,24496,128,0,24678:0:0:0:0:
320,192,24678,1,2,0:0:0:0:
64,192,24859,128,2,25041:0:0:0:0:
448,192,25041,1,2,0:0:0:0:
320,192,25223,1,0,0:0:0:0:
192,192,25405,1,2,0:0:0:0:
448,192,25587,1,0,0:0:0:0:
448,192,25769,1,2,0:0:0:0:
320,192,26132,1,2,0:0:0:0:
192,192,26314,1,0,0:0:0:0:
448,192,26496,1,2,0:0:0:0:
64,192,26678,1,0,0:0:0:0:
320,192,26859,1,2,0:0:0:0:
192,192,27041,1,0,0:0:0:0:
192,192,27223,1,2,0:0:0:0:
448,192,27587,1,2,0:0:0:0:
320,192,27950,1,8,0:0:0:0:
64,192,28132,1,8,0:0:0:0:
448,192,28132,1,0,0:0:0:0:
192,192,28678,1,8,0:0:0:0:
64,192,28859,1,8,0:0:0:0:
448,192,28859,1,0,0:0:0:0:
320,192,29041,128,0,29405:0:0:0:0:
192,192,29223,1,0,0:0:0:0:
64,192,29405,1,8,0:0:0:0:
448,192,29405,1,4,0:0:0:0:
192,192,29587,1,2,0:0:0:0:
320,192,29769,1,12,0:0:0:0:
64,192,29950,1,4,0:0:0:0:
448,192,29950,1,8,0:0:0:0:
192,192,30314,1,0,0:0:0:0:
64,192,30496,1,8,0:0:0:0:
448,192,30496,1,0,0:0:0:0:
320,192,30678,1,0,0:0:0:0:
64,192,30859,1,4,0:0:0:0:
192,192,30859,1,2,0:0:0:0:
320,192,31041,1,0,0:0:0:0:
64,192,31223,1,8,0:0:0:0:
448,192,31223,1,0,0:0:0:0:
192,192,31405,1,0,0:0:0:0:
320,192,31587,1,2,0:0:0:0:
64,192,31769,1,0,0:0:0:0:
192,192,31950,1,8,0:0:0:0:
448,192,31950,1,0,0:0:0:0:
64,192,32314,1,2,0:0:0:0:
320,192,32314,1,0,0:0:0:0:
64,192,32678,1,8,0:0:0:0:
192,192,32678,1,0,0:0:0:0:
320,192,32859,1,0,0:0:0:0:
448,192,33041,1,2,0:0:0:0:
192,192,33223,1,0,0:0:0:0:
64,192,33405,1,8,0:0:0:0:
448,192,33405,1,0,0:0:0:0:
192,192,33769,1,2,0:0:0:0:
320,192,33769,1,0,0:0:0:0:
64,192,34132,1,8,0:0:0:0:
448,192,34132,1,0,0:0:0:0:
320,192,34314,1,0,0:0:0:0:
192,192,34496,1,2,0:0:0:0:
64,192,34678,1,0,0:0:0:0:
320,192,34859,1,8,0:0:0:0:
448,192,34859,1,0,0:0:0:0:
64,192,35223,1,2,0:0:0:0:
192,192,35223,1,0,0:0:0:0:
320,192,35587,1,8,0:0:0:0:
448,192,35587,1,0,0:0:0:0:
192,192,35769,1,0,0:0:0:0:
64,192,35950,1,2,0:0:0:0:
320,192,36132,1,0,0:0:0:0:
64,192,36314,1,8,0:0:0:0:
448,192,36314,1,0,0:0:0:0:
192,192,36678,1,2,0:0:0:0:
448,192,36678,1,0,0:0:0:0:
64,192,37041,1,8,0:0:0:0:
192,192,37223,1,0,0:0:0:0:
320,192,37405,1,2,0:0:0:0:
448,192,37405,1,0,0:0:0:0:
192,192,37769,1,8,0:0:0:0:
448,192,37950,1,2,0:0:0:0:
64,192,38132,1,2,0:0:0:0:
192,192,38132,1,0,0:0:0:0:
320,192,38314,1,0,0:0:0:0:
448,192,38496,1,8,0:0:0:0:
192,192,38678,1,0,0:0:0:0:
64,192,38859,1,2,0:0:0:0:
448,192,38859,1,0,0:0:0:0:
320,192,39223,1,8,0:0:0:0:
64,192,39405,128,4,39769:0:0:0:0:
192,192,39405,1,2,0:0:0:0:
320,192,39769,1,2,0:0:0:0:
192,192,39950,1,8,0:0:0:0:
448,192,40132,1,0,0:0:0:0:
320,192,40314,1,8,0:0:0:0:
64,192,40496,1,2,0:0:0:0:
192,192,40678,1,8,0:0:0:0:
320,192,40859,1,2,0:0:0:0:
64,192,41041,1,4,0:0:0:0:
448,192,41041,1,2,0:0:0:0:
192,192,41223,1,2,0:0:0:0:
320,192,41405,1,2,0:0:0:0:
192,192,41587,128,2,42132:0:0:0:0:
320,192,41950,1,2,0:0:0:0:
64,192,42132,1,2,0:0:0:0:
448,192,42132,1,0,0:0:0:0:
192,192,42496,1,2,0:0:0:0:
320,192,42496,1,4,0:0:0:0:
64,192,42678,1,0,0:0:0:0:
320,192,43223,1,2,0:0:0:0:
64,192,43405,1,2,0:0:0:0:
192,192,43587,1,8,0:0:0:0:
448,192,43587,1,0,0:0:0:0:
320,192,43769,1,2,0:0:0:0:
320,192,44132,1,2,0:0:0:0:
192,192,44678,1,2,0:0:0:0:
320,192,44859,1,2,0:0:0:0:
64,192,45041,1,8,0:0:0:0:
448,192,45041,1,0,0:0:0:0:
192,192,45223,1,2,0:0:0:0:
320,192,45405,1,2,0:0:0:0:
64,192,45769,1,8,0:0:0:0:
320,192,46132,1,2,0:0:0:0:
192,192,46314,1,2,0:0:0:0:
64,192,46496,1,8,0:0:0:0:
448,192,46496,1,0,0:0:0:0:
320,192,46859,1,12,0:0:0:0:
320,192,47041,1,2,0:0:0:0:
192,192,47223,1,2,0:0:0:0:
64,192,47405,1,4,0:0:0:0:
448,192,47405,1,8,0:0:0:0:
320,192,47587,128,2,47950:0:0:0:0:
192,192,47769,1,2,0:0:0:0:
64,192,47950,1,8,0:0:0:0:
448,192,47950,1,0,0:0:0:0:
192,192,48314,1,4,0:0:0:0:
320,192,48314,1,2,0:0:0:0:
64,192,48678,1,8,0:0:0:0:
448,192,48678,1,0,0:0:0:0:
320,192,48859,1,0,0:0:0:0:
192,192,49041,1,2,0:0:0:0:
64,192,49223,1,0,0:0:0:0:
320,192,49405,1,8,0:0:0:0:
448,192,49405,1,0,0:0:0:0:
192,192,49587,1,0,0:0:0:0:
64,192,49769,1,2,0:0:0:0:
320,192,49950,1,0,0:0:0:0:
192,192,50132,1,8,0:0:0:0:
64,192,50132,1,0,0:0:0:0:
448,192,50314,1,0,0:0:0:0:
320,192,50496,1,2,0:0:0:0:
64,192,50678,1,0,0:0:0:0:
192,192,50859,1,8,0:0:0:0:
448,192,50859,1,0,0:0:0:0:
320,192,51041,1,2,0:0:0:0:
64,192,51223,1,2,0:0:0:0:
448,192,51223,1,4,0:0:0:0:
192,192,51405,1,0,0:0:0:0:
320,192,51587,1,8,0:0:0:0:
448,192,51769,1,0,0:0:0:0:
64,192,51950,1,2,0:0:0:0:
192,192,51950,1,4,0:0:0:0:
320,192,52132,1,2,0:0:0:0:
448,192,52314,1,6,0:0:0:0:
192,192,52496,1,2,0:0:0:0:
64,192,52678,1,6,0:0:0:0:
192,192,53041,1,2,0:0:0:0:
320,192,53223,1,8,0:0:0:0:
64,192,53405,1,8,0:0:0:0:
448,192,53587,1,8,0:0:0:0:
448,192,53950,1,8,0:0:0:0:
320,192,54314,1,2,0:0:0:0:
64,192,54496,1,8,0:0:0:0:
448,192,54496,128,0,54859:0:0:0:0:
64,192,54859,1,2,0:0:0:0:
192,192,54859,128,0,55223:0:0:0:0:
320,192,55223,128,8,55587:0:0:0:0:
64,192,55587,1,8,0:0:0:0:
448,192,55587,1,4,0:0:0:0:
192,192,55769,1,2,0:0:0:0:
320,192,55950,1,2,0:0:0:0:
192,192,56132,1,8,0:0:0:0:
448,192,56314,1,8,0:0:0:0:
64,192,56496,1,8,0:0:0:0:
64,192,56859,1,8,0:0:0:0:
448,192,57405,128,0,57769:0:0:0:0:
64,192,57769,1,0,0:0:0:0:
320,192,58496,1,2,0:0:0:0:
448,192,58496,1,4,0:0:0:0:
64,192,58859,1,8,0:0:0:0:
448,192,58859,1,0,0:0:0:0:
192,192,59223,1,2,0:0:0:0:
64,192,59223,128,0,59587:0:0:0:0:
448,192,59587,1,0,0:0:0:0:
320,192,59587,1,8,0:0:0:0:
192,192,59769,1,0,0:0:0:0:
64,192,59950,1,2,0:0:0:0:
320,192,60132,1,0,0:0:0:0:
64,192,60314,1,8,0:0:0:0:
320,192,60496,1,0,0:0:0:0:
192,192,60678,1,2,0:0:0:0:
448,192,60859,1,0,0:0:0:0:
192,192,61041,1,8,0:0:0:0:
320,192,61223,1,2,0:0:0:0:
64,192,61405,1,0,0:0:0:0:
448,192,61405,1,2,0:0:0:0:
320,192,61769,1,8,0:0:0:0:
448,192,61769,1,0,0:0:0:0:
192,192,62132,1,2,0:0:0:0:
64,192,62132,128,0,62496:0:0:0:0:
320,192,62496,1,0,0:0:0:0:
448,192,62496,1,8,0:0:0:0:
192,192,62678,1,0,0:0:0:0:
320,192,62859,1,2,0:0:0:0:
64,192,63041,1,0,0:0:0:0:
192,192,63223,1,8,0:0:0:0:
448,192,63405,1,0,0:0:0:0:
192,192,63587,1,2,0:0:0:0:
64,192,63769,1,0,0:0:0:0:
320,192,63950,1,8,0:0:0:0:
448,192,63950,1,0,0:0:0:0:
64,192,64314,1,2,0:0:0:0:
448,192,64314,1,4,0:0:0:0:
320,192,64496,1,0,0:0:0:0:
64,192,64678,1,8,0:0:0:0:
192,192,64678,1,0,0:0:0:0:
320,192,64859,1,0,0:0:0:0:
448,192,65041,1,2,0:0:0:0:
192,192,65223,1,0,0:0:0:0:
64,192,65405,1,8,0:0:0:0:
448,192,65405,1,0,0:0:0:0:
64,192,65769,1,2,0:0:0:0:
192,192,65769,1,4,0:0:0:0:
320,192,65950,1,0,0:0:0:0:
192,192,66132,1,8,0:0:0:0:
448,192,66132,1,0,0:0:0:0:
64,192,66314,1,0,0:0:0:0:
320,192,66496,1,2,0:0:0:0:
192,192,66678,1,0,0:0:0:0:
64,192,66859,1,8,0:0:0:0:
448,192,66859,1,0,0:0:0:0:
64,192,67223,1,4,0:0:0:0:
192,192,67223,1,2,0:0:0:0:
320,192,67405,1,0,0:0:0:0:
64,192,67587,1,8,0:0:0:0:
448,192,67587,1,0,0:0:0:0:
192,192,67769,1,2,0:0:0:0:
320,192,67950,1,2,0:0:0:0:
448,192,67950,1,4,0:0:0:0:
64,192,68132,1,0,0:0:0:0:
320,192,68314,1,8,0:0:0:0:
448,192,68314,1,0,0:0:0:0:
64,192,68496,128,8,68859:0:0:0:0:
192,192,68496,1,4,0:0:0:0:
320,192,68859,1,2,0:0:0:0:
192,192,69041,1,2,0:0:0:0:
448,192,69041,128,0,69405:0:0:0:0:
64,192,69223,1,2,0:0:0:0:
320,192,69405,128,6,69769:0:0:0:0:
192,192,69587,1,0,0:0:0:0:
64,192,69769,128,12,70132:0:0:0:0:
320,192,69950,1,0,0:0:0:0:
192,192,70132,1,2,0:0:0:0:
448,192,70132,1,4,0:0:0:0:
64,192,70496,1,8,0:0:0:0:
192,192,70496,1,0,0:0:0:0:
448,192,70859,1,2,0:0:0:0:
320,192,70859,128,0,71223:0:0:0:0:
192,192,71223,1,0,0:0:0:0:
64,192,71223,1,8,0:0:0:0:
448,192,71405,1,0,0:0:0:0:
192,192,71587,1,2,0:0:0:0:
64,192,71769,1,0,0:0:0:0:
320,192,71950,1,8,0:0:0:0:
192,192,72132,1,0,0:0:0:0:
448,192,72314,1,2,0:0:0:0:
320,192,72496,1,0,0:0:0:0:
64,192,72678,1,8,0:0:0:0:
192,192,72859,1,2,0:0:0:0:
448,192,73041,1,0,0:0:0:0:
320,192,73041,1,2,0:0:0:0:
64,192,73405,1,8,0:0:0:0:
192,192,73405,1,0,0:0:0:0:
192,192,73769,1,2,0:0:0:0:
320,192,73769,128,0,74132:0:0:0:0:
448,192,74132,1,0,0:0:0:0:
64,192,74132,1,8,0:0:0:0:
192,192,74314,1,0,0:0:0:0:
320,192,74496,1,2,0:0:0:0:
448,192,74678,1,0,0:0:0:0:
64,192,74859,1,8,0:0:0:0:
192,192,75041,1,0,0:0:0:0:
320,192,75223,1,2,0:0:0:0:
64,192,75405,1,0,0:0:0:0:
192,192,75587,1,8,0:0:0:0:
448,192,75587,1,0,0:0:0:0:
64,192,75950,1,4,0:0:0:0:
448,192,75950,1,2,0:0:0:0:
192,192,76132,1,0,0:0:0:0:
320,192,76314,1,8,0:0:0:0:
192,192,76496,1,0,0:0:0:0:
64,192,76678,1,4,0:0:0:0:
448,192,76678,1,2,0:0:0:0:
320,192,76859,1,0,0:0:0:0:
192,192,77041,1,8,0:0:0:0:
64,192,77223,1,2,0:0:0:0:
320,192,77405,1,4,0:0:0:0:
448,192,77405,1,8,0:0:0:0:
192,192,77769,1,4,0:0:0:0:
320,192,77769,1,8,0:0:0:0:
64,192,78132,1,4,0:0:0:0:
192,192,78132,1,8,0:0:0:0:
320,192,78496,1,4,0:0:0:0:
448,192,78496,1,8,0:0:0:0:
64,192,78678,128,2,78859:0:0:0:0:
320,192,78859,1,8,0:0:0:0:
448,192,78859,1,0,0:0:0:0:
64,192,79041,1,8,0:0:0:0:
192,192,79041,1,4,0:0:0:0:
320,192,79587,1,8,0:0:0:0:
448,192,79587,1,0,0:0:0:0:
64,192,79769,1,4,0:0:0:0:
192,192,79769,1,8,0:0:0:0:
320,192,80314,1,8,0:0:0:0:
448,192,80314,1,4,0:0:0:0:
192,192,80496,1,12,0:0:0:0:
64,192,80678,1,12,0:0:0:0:
320,192,80859,1,8,0:0:0:0:
448,192,80859,1,4,0:0:0:0:
192,192,81223,1,2,0:0:0:0:
320,192,81405,1,8,0:0:0:0:
448,192,81405,128,0,81587:0:0:0:0:
64,192,81587,128,2,81769:0:0:0:0:
192,192,81769,1,8,0:0:0:0:
448,192,81769,1,0,0:0:0:0:
64,192,81950,1,8,0:0:0:0:
320,192,81950,1,4,0:0:0:0:
192,192,82496,1,8,0:0:0:0:
448,192,82496,1,0,0:0:0:0:
64,192,82678,1,4,0:0:0:0:
320,192,82678,1,8,0:0:0:0:
192,192,83223,1,8,0:0:0:0:
448,192,83223,1,4,0:0:0:0:
320,192,83405,1,12,0:0:0:0:
64,192,83587,1,12,0:0:0:0:
192,192,83769,1,4,0:0:0:0:
448,192,83769,1,8,0:0:0:0:
320,192,83950,128,2,84314:0:0:0:0:
64,192,84314,128,8,84678:0:0:0:0:
192,192,84314,1,0,0:0:0:0:
320,192,84678,1,8,0:0:0:0:
448,192,84678,1,4,0:0:0:0:
192,192,84859,1,0,0:0:0:0:
448,192,85041,1,0,0:0:0:0:
64,192,85223,1,0,0:0:0:0:
192,192,85405,1,8,0:0:0:0:
448,192,85405,128,4,85769:0:0:0:0:
64,192,85769,128,0,86132:0:0:0:0:
320,192,86132,1,4,0:0:0:0:
448,192,86132,1,8,0:0:0:0:
192,192,86496,1,8,0:0:0:0:
320,192,86496,1,4,0:0:0:0:
64,192,86859,1,8,0:0:0:0:
192,192,86859,1,4,0:0:0:0:
320,192,87041,1,2,0:0:0:0:
64,192,87223,1,4,0:0:0:0:
448,192,87223,1,8,0:0:0:0:
