osu file format v14

[General]
AudioFilename: audio.ogg
AudioLeadIn: 0
PreviewTime: 57882
Countdown: 0
SampleSet: Normal
StackLeniency: 0.7
Mode: 3
LetterboxInBreaks: 0
SpecialStyle: 0
WidescreenStoryboard: 0

[Editor]
DistanceSpacing: 1.3
BeatDivisor: 4
GridSize: 8
TimelineZoom: 2.500002

[Metadata]
Title:Mirai Start (TV Size)
TitleUnicode:ミライスタート (TV Size)
Artist:Mimori Suzuko
ArtistUnicode:三森すずこ
Creator:Rivals_7
Version:Magical
Source:マイリトルポニー ~トモダチは魔法~
Tags:pop anime jpop j-pop My Little Pony MLP FiM friendship is magic tomodachi wa mahou 1st japanese opening hasbro dhx media vancouver bushiroad pony canyon lauren faust pinkie pie twilight sparkle applejack rarity fluttershy rainbow dash spike
BeatmapID:1756875
BeatmapSetID:839243

[Difficulty]
HPDrainRate:8.5
CircleSize:4
OverallDifficulty:8.5
ApproachRate:5
SliderMultiplier:1.4
SliderTickRate:1

[Events]
//Background and Video events
0,0,"b5ac899b315eb70f6bdac1a3d472539f3ea209e4_s2_n1.jpg",0,0
Video,269,"My Little Pony FiM Japanese Opening ''Mirai Start''.mp4"
//Break Periods
//Storyboard Layer 0 (Background)
//Storyboard Layer 1 (Fail)
//Storyboard Layer 2 (Pass)
//Storyboard Layer 3 (Foreground)
//Storyboard Layer 4 (Overlay)
//Storyboard Sound Samples

[TimingPoints]
1769,363.636363636364,4,1,1,35,1,0
58496,-100,4,1,1,35,0,1
69769,-100,4,1,1,35,0,0
70132,-100,4,1,1,35,0,1
78859,-100,4,1,1,35,0,0

[HitObjects]
320,192,1769,5,4,0:0:0:0:
64,192,1769,128,8,3223:0:0:0:0:
448,192,1769,128,0,1950:0:0:0:0:
192,192,1950,1,0,0:0:0:0:
448,192,2132,128,0,2314:0:0:0:0:
192,192,2314,1,0,0:0:0:0:
320,192,2405,1,0,0:0:0:0:
448,192,2496,128,0,2769:0:0:0:0:
320,192,2769,1,2,0:0:0:0:
448,192,3041,1,0,0:0:0:0:
320,192,3132,1,0,0:0:0:0:
192,192,3223,1,2,0:0:0:0:
448,192,3223,128,0,4678:0:0:0:0:
64,192,3950,128,0,4314:0:0:0:0:
320,192,4132,128,0,4496:0:0:0:0:
192,192,4314,128,0,4496:0:0:0:0:
64,192,4496,1,0,0:0:0:0:
192,192,4587,1,0,0:0:0:0:
64,192,4678,128,0,6132:0:0:0:0:
320,192,4678,128,2,4859:0:0:0:0:
192,192,4859,1,0,0:0:0:0:
320,192,5041,128,0,5223:0:0:0:0:
448,192,5223,1,2,0:0:0:0:
192,192,5314,1,0,0:0:0:0:
448,192,5405,1,2,0:0:0:0:
320,192,5496,1,0,0:0:0:0:
192,192,5587,1,0,0:0:0:0:
448,192,5678,1,2,0:0:0:0:
192,192,5769,1,0,0:0:0:0:
320,192,5859,1,2,0:0:0:0:
448,192,5950,1,2,0:0:0:0:
192,192,6041,1,2,0:0:0:0:
448,192,6132,1,0,0:0:0:0:
320,192,6132,128,2,6859:0:0:0:0:
64,192,6678,1,2,0:0:0:0:
448,192,6769,1,0,0:0:0:0:
64,192,6859,1,0,0:0:0:0:
192,192,6859,1,2,0:0:0:0:
320,192,6950,1,0,0:0:0:0:
192,192,7041,1,2,0:0:0:0:
64,192,7041,1,0,0:0:0:0:
448,192,7132,1,0,0:0:0:0:
320,192,7132,1,2,0:0:0:0:
64,192,7223,1,0,0:0:0:0:
192,192,7223,1,2,0:0:0:0:
448,192,7314,1,0,0:0:0:0:
320,192,7405,1,0,0:0:0:0:
192,192,7496,1,0,0:0:0:0:
448,192,7587,1,0,0:0:0:0:
320,192,7587,1,4,0:0:0:0:
64,192,7587,128,8,7678:0:0:0:0:
192,192,7769,128,0,7859:0:0:0:0:
448,192,7950,128,0,8041:0:0:0:0:
64,192,8132,128,0,8223:0:0:0:0:
448,192,8223,128,0,8496:0:0:0:0:
192,192,8314,1,8,0:0:0:0:
320,192,8314,1,4,0:0:0:0:
64,192,8405,1,0,0:0:0:0:
320,192,8496,1,2,0:0:0:0:
64,192,8678,1,0,0:0:0:0:
192,192,8678,1,8,0:0:0:0:
448,192,8859,1,0,0:0:0:0:
192,192,8950,1,0,0:0:0:0:
64,192,9041,1,0,0:0:0:0:
320,192,9041,1,8,0:0:0:0:
448,192,9041,1,4,0:0:0:0:
448,192,9132,1,0,0:0:0:0:
192,192,9223,1,0,0:0:0:0:
320,192,9314,1,0,0:0:0:0:
448,192,9405,1,0,0:0:0:0:
192,192,9405,1,8,0:0:0:0:
64,192,9405,1,4,0:0:0:0:
64,192,9496,1,0,0:0:0:0:
320,192,9587,1,0,0:0:0:0:
192,192,9678,1,0,0:0:0:0:
64,192,9769,1,0,0:0:0:0:
320,192,9769,1,8,0:0:0:0:
448,192,9769,1,4,0:0:0:0:
448,192,9859,1,0,0:0:0:0:
192,192,9950,1,0,0:0:0:0:
320,192,10041,1,0,0:0:0:0:
448,192,10132,1,0,0:0:0:0:
192,192,10132,1,8,0:0:0:0:
64,192,10132,1,4,0:0:0:0:
64,192,10223,1,2,0:0:0:0:
320,192,10314,1,2,0:0:0:0:
448,192,10314,1,0,0:0:0:0:
192,192,10405,1,0,0:0:0:0:
320,192,10405,1,2,0:0:0:0:
64,192,10496,1,0,0:0:0:0:
448,192,10496,1,0,0:0:0:0:
192,192,10496,1,8,0:0:0:0:
64,192,10678,1,4,0:0:0:0:
192,192,10678,1,8,0:0:0:0:
448,192,10678,1,0,0:0:0:0:
192,192,11223,1,8,0:0:0:0:
320,192,11223,1,0,0:0:0:0:
448,192,11223,1,0,0:0:0:0:
448,192,11405,1,0,0:0:0:0:
320,192,11405,1,4,0:0:0:0:
192,192,11405,1,8,0:0:0:0:
64,192,11950,1,4,0:0:0:0:
192,192,11950,1,0,0:0:0:0:
320,192,11950,1,8,0:0:0:0:
64,192,12132,1,4,0:0:0:0:
192,192,12132,1,0,0:0:0:0:
320,192,12132,1,8,0:0:0:0:
64,192,12314,1,4,0:0:0:0:
320,192,12314,1,8,0:0:0:0:
448,192,12314,1,0,0:0:0:0:
64,192,12496,1,4,0:0:0:0:
320,192,12496,1,8,0:0:0:0:
448,192,12496,1,0,0:0:0:0:
320,192,12859,1,0,0:0:0:0:
448,192,12859,1,2,0:0:0:0:
192,192,13041,1,8,0:0:0:0:
64,192,13041,1,0,0:0:0:0:
448,192,13132,1,0,0:0:0:0:
320,192,13223,1,0,0:0:0:0:
64,192,13223,1,2,0:0:0:0:
192,192,13314,1,0,0:0:0:0:
320,192,13405,1,4,0:0:0:0:
448,192,13405,1,2,0:0:0:0:
64,192,13405,1,0,0:0:0:0:
192,192,13496,1,0,0:0:0:0:
320,192,13587,1,0,0:0:0:0:
448,192,13587,1,0,0:0:0:0:
64,192,13678,1,0,0:0:0:0:
192,192,13769,1,0,0:0:0:0:
320,192,13769,1,8,0:0:0:0:
448,192,13769,1,0,0:0:0:0:
64,192,13859,1,0,0:0:0:0:
192,192,13950,1,0,0:0:0:0:
448,192,13950,1,0,0:0:0:0:
320,192,14041,1,0,0:0:0:0:
192,192,14132,1,2,0:0:0:0:
64,192,14132,1,0,0:0:0:0:
320,192,14223,1,0,0:0:0:0:
448,192,14314,1,0,0:0:0:0:
192,192,14314,1,0,0:0:0:0:
192,192,14405,1,0,0:0:0:0:
448,192,14496,1,8,0:0:0:0:
64,192,14496,1,0,0:0:0:0:
320,192,14587,1,0,0:0:0:0:
192,192,14678,1,0,0:0:0:0:
64,192,14678,1,0,0:0:0:0:
320,192,14769,1,0,0:0:0:0:
64,192,14859,1,2,0:0:0:0:
448,192,14859,1,0,0:0:0:0:
192,192,14950,1,0,0:0:0:0:
448,192,15041,1,0,0:0:0:0:
320,192,15041,1,0,0:0:0:0:
64,192,15132,1,0,0:0:0:0:
192,192,15223,1,8,0:0:0:0:
448,192,15223,1,0,0:0:0:0:
320,192,15223,1,0,0:0:0:0:
64,192,15314,1,0,0:0:0:0:
448,192,15405,1,0,0:0:0:0:
320,192,15405,1,0,0:0:0:0:
192,192,15496,1,0,0:0:0:0:
64,192,15587,1,2,0:0:0:0:
448,192,15587,1,0,0:0:0:0:
320,192,15678,1,0,0:0:0:0:
192,192,15769,1,0,0:0:0:0:
448,192,15769,1,0,0:0:0:0:
448,192,15859,1,0,0:0:0:0:
192,192,15950,1,8,0:0:0:0:
64,192,15950,1,0,0:0:0:0:
320,192,16041,1,0,0:0:0:0:
64,192,16132,1,0,0:0:0:0:
192,192,16178,1,0,0:0:0:0:
320,192,16223,1,0,0:0:0:0:
448,192,16269,1,0,0:0:0:0:
192,192,16314,1,2,0:0:0:0:
64,192,16314,1,4,0:0:0:0:
320,192,16405,1,0,0:0:0:0:
64,192,16496,1,0,0:0:0:0:
448,192,16496,1,0,0:0:0:0:
192,192,16587,1,0,0:0:0:0:
64,192,16678,1,0,0:0:0:0:
448,192,16678,1,0,0:0:0:0:
320,192,16678,1,8,0:0:0:0:
448,192,16859,1,0,0:0:0:0:
320,192,16859,1,0,0:0:0:0:
192,192,16950,1,0,0:0:0:0:
64,192,16950,1,0,0:0:0:0:
192,192,17041,1,4,0:0:0:0:
64,192,17041,1,2,0:0:0:0:
448,192,17132,1,0,0:0:0:0:
320,192,17132,1,0,0:0:0:0:
320,192,17223,1,0,0:0:0:0:
448,192,17223,1,0,0:0:0:0:
192,192,17314,1,0,0:0:0:0:
64,192,17314,1,0,0:0:0:0:
448,192,17405,1,0,0:0:0:0:
320,192,17405,1,2,0:0:0:0:
64,192,17496,1,0,0:0:0:0:
192,192,17587,1,0,0:0:0:0:
320,192,17769,1,4,0:0:0:0:
448,192,17769,1,2,0:0:0:0:
64,192,17769,128,0,17950:0:0:0:0:
192,192,17859,128,0,18041:0:0:0:0:
320,192,17950,128,0,18132:0:0:0:0:
448,192,18041,128,0,18223:0:0:0:0:
64,192,18041,1,0,0:0:0:0:
192,192,18132,1,6,0:0:0:0:
320,192,18223,1,0,0:0:0:0:
448,192,18314,1,0,0:0:0:0:
64,192,18314,1,0,0:0:0:0:
192,192,18405,1,0,0:0:0:0:
320,192,18450,1,0,0:0:0:0:
448,192,18496,128,4,19132:0:0:0:0:
64,192,18496,128,8,19132:0:0:0:0:
192,192,18678,1,0,0:0:0:0:
192,192,18769,1,0,0:0:0:0:
320,192,18859,1,8,0:0:0:0:
192,192,19041,1,0,0:0:0:0:
192,192,19132,1,0,0:0:0:0:
320,192,19223,1,4,0:0:0:0:
64,192,19223,1,2,0:0:0:0:
448,192,19223,1,0,0:0:0:0:
448,192,19405,1,0,0:0:0:0:
448,192,19496,1,0,0:0:0:0:
192,192,19587,1,0,0:0:0:0:
64,192,19587,1,2,0:0:0:0:
320,192,19769,1,0,0:0:0:0:
320,192,19859,1,0,0:0:0:0:
64,192,19950,1,2,0:0:0:0:
192,192,19950,1,0,0:0:0:0:
320,192,20041,1,0,0:0:0:0:
448,192,20132,1,0,0:0:0:0:
320,192,20223,1,0,0:0:0:0:
192,192,20314,1,0,0:0:0:0:
64,192,20314,1,2,0:0:0:0:
320,192,20496,1,0,0:0:0:0:
320,192,20587,1,0,0:0:0:0:
448,192,20678,1,0,0:0:0:0:
64,192,20678,1,2,0:0:0:0:
192,192,20859,1,0,0:0:0:0:
192,192,20950,1,0,0:0:0:0:
320,192,21041,1,0,0:0:0:0:
448,192,21041,1,2,0:0:0:0:
64,192,21223,1,0,0:0:0:0:
64,192,21314,1,0,0:0:0:0:
320,192,21405,1,0,0:0:0:0:
448,192,21405,1,2,0:0:0:0:
192,192,21587,1,0,0:0:0:0:
192,192,21678,1,0,0:0:0:0:
320,192,21769,1,0,0:0:0:0:
448,192,21769,1,2,0:0:0:0:
192,192,21950,1,0,0:0:0:0:
192,192,22041,1,0,0:0:0:0:
64,192,22132,1,2,0:0:0:0:
448,192,22132,1,0,0:0:0:0:
320,192,22314,1,0,0:0:0:0:
320,192,22405,1,0,0:0:0:0:
192,192,22496,1,0,0:0:0:0:
64,192,22496,1,2,0:0:0:0:
448,192,22678,1,0,0:0:0:0:
448,192,22769,1,0,0:0:0:0:
192,192,22859,1,0,0:0:0:0:
64,192,22859,1,2,0:0:0:0:
448,192,22950,1,0,0:0:0:0:
320,192,23041,1,0,0:0:0:0:
448,192,23132,1,0,0:0:0:0:
192,192,23223,1,0,0:0:0:0:
64,192,23223,1,2,0:0:0:0:
320,192,23405,1,0,0:0:0:0:
320,192,23496,1,0,0:0:0:0:
64,192,23587,1,0,0:0:0:0:
448,192,23587,1,2,0:0:0:0:
192,192,23769,1,0,0:0:0:0:
192,192,23859,1,0,0:0:0:0:
320,192,23950,1,0,0:0:0:0:
448,192,23950,1,2,0:0:0:0:
64,192,24041,1,0,0:0:0:0:
448,192,24132,1,0,0:0:0:0:
448,192,24223,1,0,0:0:0:0:
192,192,24314,1,2,0:0:0:0:
64,192,24314,1,0,0:0:0:0:
320,192,24405,1,0,0:0:0:0:
64,192,24496,1,0,0:0:0:0:
64,192,24587,1,0,0:0:0:0:
320,192,24678,1,2,0:0:0:0:
448,192,24678,1,0,0:0:0:0:
448,192,24859,1,2,0:0:0:0:
320,192,24859,1,0,0:0:0:0:
192,192,25041,1,2,0:0:0:0:
64,192,25041,128,0,25132:0:0:0:0:
320,192,25223,1,0,0:0:0:0:
320,192,25314,1,0,0:0:0:0:
192,192,25405,1,0,0:0:0:0:
64,192,25405,1,2,0:0:0:0:
448,192,25587,128,0,25678:0:0:0:0:
192,192,25769,1,0,0:0:0:0:
64,192,25769,1,2,0:0:0:0:
448,192,25769,128,0,25859:0:0:0:0:
448,192,25950,128,0,26041:0:0:0:0:
192,192,26132,1,0,0:0:0:0:
64,192,26132,1,2,0:0:0:0:
320,192,26314,1,0,0:0:0:0:
320,192,26405,1,0,0:0:0:0:
448,192,26496,1,2,0:0:0:0:
64,192,26496,1,0,0:0:0:0:
192,192,26678,1,0,0:0:0:0:
192,192,26769,1,0,0:0:0:0:
320,192,26859,1,0,0:0:0:0:
448,192,26859,1,2,0:0:0:0:
64,192,27041,1,0,0:0:0:0:
64,192,27132,1,0,0:0:0:0:
320,192,27223,1,0,0:0:0:0:
448,192,27223,1,2,0:0:0:0:
192,192,27405,1,0,0:0:0:0:
192,192,27496,1,0,0:0:0:0:
320,192,27587,1,0,0:0:0:0:
448,192,27587,1,2,0:0:0:0:
64,192,27769,1,0,0:0:0:0:
64,192,27859,1,0,0:0:0:0:
320,192,27950,1,0,0:0:0:0:
448,192,27950,1,8,0:0:0:0:
192,192,27950,1,0,0:0:0:0:
192,192,28132,1,0,0:0:0:0:
320,192,28132,1,0,0:0:0:0:
448,192,28132,1,8,0:0:0:0:
320,192,28678,1,0,0:0:0:0:
192,192,28678,1,0,0:0:0:0:
64,192,28678,1,8,0:0:0:0:
64,192,28859,1,8,0:0:0:0:
192,192,28859,1,0,0:0:0:0:
320,192,28859,1,0,0:0:0:0:
320,192,29041,1,0,0:0:0:0:
448,192,29041,1,0,0:0:0:0:
192,192,29132,1,0,0:0:0:0:
448,192,29223,1,0,0:0:0:0:
64,192,29314,1,0,0:0:0:0:
192,192,29405,1,0,0:0:0:0:
320,192,29405,1,8,0:0:0:0:
448,192,29405,1,4,0:0:0:0:
64,192,29587,1,0,0:0:0:0:
320,192,29587,1,2,0:0:0:0:
192,192,29769,1,0,0:0:0:0:
320,192,29769,1,8,0:0:0:0:
448,192,29769,1,4,0:0:0:0:
64,192,29950,1,0,0:0:0:0:
192,192,29950,1,4,0:0:0:0:
320,192,29950,1,8,0:0:0:0:
448,192,30314,1,0,0:0:0:0:
448,192,30405,1,0,0:0:0:0:
192,192,30496,1,8,0:0:0:0:
64,192,30496,1,0,0:0:0:0:
64,192,30678,1,0,0:0:0:0:
64,192,30769,1,0,0:0:0:0:
320,192,30859,1,4,0:0:0:0:
192,192,30859,1,0,0:0:0:0:
448,192,30859,128,2,30950:0:0:0:0:
64,192,31041,1,0,0:0:0:0:
64,192,31223,1,0,0:0:0:0:
448,192,31223,1,8,0:0:0:0:
320,192,31223,1,0,0:0:0:0:
320,192,31405,1,0,0:0:0:0:
192,192,31496,1,0,0:0:0:0:
64,192,31587,1,0,0:0:0:0:
448,192,31587,1,2,0:0:0:0:
320,192,31678,1,0,0:0:0:0:
192,192,31769,1,0,0:0:0:0:
64,192,31859,1,0,0:0:0:0:
448,192,31950,1,0,0:0:0:0:
320,192,31950,128,8,32041:0:0:0:0:
192,192,31950,1,0,0:0:0:0:
320,192,32132,1,0,0:0:0:0:
448,192,32314,128,0,32405:0:0:0:0:
192,192,32314,1,2,0:0:0:0:
64,192,32314,1,0,0:0:0:0:
320,192,32496,1,0,0:0:0:0:
320,192,32678,1,0,0:0:0:0:
64,192,32678,1,0,0:0:0:0:
192,192,32678,1,8,0:0:0:0:
448,192,32859,1,0,0:0:0:0:
448,192,33041,1,0,0:0:0:0:
192,192,33041,1,2,0:0:0:0:
64,192,33223,1,0,0:0:0:0:
64,192,33405,1,0,0:0:0:0:
448,192,33405,1,0,0:0:0:0:
192,192,33405,128,8,33496:0:0:0:0:
320,192,33496,1,0,0:0:0:0:
192,192,33587,1,0,0:0:0:0:
320,192,33769,128,2,33859:0:0:0:0:
64,192,33769,1,0,0:0:0:0:
320,192,33950,1,0,0:0:0:0:
64,192,34132,1,0,0:0:0:0:
192,192,34132,1,8,0:0:0:0:
448,192,34132,1,0,0:0:0:0:
320,192,34314,1,0,0:0:0:0:
448,192,34405,1,0,0:0:0:0:
192,192,34496,1,2,0:0:0:0:
64,192,34496,1,0,0:0:0:0:
320,192,34587,1,0,0:0:0:0:
448,192,34678,1,0,0:0:0:0:
192,192,34769,1,0,0:0:0:0:
64,192,34859,1,0,0:0:0:0:
320,192,34859,1,8,0:0:0:0:
448,192,34859,1,0,0:0:0:0:
192,192,35041,1,0,0:0:0:0:
64,192,35223,1,0,0:0:0:0:
448,192,35223,128,2,35314:0:0:0:0:
320,192,35405,1,0,0:0:0:0:
64,192,35587,1,0,0:0:0:0:
320,192,35587,1,8,0:0:0:0:
448,192,35587,1,0,0:0:0:0:
192,192,35769,1,0,0:0:0:0:
320,192,35950,1,2,0:0:0:0:
64,192,35950,1,0,0:0:0:0:
192,192,36041,1,0,0:0:0:0:
448,192,36132,1,0,0:0:0:0:
192,192,36314,1,8,0:0:0:0:
448,192,36314,1,0,0:0:0:0:
320,192,36314,1,0,0:0:0:0:
64,192,36496,1,0,0:0:0:0:
192,192,36496,1,0,0:0:0:0:
320,192,36678,1,2,0:0:0:0:
448,192,36678,1,0,0:0:0:0:
64,192,36678,128,0,36769:0:0:0:0:
192,192,36859,1,0,0:0:0:0:
320,192,36950,1,0,0:0:0:0:
64,192,37041,1,0,0:0:0:0:
192,192,37041,1,8,0:0:0:0:
448,192,37041,1,0,0:0:0:0:
320,192,37132,1,0,0:0:0:0:
64,192,37223,1,0,0:0:0:0:
448,192,37314,1,0,0:0:0:0:
64,192,37405,1,0,0:0:0:0:
320,192,37405,128,2,37496:0:0:0:0:
192,192,37405,1,0,0:0:0:0:
448,192,37496,1,0,0:0:0:0:
192,192,37587,1,0,0:0:0:0:
64,192,37769,1,8,0:0:0:0:
320,192,37769,1,0,0:0:0:0:
448,192,37769,1,0,0:0:0:0:
320,192,37950,1,2,0:0:0:0:
448,192,37950,128,0,38041:0:0:0:0:
192,192,38041,1,0,0:0:0:0:
64,192,38132,1,0,0:0:0:0:
448,192,38132,128,2,38223:0:0:0:0:
192,192,38314,1,0,0:0:0:0:
192,192,38405,1,0,0:0:0:0:
64,192,38496,1,0,0:0:0:0:
320,192,38496,1,8,0:0:0:0:
448,192,38496,1,0,0:0:0:0:
192,192,38678,128,0,38769:0:0:0:0:
320,192,38769,1,0,0:0:0:0:
64,192,38859,128,2,38950:0:0:0:0:
448,192,38859,1,0,0:0:0:0:
320,192,39041,1,0,0:0:0:0:
192,192,39223,1,8,0:0:0:0:
64,192,39223,1,0,0:0:0:0:
448,192,39223,1,0,0:0:0:0:
64,192,39405,128,4,39769:0:0:0:0:
448,192,39405,128,2,39769:0:0:0:0:
320,192,39405,1,0,0:0:0:0:
192,192,39769,1,0,0:0:0:0:
320,192,39769,1,2,0:0:0:0:
64,192,39950,1,0,0:0:0:0:
320,192,39950,1,8,0:0:0:0:
448,192,39950,1,0,0:0:0:0:
64,192,40132,1,0,0:0:0:0:
448,192,40132,1,0,0:0:0:0:
192,192,40314,1,8,0:0:0:0:
320,192,40314,1,0,0:0:0:0:
64,192,40314,1,0,0:0:0:0:
192,192,40496,1,2,0:0:0:0:
320,192,40496,1,0,0:0:0:0:
64,192,40678,1,0,0:0:0:0:
320,192,40678,1,8,0:0:0:0:
448,192,40678,1,0,0:0:0:0:
64,192,40859,1,2,0:0:0:0:
448,192,40859,1,0,0:0:0:0:
192,192,41041,1,0,0:0:0:0:
64,192,41041,1,0,0:0:0:0:
320,192,41041,1,4,0:0:0:0:
448,192,41041,1,2,0:0:0:0:
192,192,41223,1,2,0:0:0:0:
64,192,41223,1,0,0:0:0:0:
320,192,41405,1,2,0:0:0:0:
448,192,41405,1,0,0:0:0:0:
448,192,41587,1,0,0:0:0:0:
320,192,41587,1,2,0:0:0:0:
192,192,41678,1,0,0:0:0:0:
320,192,41769,1,0,0:0:0:0:
64,192,41859,1,0,0:0:0:0:
192,192,41950,1,2,0:0:0:0:
448,192,41950,1,0,0:0:0:0:
320,192,42041,1,0,0:0:0:0:
448,192,42132,1,0,0:0:0:0:
64,192,42132,1,2,0:0:0:0:
320,192,42314,1,0,0:0:0:0:
64,192,42496,1,2,0:0:0:0:
448,192,42496,1,4,0:0:0:0:
64,192,42678,1,0,0:0:0:0:
320,192,43223,1,2,0:0:0:0:
448,192,43223,1,0,0:0:0:0:
320,192,43405,1,2,0:0:0:0:
448,192,43405,1,0,0:0:0:0:
192,192,43587,1,8,0:0:0:0:
448,192,43587,1,0,0:0:0:0:
64,192,43587,1,0,0:0:0:0:
192,192,43769,1,2,0:0:0:0:
64,192,43769,1,0,0:0:0:0:
320,192,44132,1,2,0:0:0:0:
448,192,44132,1,0,0:0:0:0:
64,192,44496,1,0,0:0:0:0:
192,192,44678,1,0,0:0:0:0:
320,192,44678,1,2,0:0:0:0:
192,192,44859,1,0,0:0:0:0:
320,192,44859,1,2,0:0:0:0:
192,192,45041,1,8,0:0:0:0:
448,192,45041,1,0,0:0:0:0:
64,192,45041,1,0,0:0:0:0:
320,192,45223,1,2,0:0:0:0:
448,192,45223,1,0,0:0:0:0:
64,192,45314,1,0,0:0:0:0:
192,192,45405,1,2,0:0:0:0:
320,192,45405,1,0,0:0:0:0:
192,192,45587,1,0,0:0:0:0:
64,192,45769,1,8,0:0:0:0:
448,192,45769,1,0,0:0:0:0:
192,192,46132,1,2,0:0:0:0:
64,192,46132,1,0,0:0:0:0:
64,192,46314,1,0,0:0:0:0:
192,192,46314,1,2,0:0:0:0:
320,192,46496,1,8,0:0:0:0:
64,192,46496,1,0,0:0:0:0:
448,192,46496,1,0,0:0:0:0:
192,192,46859,1,4,0:0:0:0:
320,192,46859,1,0,0:0:0:0:
448,192,46859,1,8,0:0:0:0:
448,192,47041,1,0,0:0:0:0:
320,192,47041,1,2,0:0:0:0:
192,192,47041,1,0,0:0:0:0:
192,192,47223,1,0,0:0:0:0:
320,192,47223,1,2,0:0:0:0:
448,192,47223,1,0,0:0:0:0:
320,192,47405,1,0,0:0:0:0:
192,192,47405,1,4,0:0:0:0:
64,192,47405,128,8,47769:0:0:0:0:
448,192,47587,1,2,0:0:0:0:
320,192,47678,1,2,0:0:0:0:
192,192,47769,1,2,0:0:0:0:
448,192,47859,1,0,0:0:0:0:
64,192,47950,1,0,0:0:0:0:
320,192,47950,1,0,0:0:0:0:
192,192,47950,1,8,0:0:0:0:
448,192,48041,1,0,0:0:0:0:
64,192,48132,1,0,0:0:0:0:
192,192,48223,1,0,0:0:0:0:
320,192,48314,1,4,0:0:0:0:
448,192,48314,1,0,0:0:0:0:
64,192,48314,1,2,0:0:0:0:
192,192,48496,1,0,0:0:0:0:
448,192,48496,1,0,0:0:0:0:
320,192,48678,1,0,0:0:0:0:
192,192,48678,1,8,0:0:0:0:
64,192,48678,1,0,0:0:0:0:
320,192,48859,1,0,0:0:0:0:
448,192,48859,1,0,0:0:0:0:
192,192,49041,1,2,0:0:0:0:
64,192,49041,1,0,0:0:0:0:
64,192,49223,1,0,0:0:0:0:
192,192,49223,1,0,0:0:0:0:
320,192,49405,1,8,0:0:0:0:
448,192,49405,1,0,0:0:0:0:
64,192,49405,1,0,0:0:0:0:
448,192,49587,128,0,50496:0:0:0:0:
192,192,49587,128,0,49769:0:0:0:0:
64,192,49769,1,0,0:0:0:0:
320,192,49769,1,2,0:0:0:0:
320,192,49950,128,0,50132:0:0:0:0:
192,192,50132,1,8,0:0:0:0:
64,192,50132,1,0,0:0:0:0:
64,192,50314,128,0,50496:0:0:0:0:
192,192,50496,1,2,0:0:0:0:
320,192,50496,1,0,0:0:0:0:
448,192,50678,128,0,50859:0:0:0:0:
192,192,50859,1,8,0:0:0:0:
64,192,50859,1,0,0:0:0:0:
320,192,51041,128,2,51223:0:0:0:0:
448,192,51041,128,0,51405:0:0:0:0:
192,192,51223,1,2,0:0:0:0:
64,192,51223,1,4,0:0:0:0:
64,192,51405,128,0,51587:0:0:0:0:
320,192,51587,128,8,51769:0:0:0:0:
448,192,51587,1,0,0:0:0:0:
192,192,51769,128,0,51950:0:0:0:0:
64,192,51950,1,2,0:0:0:0:
448,192,51950,128,4,52314:0:0:0:0:
64,192,52132,1,0,0:0:0:0:
192,192,52132,1,2,0:0:0:0:
320,192,52314,1,2,0:0:0:0:
64,192,52314,128,4,52496:0:0:0:0:
320,192,52496,128,2,52859:0:0:0:0:
448,192,52496,1,0,0:0:0:0:
192,192,52678,1,2,0:0:0:0:
64,192,52678,1,4,0:0:0:0:
448,192,52859,1,0,0:0:0:0:
192,192,53041,1,2,0:0:0:0:
320,192,53041,1,0,0:0:0:0:
320,192,53223,1,8,0:0:0:0:
64,192,53223,1,0,0:0:0:0:
448,192,53223,1,0,0:0:0:0:
64,192,53405,1,0,0:0:0:0:
320,192,53405,1,8,0:0:0:0:
448,192,53405,1,0,0:0:0:0:
64,192,53587,1,0,0:0:0:0:
320,192,53587,1,8,0:0:0:0:
448,192,53587,1,0,0:0:0:0:
64,192,53950,1,0,0:0:0:0:
320,192,53950,1,8,0:0:0:0:
448,192,53950,1,0,0:0:0:0:
320,192,54314,1,2,0:0:0:0:
448,192,54314,1,0,0:0:0:0:
448,192,54496,128,8,54678:0:0:0:0:
64,192,54496,1,0,0:0:0:0:
320,192,54587,128,0,54769:0:0:0:0:
192,192,54678,128,0,54859:0:0:0:0:
64,192,54769,128,0,54950:0:0:0:0:
448,192,54769,128,0,55223:0:0:0:0:
320,192,54859,128,2,55132:0:0:0:0:
192,192,54950,128,0,55041:0:0:0:0:
64,192,55041,128,2,55223:0:0:0:0:
192,192,55132,128,2,55314:0:0:0:0:
320,192,55223,128,8,55405:0:0:0:0:
448,192,55314,128,0,55496:0:0:0:0:
64,192,55314,1,0,0:0:0:0:
192,192,55405,1,0,0:0:0:0:
320,192,55496,1,0,0:0:0:0:
448,192,55587,1,0,0:0:0:0:
192,192,55587,1,8,0:0:0:0:
64,192,55587,1,4,0:0:0:0:
192,192,55769,1,2,0:0:0:0:
64,192,55769,1,0,0:0:0:0:
64,192,55950,1,0,0:0:0:0:
192,192,55950,1,2,0:0:0:0:
320,192,56132,1,8,0:0:0:0:
448,192,56132,1,0,0:0:0:0:
64,192,56132,1,0,0:0:0:0:
320,192,56314,1,8,0:0:0:0:
448,192,56314,1,0,0:0:0:0:
64,192,56314,1,0,0:0:0:0:
64,192,56496,1,0,0:0:0:0:
320,192,56496,1,8,0:0:0:0:
448,192,56496,1,0,0:0:0:0:
64,192,56859,1,0,0:0:0:0:
320,192,56859,1,8,0:0:0:0:
448,192,56859,1,0,0:0:0:0:
192,192,57405,1,0,0:0:0:0:
448,192,57496,1,0,0:0:0:0:
448,192,57587,1,0,0:0:0:0:
64,192,57678,1,0,0:0:0:0:
64,192,57769,1,0,0:0:0:0:
64,192,58496,1,0,0:0:0:0:
192,192,58496,1,0,0:0:0:0:
320,192,58496,128,2,58678:0:0:0:0:
448,192,58496,128,4,58678:0:0:0:0:
64,192,58678,1,0,0:0:0:0:
320,192,58859,128,8,59041:0:0:0:0:
448,192,58859,128,0,59041:0:0:0:0:
64,192,58950,1,0,0:0:0:0:
192,192,59041,1,0,0:0:0:0:
64,192,59132,1,0,0:0:0:0:
320,192,59223,128,2,59496:0:0:0:0:
448,192,59223,128,0,59496:0:0:0:0:
192,192,59314,1,0,0:0:0:0:
64,192,59405,1,0,0:0:0:0:
192,192,59496,1,0,0:0:0:0:
320,192,59587,1,8,0:0:0:0:
448,192,59587,1,0,0:0:0:0:
64,192,59587,1,0,0:0:0:0:
448,192,59769,1,0,0:0:0:0:
64,192,59769,1,0,0:0:0:0:
192,192,59950,1,2,0:0:0:0:
320,192,59950,1,0,0:0:0:0:
192,192,60132,1,0,0:0:0:0:
64,192,60132,1,0,0:0:0:0:
320,192,60314,1,8,0:0:0:0:
448,192,60314,1,0,0:0:0:0:
64,192,60314,1,0,0:0:0:0:
192,192,60496,1,0,0:0:0:0:
320,192,60496,1,0,0:0:0:0:
192,192,60678,1,2,0:0:0:0:
64,192,60678,1,0,0:0:0:0:
320,192,60769,1,0,0:0:0:0:
448,192,60859,1,0,0:0:0:0:
192,192,60950,1,0,0:0:0:0:
64,192,61041,1,0,0:0:0:0:
320,192,61041,1,8,0:0:0:0:
448,192,61041,1,0,0:0:0:0:
192,192,61132,1,0,0:0:0:0:
64,192,61223,1,2,0:0:0:0:
448,192,61223,1,0,0:0:0:0:
320,192,61314,1,0,0:0:0:0:
448,192,61405,1,0,0:0:0:0:
192,192,61405,128,2,61587:0:0:0:0:
64,192,61405,128,0,61587:0:0:0:0:
320,192,61587,1,0,0:0:0:0:
192,192,61769,128,8,61950:0:0:0:0:
64,192,61769,128,0,61950:0:0:0:0:
320,192,61859,1,0,0:0:0:0:
448,192,61950,1,0,0:0:0:0:
320,192,62041,1,0,0:0:0:0:
64,192,62132,128,0,62405:0:0:0:0:
192,192,62132,128,2,62405:0:0:0:0:
448,192,62223,1,0,0:0:0:0:
320,192,62314,1,0,0:0:0:0:
448,192,62405,1,0,0:0:0:0:
192,192,62496,1,8,0:0:0:0:
64,192,62496,1,0,0:0:0:0:
320,192,62587,1,0,0:0:0:0:
448,192,62678,1,0,0:0:0:0:
64,192,62678,1,0,0:0:0:0:
192,192,62769,1,0,0:0:0:0:
64,192,62859,1,2,0:0:0:0:
448,192,62859,1,0,0:0:0:0:
320,192,63041,1,0,0:0:0:0:
448,192,63041,1,0,0:0:0:0:
192,192,63223,1,8,0:0:0:0:
64,192,63223,1,0,0:0:0:0:
320,192,63223,1,0,0:0:0:0:
64,192,63405,1,0,0:0:0:0:
448,192,63405,1,0,0:0:0:0:
192,192,63587,1,2,0:0:0:0:
448,192,63587,1,0,0:0:0:0:
320,192,63678,1,0,0:0:0:0:
64,192,63769,1,0,0:0:0:0:
320,192,63859,1,2,0:0:0:0:
448,192,63859,1,0,0:0:0:0:
192,192,63950,1,8,0:0:0:0:
64,192,63950,1,0,0:0:0:0:
320,192,64041,1,0,0:0:0:0:
448,192,64132,1,2,0:0:0:0:
64,192,64132,1,0,0:0:0:0:
192,192,64223,1,0,0:0:0:0:
64,192,64314,1,2,0:0:0:0:
320,192,64314,1,4,0:0:0:0:
448,192,64314,1,0,0:0:0:0:
192,192,64496,1,0,0:0:0:0:
320,192,64496,1,0,0:0:0:0:
192,192,64678,1,8,0:0:0:0:
64,192,64678,1,0,0:0:0:0:
448,192,64678,1,0,0:0:0:0:
64,192,64859,1,0,0:0:0:0:
448,192,64859,1,0,0:0:0:0:
320,192,64950,1,0,0:0:0:0:
64,192,65041,1,0,0:0:0:0:
192,192,65041,1,2,0:0:0:0:
64,192,65132,1,0,0:0:0:0:
448,192,65223,1,0,0:0:0:0:
192,192,65314,1,0,0:0:0:0:
64,192,65405,1,0,0:0:0:0:
320,192,65405,1,8,0:0:0:0:
448,192,65405,1,0,0:0:0:0:
320,192,65587,1,0,0:0:0:0:
448,192,65587,1,0,0:0:0:0:
320,192,65769,1,2,0:0:0:0:
448,192,65769,1,0,0:0:0:0:
64,192,65769,1,4,0:0:0:0:
192,192,65950,1,0,0:0:0:0:
64,192,65950,1,0,0:0:0:0:
320,192,66132,1,8,0:0:0:0:
192,192,66132,1,0,0:0:0:0:
448,192,66132,1,0,0:0:0:0:
448,192,66314,1,0,0:0:0:0:
64,192,66314,1,0,0:0:0:0:
192,192,66405,1,0,0:0:0:0:
320,192,66496,1,2,0:0:0:0:
448,192,66496,1,0,0:0:0:0:
448,192,66587,1,0,0:0:0:0:
64,192,66678,1,0,0:0:0:0:
192,192,66769,1,0,0:0:0:0:
320,192,66859,1,8,0:0:0:0:
448,192,66859,1,0,0:0:0:0:
64,192,66859,1,0,0:0:0:0:
192,192,66950,1,0,0:0:0:0:
320,192,67041,1,2,0:0:0:0:
448,192,67041,1,0,0:0:0:0:
192,192,67132,1,0,0:0:0:0:
320,192,67223,1,4,0:0:0:0:
448,192,67223,1,0,0:0:0:0:
64,192,67223,1,2,0:0:0:0:
192,192,67405,1,0,0:0:0:0:
448,192,67405,1,0,0:0:0:0:
64,192,67587,1,0,0:0:0:0:
320,192,67587,1,8,0:0:0:0:
192,192,67587,1,0,0:0:0:0:
448,192,67678,1,0,0:0:0:0:
320,192,67769,1,0,0:0:0:0:
64,192,67769,1,2,0:0:0:0:
192,192,67859,1,2,0:0:0:0:
448,192,67950,1,2,0:0:0:0:
64,192,67950,1,4,0:0:0:0:
320,192,68041,1,0,0:0:0:0:
192,192,68132,1,0,0:0:0:0:
192,192,68314,1,8,0:0:0:0:
64,192,68314,1,0,0:0:0:0:
448,192,68314,1,0,0:0:0:0:
448,192,68496,1,0,0:0:0:0:
192,192,68496,128,8,68859:0:0:0:0:
64,192,68496,128,4,68859:0:0:0:0:
320,192,68859,1,2,0:0:0:0:
448,192,68859,1,0,0:0:0:0:
192,192,68950,1,2,0:0:0:0:
64,192,68950,1,0,0:0:0:0:
320,192,69041,1,2,0:0:0:0:
448,192,69041,1,0,0:0:0:0:
192,192,69132,1,2,0:0:0:0:
64,192,69132,1,0,0:0:0:0:
448,192,69223,1,2,0:0:0:0:
320,192,69314,1,2,0:0:0:0:
64,192,69405,1,4,0:0:0:0:
192,192,69405,1,2,0:0:0:0:
320,192,69496,1,0,0:0:0:0:
448,192,69587,1,0,0:0:0:0:
192,192,69678,1,2,0:0:0:0:
64,192,69678,1,0,0:0:0:0:
320,192,69769,1,8,0:0:0:0:
448,192,69769,1,4,0:0:0:0:
64,192,69859,1,0,0:0:0:0:
192,192,69950,1,0,0:0:0:0:
320,192,70041,1,0,0:0:0:0:
448,192,70132,1,0,0:0:0:0:
192,192,70132,128,2,70314:0:0:0:0:
64,192,70132,128,4,70314:0:0:0:0:
320,192,70314,1,0,0:0:0:0:
192,192,70496,128,8,70678:0:0:0:0:
64,192,70496,128,0,70678:0:0:0:0:
320,192,70587,1,0,0:0:0:0:
448,192,70678,1,0,0:0:0:0:
320,192,70769,1,0,0:0:0:0:
192,192,70859,128,2,71132:0:0:0:0:
64,192,70859,128,0,71132:0:0:0:0:
448,192,70950,1,0,0:0:0:0:
320,192,71041,1,0,0:0:0:0:
448,192,71132,1,0,0:0:0:0:
192,192,71223,1,8,0:0:0:0:
64,192,71223,1,0,0:0:0:0:
320,192,71223,1,0,0:0:0:0:
448,192,71405,1,0,0:0:0:0:
64,192,71405,1,0,0:0:0:0:
320,192,71587,1,2,0:0:0:0:
448,192,71587,1,0,0:0:0:0:
192,192,71769,1,0,0:0:0:0:
320,192,71769,1,0,0:0:0:0:
64,192,71950,1,0,0:0:0:0:
448,192,71950,1,0,0:0:0:0:
192,192,71950,1,8,0:0:0:0:
320,192,72132,1,0,0:0:0:0:
448,192,72132,1,0,0:0:0:0:
192,192,72314,1,2,0:0:0:0:
64,192,72314,1,0,0:0:0:0:
320,192,72405,1,0,0:0:0:0:
64,192,72496,1,0,0:0:0:0:
448,192,72496,1,0,0:0:0:0:
192,192,72587,1,0,0:0:0:0:
320,192,72678,1,8,0:0:0:0:
448,192,72678,1,0,0:0:0:0:
64,192,72678,1,0,0:0:0:0:
192,192,72859,1,0,0:0:0:0:
448,192,72859,1,2,0:0:0:0:
64,192,73041,1,0,0:0:0:0:
320,192,73041,128,2,73223:0:0:0:0:
448,192,73041,128,0,73223:0:0:0:0:
192,192,73223,1,0,0:0:0:0:
320,192,73405,128,8,73587:0:0:0:0:
448,192,73405,128,0,73587:0:0:0:0:
64,192,73496,1,0,0:0:0:0:
192,192,73587,1,0,0:0:0:0:
64,192,73678,1,0,0:0:0:0:
320,192,73769,128,2,74041:0:0:0:0:
448,192,73769,128,0,74041:0:0:0:0:
192,192,73859,1,0,0:0:0:0:
64,192,73950,1,0,0:0:0:0:
192,192,74041,1,0,0:0:0:0:
320,192,74132,1,8,0:0:0:0:
448,192,74132,1,0,0:0:0:0:
64,192,74132,1,0,0:0:0:0:
320,192,74314,1,0,0:0:0:0:
192,192,74314,1,0,0:0:0:0:
448,192,74496,1,0,0:0:0:0:
64,192,74496,1,2,0:0:0:0:
320,192,74678,1,0,0:0:0:0:
448,192,74678,1,0,0:0:0:0:
192,192,74859,1,8,0:0:0:0:
64,192,74859,1,0,0:0:0:0:
320,192,74859,1,0,0:0:0:0:
448,192,75041,1,0,0:0:0:0:
64,192,75041,1,0,0:0:0:0:
320,192,75223,1,2,0:0:0:0:
448,192,75223,1,0,0:0:0:0:
64,192,75314,1,0,0:0:0:0:
320,192,75405,1,0,0:0:0:0:
192,192,75496,1,0,0:0:0:0:
320,192,75587,1,8,0:0:0:0:
448,192,75587,1,0,0:0:0:0:
64,192,75587,1,0,0:0:0:0:
192,192,75678,1,0,0:0:0:0:
64,192,75769,1,0,0:0:0:0:
448,192,75769,1,0,0:0:0:0:
320,192,75859,1,0,0:0:0:0:
192,192,75950,1,4,0:0:0:0:
64,192,75950,1,0,0:0:0:0:
448,192,75950,1,2,0:0:0:0:
320,192,76132,1,0,0:0:0:0:
64,192,76132,1,0,0:0:0:0:
192,192,76314,1,8,0:0:0:0:
320,192,76314,1,0,0:0:0:0:
448,192,76314,1,0,0:0:0:0:
64,192,76496,1,0,0:0:0:0:
448,192,76496,1,0,0:0:0:0:
192,192,76587,1,0,0:0:0:0:
320,192,76678,1,4,0:0:0:0:
448,192,76678,1,2,0:0:0:0:
320,192,76769,1,0,0:0:0:0:
192,192,76859,1,0,0:0:0:0:
64,192,77041,1,0,0:0:0:0:
448,192,77041,1,0,0:0:0:0:
192,192,77041,1,8,0:0:0:0:
320,192,77132,1,0,0:0:0:0:
192,192,77223,1,2,0:0:0:0:
64,192,77223,1,0,0:0:0:0:
320,192,77314,1,0,0:0:0:0:
448,192,77405,1,4,0:0:0:0:
192,192,77405,1,8,0:0:0:0:
64,192,77405,1,0,0:0:0:0:
64,192,77496,1,0,0:0:0:0:
320,192,77587,1,0,0:0:0:0:
192,192,77678,1,0,0:0:0:0:
64,192,77769,1,4,0:0:0:0:
320,192,77769,1,8,0:0:0:0:
448,192,77769,1,0,0:0:0:0:
448,192,77859,1,0,0:0:0:0:
192,192,77950,1,0,0:0:0:0:
320,192,78041,1,0,0:0:0:0:
448,192,78132,1,4,0:0:0:0:
192,192,78132,1,8,0:0:0:0:
64,192,78132,1,0,0:0:0:0:
64,192,78223,1,0,0:0:0:0:
320,192,78314,1,0,0:0:0:0:
192,192,78405,1,0,0:0:0:0:
64,192,78496,1,4,0:0:0:0:
320,192,78496,1,8,0:0:0:0:
448,192,78496,1,0,0:0:0:0:
448,192,78587,1,2,0:0:0:0:
192,192,78678,1,2,0:0:0:0:
64,192,78678,1,0,0:0:0:0:
320,192,78769,1,0,0:0:0:0:
192,192,78769,1,2,0:0:0:0:
448,192,78859,1,0,0:0:0:0:
320,192,78859,1,8,0:0:0:0:
64,192,78859,1,0,0:0:0:0:
64,192,79041,1,0,0:0:0:0:
320,192,79041,1,8,0:0:0:0:
448,192,79041,1,4,0:0:0:0:
64,192,79587,1,0,0:0:0:0:
192,192,79587,1,8,0:0:0:0:
448,192,79587,1,0,0:0:0:0:
448,192,79769,1,4,0:0:0:0:
192,192,79769,1,8,0:0:0:0:
64,192,79769,1,0,0:0:0:0:
192,192,80314,1,8,0:0:0:0:
320,192,80314,1,4,0:0:0:0:
448,192,80314,1,0,0:0:0:0:
448,192,80496,1,0,0:0:0:0:
320,192,80496,1,4,0:0:0:0:
192,192,80496,1,8,0:0:0:0:
64,192,80678,1,0,0:0:0:0:
320,192,80678,1,4,0:0:0:0:
192,192,80678,1,8,0:0:0:0:
64,192,80859,1,0,0:0:0:0:
192,192,80859,1,8,0:0:0:0:
320,192,80859,1,4,0:0:0:0:
320,192,81223,1,0,0:0:0:0:
448,192,81223,1,2,0:0:0:0:
448,192,81314,1,2,0:0:0:0:
192,192,81405,128,8,81587:0:0:0:0:
64,192,81405,128,0,81587:0:0:0:0:
448,192,81587,128,2,81769:0:0:0:0:
64,192,81769,1,0,0:0:0:0:
192,192,81769,1,8,0:0:0:0:
320,192,81769,1,0,0:0:0:0:
64,192,81950,1,0,0:0:0:0:
192,192,81950,1,8,0:0:0:0:
320,192,81950,1,4,0:0:0:0:
192,192,82496,1,8,0:0:0:0:
320,192,82496,1,0,0:0:0:0:
448,192,82496,1,0,0:0:0:0:
448,192,82678,1,4,0:0:0:0:
320,192,82678,1,0,0:0:0:0:
192,192,82678,1,8,0:0:0:0:
64,192,83223,1,0,0:0:0:0:
320,192,83223,1,8,0:0:0:0:
448,192,83223,1,4,0:0:0:0:
448,192,83405,1,4,0:0:0:0:
320,192,83405,1,8,0:0:0:0:
64,192,83405,1,0,0:0:0:0:
64,192,83587,1,0,0:0:0:0:
192,192,83587,1,8,0:0:0:0:
448,192,83587,1,4,0:0:0:0:
448,192,83769,1,4,0:0:0:0:
192,192,83769,1,8,0:0:0:0:
64,192,83769,1,0,0:0:0:0:
320,192,83950,1,2,0:0:0:0:
192,192,84041,1,2,0:0:0:0:
448,192,84132,1,0,0:0:0:0:
320,192,84132,1,2,0:0:0:0:
64,192,84223,1,0,0:0:0:0:
192,192,84223,1,2,0:0:0:0:
320,192,84314,1,8,0:0:0:0:
448,192,84314,1,0,0:0:0:0:
64,192,84405,1,0,0:0:0:0:
192,192,84496,1,0,0:0:0:0:
320,192,84587,1,0,0:0:0:0:
448,192,84678,1,8,0:0:0:0:
64,192,84678,128,4,84859:0:0:0:0:
192,192,84769,1,0,0:0:0:0:
448,192,84859,128,0,85041:0:0:0:0:
320,192,84950,1,0,0:0:0:0:
64,192,85041,128,0,85223:0:0:0:0:
192,192,85132,1,0,0:0:0:0:
448,192,85223,128,0,85405:0:0:0:0:
320,192,85314,128,0,85405:0:0:0:0:
192,192,85405,128,12,85587:0:0:0:0:
64,192,85496,128,0,85587:0:0:0:0:
448,192,85587,128,0,85769:0:0:0:0:
320,192,85678,128,0,85769:0:0:0:0:
64,192,85769,128,0,85950:0:0:0:0:
448,192,85859,128,0,85950:0:0:0:0:
192,192,85950,128,0,86132:0:0:0:0:
64,192,86041,128,0,86132:0:0:0:0:
448,192,86132,1,4,0:0:0:0:
320,192,86132,1,8,0:0:0:0:
192,192,86223,1,0,0:0:0:0:
64,192,86223,1,2,0:0:0:0:
320,192,86314,1,2,0:0:0:0:
448,192,86314,1,0,0:0:0:0:
192,192,86405,1,0,0:0:0:0:
64,192,86405,1,2,0:0:0:0:
320,192,86496,1,8,0:0:0:0:
448,192,86496,1,4,0:0:0:0:
192,192,86587,1,2,0:0:0:0:
64,192,86678,128,0,86859:0:0:0:0:
192,192,86814,1,0,0:0:0:0:
320,192,86859,128,8,87041:0:0:0:0:
448,192,86859,128,4,87041:0:0:0:0:
64,192,87041,1,2,0:0:0:0:
192,192,87087,1,2,0:0:0:0:
320,192,87132,1,2,0:0:0:0:
448,192,87178,1,2,0:0:0:0:
64,192,87223,128,4,87587:0:0:0:0:
192,192,87223,128,8,87587:0:0:0:0:
