osu file format v14

[General]
AudioFilename: audio.mp3
AudioLeadIn: 0
PreviewTime: 55519
Countdown: 0
SampleSet: Normal
StackLeniency: 0.7
Mode: 3
LetterboxInBreaks: 0
SpecialStyle: 0
WidescreenStoryboard: 0

[Editor]
DistanceSpacing: 1.9
BeatDivisor: 4
GridSize: 32
TimelineZoom: 1.3

[Metadata]
Title:Light for Knight (TV Size)
TitleUnicode:Light for Knight (TV Size)
Artist:Mimori Suzuko
ArtistUnicode:三森すずこ
Creator:Rivals_7
Version:Standard
Source:ランス・アンド・マスクス
Tags:lance n masques n' and opening anime japanese pop jpop j-pop
BeatmapID:1756865
BeatmapSetID:839238

[Difficulty]
HPDrainRate:7
CircleSize:4
OverallDifficulty:7
ApproachRate:5
SliderMultiplier:1.4
SliderTickRate:1

[Events]
//Background and Video events
0,0,"Lance.N'.Masques.full.1963132.jpg",0,0
Video,-125,"lfk.flv"
//Break Periods
//Storyboard Layer 0 (Background)
//Storyboard Layer 1 (Fail)
//Storyboard Layer 2 (Pass)
//Storyboard Layer 3 (Foreground)
//Storyboard Layer 4 (Overlay)
//Storyboard Sound Samples

[TimingPoints]
572,315.789473684211,4,1,1,40,1,0
55993,-100,4,1,1,40,0,1
65940,-100,4,1,1,40,0,0
66256,-100,4,1,1,40,0,1
71308,-100,4,1,1,40,0,0

[HitObjects]
320,192,572,128,0,887:0:0:0:0:
64,192,887,128,0,1203:0:0:0:0:
192,192,1203,128,0,1519:0:0:0:0:
320,192,1519,128,0,1835:0:0:0:0:
448,192,1835,128,0,2150:0:0:0:0:
64,192,2150,128,0,2466:0:0:0:0:
192,192,2466,128,0,2782:0:0:0:0:
320,192,2782,128,0,3098:0:0:0:0:
448,192,3098,128,0,3729:0:0:0:0:
64,192,3729,128,0,4045:0:0:0:0:
320,192,4045,128,0,4361:0:0:0:0:
64,192,4361,1,0,0:0:0:0:
448,192,4361,128,0,5308:0:0:0:0:
64,192,5466,1,0,0:0:0:0:
448,192,5624,128,0,6729:0:0:0:0:
64,192,6887,128,0,8150:0:0:0:0:
448,192,6887,128,0,8150:0:0:0:0:
192,192,8150,1,2,0:0:0:0:
320,192,8150,128,4,9256:0:0:0:0:
64,192,9256,1,8,0:0:0:0:
192,192,9335,1,8,0:0:0:0:
320,192,9414,1,8,0:0:0:0:
448,192,9414,1,0,0:0:0:0:
192,192,9729,1,2,0:0:0:0:
192,192,9887,1,2,0:0:0:0:
320,192,10203,1,2,0:0:0:0:
320,192,10361,1,2,0:0:0:0:
64,192,10677,128,4,11940:0:0:0:0:
448,192,10677,1,2,0:0:0:0:
320,192,11150,1,0,0:0:0:0:
192,192,11940,1,8,0:0:0:0:
448,192,11940,1,0,0:0:0:0:
192,192,12414,1,2,0:0:0:0:
320,192,12414,1,0,0:0:0:0:
64,192,12729,1,2,0:0:0:0:
320,192,12887,1,2,0:0:0:0:
448,192,12887,1,0,0:0:0:0:
64,192,13203,1,4,0:0:0:0:
192,192,13203,1,2,0:0:0:0:
448,192,13361,1,0,0:0:0:0:
320,192,13519,1,2,0:0:0:0:
192,192,13677,1,0,0:0:0:0:
448,192,13835,1,2,0:0:0:0:
64,192,13993,1,0,0:0:0:0:
192,192,14150,1,2,0:0:0:0:
448,192,14308,1,0,0:0:0:0:
64,192,14466,1,2,0:0:0:0:
320,192,14466,1,0,0:0:0:0:
192,192,14624,1,0,0:0:0:0:
448,192,14782,1,2,0:0:0:0:
64,192,14940,1,0,0:0:0:0:
192,192,15098,1,2,0:0:0:0:
320,192,15256,1,0,0:0:0:0:
448,192,15414,1,2,0:0:0:0:
64,192,15729,1,4,0:0:0:0:
192,192,15729,1,8,0:0:0:0:
448,192,16045,1,8,0:0:0:0:
320,192,16203,1,8,0:0:0:0:
64,192,16361,1,8,0:0:0:0:
192,192,16519,1,8,0:0:0:0:
448,192,16677,1,8,0:0:0:0:
64,192,16835,1,2,0:0:0:0:
192,192,16835,1,4,0:0:0:0:
320,192,17150,1,8,0:0:0:0:
448,192,17150,1,0,0:0:0:0:
64,192,17308,1,8,0:0:0:0:
192,192,17466,1,2,0:0:0:0:
320,192,17624,1,8,0:0:0:0:
448,192,17624,1,0,0:0:0:0:
64,192,17782,1,8,0:0:0:0:
192,192,17782,1,0,0:0:0:0:
64,192,18256,1,4,0:0:0:0:
320,192,18256,1,2,0:0:0:0:
192,192,18414,1,0,0:0:0:0:
64,192,18572,1,8,0:0:0:0:
448,192,18572,1,0,0:0:0:0:
320,192,18729,1,0,0:0:0:0:
192,192,18887,1,2,0:0:0:0:
448,192,19045,1,0,0:0:0:0:
64,192,19203,1,8,0:0:0:0:
320,192,19203,1,0,0:0:0:0:
192,192,19361,1,0,0:0:0:0:
448,192,19519,1,2,0:0:0:0:
64,192,19677,1,0,0:0:0:0:
320,192,19835,1,8,0:0:0:0:
448,192,19835,1,0,0:0:0:0:
192,192,19993,1,0,0:0:0:0:
64,192,20150,1,2,0:0:0:0:
320,192,20308,1,0,0:0:0:0:
192,192,20466,1,8,0:0:0:0:
448,192,20466,1,0,0:0:0:0:
320,192,20624,1,0,0:0:0:0:
64,192,20782,1,2,0:0:0:0:
192,192,20940,1,0,0:0:0:0:
320,192,21098,1,8,0:0:0:0:
448,192,21098,1,0,0:0:0:0:
64,192,21256,1,0,0:0:0:0:
192,192,21414,1,2,0:0:0:0:
320,192,21572,1,0,0:0:0:0:
64,192,21729,1,8,0:0:0:0:
448,192,21729,1,0,0:0:0:0:
192,192,21887,1,0,0:0:0:0:
448,192,22045,1,2,0:0:0:0:
320,192,22203,1,0,0:0:0:0:
64,192,22361,1,8,0:0:0:0:
192,192,22361,1,0,0:0:0:0:
320,192,22519,1,0,0:0:0:0:
448,192,22677,1,2,0:0:0:0:
192,192,22835,1,0,0:0:0:0:
64,192,22993,1,8,0:0:0:0:
320,192,22993,1,0,0:0:0:0:
448,192,23150,1,0,0:0:0:0:
64,192,23308,1,4,0:0:0:0:
192,192,23308,1,2,0:0:0:0:
320,192,23466,1,0,0:0:0:0:
192,192,23624,1,8,0:0:0:0:
448,192,23624,1,0,0:0:0:0:
64,192,23782,1,0,0:0:0:0:
320,192,23940,1,2,0:0:0:0:
448,192,24098,1,0,0:0:0:0:
64,192,24256,1,8,0:0:0:0:
192,192,24256,1,0,0:0:0:0:
448,192,24414,1,0,0:0:0:0:
320,192,24572,1,2,0:0:0:0:
64,192,24729,1,0,0:0:0:0:
192,192,24887,1,8,0:0:0:0:
448,192,24887,1,0,0:0:0:0:
320,192,25045,1,0,0:0:0:0:
64,192,25203,1,2,0:0:0:0:
192,192,25361,1,0,0:0:0:0:
320,192,25519,1,8,0:0:0:0:
448,192,25519,1,0,0:0:0:0:
192,192,25835,1,12,0:0:0:0:
192,192,25993,1,2,0:0:0:0:
448,192,26150,1,12,0:0:0:0:
64,192,26308,1,8,0:0:0:0:
448,192,26308,1,4,0:0:0:0:
192,192,26624,1,12,0:0:0:0:
192,192,26940,1,4,0:0:0:0:
448,192,26940,1,8,0:0:0:0:
320,192,27256,1,12,0:0:0:0:
64,192,27414,1,8,0:0:0:0:
320,192,27414,1,4,0:0:0:0:
320,192,28361,1,4,0:0:0:0:
448,192,28361,1,2,0:0:0:0:
192,192,28677,1,0,0:0:0:0:
64,192,28993,1,0,0:0:0:0:
320,192,29308,1,0,0:0:0:0:
192,192,29466,1,0,0:0:0:0:
320,192,29940,1,0,0:0:0:0:
448,192,30256,1,0,0:0:0:0:
192,192,30572,1,0,0:0:0:0:
64,192,30729,1,0,0:0:0:0:
320,192,31045,1,0,0:0:0:0:
192,192,31203,1,0,0:0:0:0:
320,192,31993,1,0,0:0:0:0:
192,192,32308,1,0,0:0:0:0:
448,192,32466,1,0,0:0:0:0:
64,192,32782,1,0,0:0:0:0:
192,192,32940,1,2,0:0:0:0:
320,192,33098,1,8,0:0:0:0:
64,192,33256,1,4,0:0:0:0:
448,192,33256,1,2,0:0:0:0:
192,192,33729,1,2,0:0:0:0:
192,192,34045,1,2,0:0:0:0:
448,192,34203,1,0,0:0:0:0:
320,192,34361,1,2,0:0:0:0:
64,192,34519,1,0,0:0:0:0:
320,192,34677,1,2,0:0:0:0:
192,192,34993,1,2,0:0:0:0:
448,192,35150,1,0,0:0:0:0:
192,192,35308,1,2,0:0:0:0:
448,192,35466,1,2,0:0:0:0:
64,192,35624,1,8,0:0:0:0:
320,192,35782,1,4,0:0:0:0:
448,192,35782,1,2,0:0:0:0:
192,192,36098,1,2,0:0:0:0:
64,192,36256,1,8,0:0:0:0:
448,192,36256,1,0,0:0:0:0:
192,192,36572,1,8,0:0:0:0:
448,192,36572,1,0,0:0:0:0:
64,192,36729,1,2,0:0:0:0:
320,192,36887,1,2,0:0:0:0:
64,192,37045,1,4,0:0:0:0:
192,192,37045,1,8,0:0:0:0:
448,192,37361,1,8,0:0:0:0:
448,192,37519,1,8,0:0:0:0:
64,192,37677,1,8,0:0:0:0:
320,192,37993,1,2,0:0:0:0:
192,192,38150,1,8,0:0:0:0:
448,192,38150,1,0,0:0:0:0:
64,192,38466,1,2,0:0:0:0:
192,192,38624,1,0,0:0:0:0:
448,192,38782,1,0,0:0:0:0:
320,192,38940,1,2,0:0:0:0:
64,192,39098,1,8,0:0:0:0:
192,192,39098,1,0,0:0:0:0:
320,192,39414,1,0,0:0:0:0:
192,192,39572,1,2,0:0:0:0:
64,192,39729,1,0,0:0:0:0:
320,192,39887,1,0,0:0:0:0:
192,192,40045,1,2,0:0:0:0:
320,192,40203,1,0,0:0:0:0:
64,192,40361,1,8,0:0:0:0:
448,192,40361,1,0,0:0:0:0:
320,192,40835,1,2,0:0:0:0:
448,192,40993,1,2,0:0:0:0:
192,192,41150,1,0,0:0:0:0:
320,192,41308,1,0,0:0:0:0:
192,192,41466,1,2,0:0:0:0:
64,192,41624,1,8,0:0:0:0:
448,192,41624,1,0,0:0:0:0:
320,192,41782,1,0,0:0:0:0:
192,192,41940,1,0,0:0:0:0:
64,192,42098,1,2,0:0:0:0:
448,192,42414,1,2,0:0:0:0:
320,192,42572,1,0,0:0:0:0:
192,192,42729,1,2,0:0:0:0:
64,192,42887,1,8,0:0:0:0:
448,192,42887,1,0,0:0:0:0:
320,192,43045,1,0,0:0:0:0:
192,192,43203,1,0,0:0:0:0:
320,192,43361,1,0,0:0:0:0:
64,192,43519,1,4,0:0:0:0:
448,192,43519,1,2,0:0:0:0:
192,192,43835,1,0,0:0:0:0:
64,192,44150,1,8,0:0:0:0:
448,192,44150,1,0,0:0:0:0:
320,192,44308,1,2,0:0:0:0:
192,192,44466,1,8,0:0:0:0:
64,192,44624,1,4,0:0:0:0:
448,192,44624,1,2,0:0:0:0:
192,192,44940,1,2,0:0:0:0:
320,192,45098,1,8,0:0:0:0:
64,192,45256,1,2,0:0:0:0:
448,192,45256,1,4,0:0:0:0:
192,192,45572,1,2,0:0:0:0:
320,192,45729,1,8,0:0:0:0:
448,192,45729,1,0,0:0:0:0:
64,192,45887,1,2,0:0:0:0:
320,192,46045,1,4,0:0:0:0:
448,192,46045,1,2,0:0:0:0:
64,192,46203,1,8,0:0:0:0:
192,192,46361,1,8,0:0:0:0:
320,192,46519,1,2,0:0:0:0:
448,192,46519,1,4,0:0:0:0:
64,192,46835,1,4,0:0:0:0:
320,192,46835,1,2,0:0:0:0:
448,192,46993,1,8,0:0:0:0:
192,192,47150,1,8,0:0:0:0:
64,192,47308,1,2,0:0:0:0:
448,192,47308,1,0,0:0:0:0:
320,192,47466,1,2,0:0:0:0:
192,192,47624,1,8,0:0:0:0:
64,192,47782,1,2,0:0:0:0:
448,192,47782,1,4,0:0:0:0:
64,192,48098,1,2,0:0:0:0:
192,192,48098,1,4,0:0:0:0:
448,192,48256,1,8,0:0:0:0:
320,192,48414,1,2,0:0:0:0:
64,192,48572,1,2,0:0:0:0:
192,192,48572,1,4,0:0:0:0:
320,192,48887,1,8,0:0:0:0:
448,192,48887,1,0,0:0:0:0:
192,192,49203,1,2,0:0:0:0:
192,192,49361,1,2,0:0:0:0:
64,192,49519,1,8,0:0:0:0:
448,192,49519,1,0,0:0:0:0:
320,192,49677,1,0,0:0:0:0:
64,192,49835,1,2,0:0:0:0:
64,192,49993,1,2,0:0:0:0:
320,192,50150,1,8,0:0:0:0:
448,192,50150,1,0,0:0:0:0:
192,192,50308,1,2,0:0:0:0:
448,192,50466,1,2,0:0:0:0:
448,192,50624,1,2,0:0:0:0:
64,192,50782,1,8,0:0:0:0:
320,192,50782,1,0,0:0:0:0:
192,192,50940,1,2,0:0:0:0:
320,192,51098,1,4,0:0:0:0:
448,192,51098,1,8,0:0:0:0:
192,192,51414,1,8,0:0:0:0:
320,192,51414,1,0,0:0:0:0:
64,192,51729,1,8,0:0:0:0:
192,192,51729,1,0,0:0:0:0:
448,192,51887,1,2,0:0:0:0:
192,192,52045,1,8,0:0:0:0:
320,192,52045,1,0,0:0:0:0:
64,192,52203,128,2,52519:0:0:0:0:
320,192,52519,1,2,0:0:0:0:
192,192,52677,1,8,0:0:0:0:
448,192,52677,1,0,0:0:0:0:
64,192,52993,128,8,53308:0:0:0:0:
320,192,52993,1,0,0:0:0:0:
192,192,53308,1,8,0:0:0:0:
448,192,53308,128,0,53624:0:0:0:0:
320,192,53624,1,2,0:0:0:0:
192,192,53940,1,0,0:0:0:0:
64,192,54256,1,0,0:0:0:0:
320,192,54572,128,0,54887:0:0:0:0:
64,192,54887,128,0,55677:0:0:0:0:
192,192,55993,1,4,0:0:0:0:
448,192,55993,128,2,56466:0:0:0:0:
64,192,56466,1,8,0:0:0:0:
320,192,56466,1,0,0:0:0:0:
192,192,56624,1,0,0:0:0:0:
320,192,56782,1,2,0:0:0:0:
64,192,56940,1,0,0:0:0:0:
192,192,57098,1,8,0:0:0:0:
448,192,57098,1,0,0:0:0:0:
320,192,57256,1,0,0:0:0:0:
192,192,57414,1,2,0:0:0:0:
448,192,57572,1,0,0:0:0:0:
64,192,57729,1,8,0:0:0:0:
320,192,57729,1,0,0:0:0:0:
192,192,57887,1,0,0:0:0:0:
320,192,58045,1,2,0:0:0:0:
64,192,58203,1,0,0:0:0:0:
192,192,58361,1,8,0:0:0:0:
448,192,58361,1,0,0:0:0:0:
320,192,58519,1,0,0:0:0:0:
64,192,58677,1,2,0:0:0:0:
192,192,58835,1,0,0:0:0:0:
320,192,58993,1,8,0:0:0:0:
448,192,58993,1,0,0:0:0:0:
192,192,59150,1,0,0:0:0:0:
64,192,59308,1,2,0:0:0:0:
320,192,59466,1,0,0:0:0:0:
64,192,59624,1,8,0:0:0:0:
448,192,59624,1,0,0:0:0:0:
192,192,59782,1,0,0:0:0:0:
448,192,59940,1,2,0:0:0:0:
320,192,60098,1,0,0:0:0:0:
64,192,60256,1,8,0:0:0:0:
192,192,60256,1,0,0:0:0:0:
320,192,60414,1,0,0:0:0:0:
448,192,60572,1,2,0:0:0:0:
192,192,60729,1,0,0:0:0:0:
64,192,60887,1,8,0:0:0:0:
320,192,60887,1,0,0:0:0:0:
448,192,61045,1,0,0:0:0:0:
192,192,61203,1,2,0:0:0:0:
64,192,61361,1,0,0:0:0:0:
320,192,61519,1,8,0:0:0:0:
448,192,61519,1,0,0:0:0:0:
192,192,61677,1,0,0:0:0:0:
448,192,61835,1,2,0:0:0:0:
320,192,61993,1,0,0:0:0:0:
64,192,62150,1,8,0:0:0:0:
448,192,62150,1,0,0:0:0:0:
192,192,62308,1,0,0:0:0:0:
320,192,62466,1,2,0:0:0:0:
448,192,62624,1,0,0:0:0:0:
64,192,62782,1,8,0:0:0:0:
192,192,62782,1,0,0:0:0:0:
448,192,62940,1,0,0:0:0:0:
320,192,63098,1,2,0:0:0:0:
64,192,63256,1,0,0:0:0:0:
192,192,63414,1,8,0:0:0:0:
320,192,63414,1,0,0:0:0:0:
448,192,63572,1,0,0:0:0:0:
64,192,63729,1,2,0:0:0:0:
320,192,63887,1,0,0:0:0:0:
192,192,64203,1,2,0:0:0:0:
448,192,64203,128,4,64519:0:0:0:0:
320,192,64519,1,2,0:0:0:0:
64,192,64835,128,2,65150:0:0:0:0:
192,192,64835,1,4,0:0:0:0:
320,192,65150,1,8,0:0:0:0:
192,192,65308,1,8,0:0:0:0:
448,192,65466,128,8,65940:0:0:0:0:
320,192,65624,1,2,0:0:0:0:
192,192,65782,1,2,0:0:0:0:
64,192,65940,128,2,66256:0:0:0:0:
320,192,66098,1,2,0:0:0:0:
192,192,66256,1,8,0:0:0:0:
448,192,66256,1,4,0:0:0:0:
64,192,66572,1,8,0:0:0:0:
320,192,66572,1,0,0:0:0:0:
192,192,66729,1,0,0:0:0:0:
320,192,66887,1,2,0:0:0:0:
448,192,67045,1,0,0:0:0:0:
64,192,67203,1,8,0:0:0:0:
192,192,67203,1,0,0:0:0:0:
320,192,67361,1,0,0:0:0:0:
448,192,67519,1,2,0:0:0:0:
192,192,67677,1,0,0:0:0:0:
64,192,67835,1,8,0:0:0:0:
320,192,67835,1,0,0:0:0:0:
448,192,67993,1,0,0:0:0:0:
192,192,68150,1,2,0:0:0:0:
64,192,68308,1,0,0:0:0:0:
320,192,68466,1,8,0:0:0:0:
448,192,68466,1,0,0:0:0:0:
192,192,68624,1,0,0:0:0:0:
64,192,68782,1,2,0:0:0:0:
320,192,68940,1,0,0:0:0:0:
64,192,69098,1,8,0:0:0:0:
448,192,69098,1,0,0:0:0:0:
192,192,69256,1,0,0:0:0:0:
320,192,69414,1,2,0:0:0:0:
448,192,69572,1,2,0:0:0:0:
64,192,69729,1,8,0:0:0:0:
192,192,69729,1,0,0:0:0:0:
320,192,69887,1,2,0:0:0:0:
448,192,69887,1,4,0:0:0:0:
64,192,70203,1,2,0:0:0:0:
320,192,70361,1,8,0:0:0:0:
448,192,70361,1,0,0:0:0:0:
64,192,70519,1,2,0:0:0:0:
192,192,70519,1,4,0:0:0:0:
320,192,70835,1,2,0:0:0:0:
64,192,70993,1,8,0:0:0:0:
192,192,70993,1,0,0:0:0:0:
320,192,71308,1,8,0:0:0:0:
448,192,71308,1,0,0:0:0:0:
192,192,71624,1,8,0:0:0:0:
320,192,71624,1,0,0:0:0:0:
64,192,71940,1,8,0:0:0:0:
192,192,71940,1,0,0:0:0:0:
320,192,72256,1,8,0:0:0:0:
448,192,72256,1,0,0:0:0:0:
64,192,72572,1,8,0:0:0:0:
448,192,72572,1,0,0:0:0:0:
64,192,72887,1,8,0:0:0:0:
320,192,72887,1,0,0:0:0:0:
192,192,73203,1,8,0:0:0:0:
320,192,73203,1,0,0:0:0:0:
192,192,73519,1,8,0:0:0:0:
448,192,73519,1,0,0:0:0:0:
64,192,73835,1,8,0:0:0:0:
320,192,73835,1,0,0:0:0:0:
192,192,74150,1,8,0:0:0:0:
320,192,74150,1,0,0:0:0:0:
64,192,74466,1,8,0:0:0:0:
448,192,74466,1,0,0:0:0:0:
192,192,74782,1,8,0:0:0:0:
448,192,74782,1,0,0:0:0:0:
64,192,74940,1,4,0:0:0:0:
320,192,74940,1,2,0:0:0:0:
192,192,75256,1,8,0:0:0:0:
448,192,75256,1,0,0:0:0:0:
320,192,75414,1,8,0:0:0:0:
64,192,75572,1,2,0:0:0:0:
320,192,75729,1,8,0:0:0:0:
448,192,75729,1,0,0:0:0:0:
64,192,75887,1,8,0:0:0:0:
192,192,75887,1,0,0:0:0:0:
320,192,76361,1,2,0:0:0:0:
448,192,76361,1,4,0:0:0:0:
64,192,76677,1,8,0:0:0:0:
192,192,76677,1,0,0:0:0:0:
64,192,76993,1,8,0:0:0:0:
192,192,76993,1,0,0:0:0:0:
448,192,77308,1,8,0:0:0:0:
64,192,77466,1,2,0:0:0:0:
448,192,77466,1,4,0:0:0:0:
192,192,77782,1,2,0:0:0:0:
320,192,77940,1,8,0:0:0:0:
448,192,77940,1,0,0:0:0:0:
320,192,78256,1,8,0:0:0:0:
448,192,78256,1,0,0:0:0:0:
64,192,78572,1,8,0:0:0:0:
192,192,78572,1,0,0:0:0:0:
64,192,78887,1,8,0:0:0:0:
192,192,78887,1,4,0:0:0:0:
320,192,79203,1,8,0:0:0:0:
448,192,79203,1,0,0:0:0:0:
320,192,79519,1,8,0:0:0:0:
448,192,79519,1,0,0:0:0:0:
192,192,79835,1,8,0:0:0:0:
192,192,79993,1,2,0:0:0:0:
448,192,79993,1,4,0:0:0:0:
64,192,80466,1,8,0:0:0:0:
320,192,80466,1,0,0:0:0:0:
64,192,80782,1,8,0:0:0:0:
448,192,80782,1,0,0:0:0:0:
320,192,80940,1,2,0:0:0:0:
192,192,81098,1,8,0:0:0:0:
448,192,81098,1,0,0:0:0:0:
192,192,81414,1,8,0:0:0:0:
448,192,81414,1,0,0:0:0:0:
64,192,81729,1,8,0:0:0:0:
320,192,81729,1,0,0:0:0:0:
64,192,82045,128,8,82361:0:0:0:0:
320,192,82045,1,0,0:0:0:0:
448,192,82361,1,8,0:0:0:0:
192,192,82519,1,2,0:0:0:0:
320,192,82519,128,4,82835:0:0:0:0:
64,192,82835,1,2,0:0:0:0:
192,192,82993,1,8,0:0:0:0:
320,192,82993,1,0,0:0:0:0:
448,192,83308,1,8,0:0:0:0:
448,192,83466,1,8,0:0:0:0:
64,192,83624,1,8,0:0:0:0:
64,192,83782,128,4,86466:0:0:0:0:
320,192,83782,1,2,0:0:0:0:
