osu file format v14

[General]
AudioFilename: LFK.mp3
AudioLeadIn: 0
PreviewTime: 112293
Countdown: 0
SampleSet: None
StackLeniency: 0.7
Mode: 0
LetterboxInBreaks: 0
WidescreenStoryboard: 1

[Editor]
DistanceSpacing: 1.7
BeatDivisor: 4
GridSize: 32
TimelineZoom: 2.799999

[Metadata]
Title:Light for Knight
TitleUnicode:Light for Knight
Artist:Mimori Suzuko
ArtistUnicode:三森すずこ
Creator:-Brethia
Version:Yuuma's Hard
Source:ランス・アンド・マスクス
Tags:Lance N' Masques opening anime japanese pop dkblaze Kowari Lasse Yuuma Kalibe Irohas kotachi _kotachi_
BeatmapID:2612248
BeatmapSetID:801337

[Difficulty]
HPDrainRate:4
CircleSize:3.5
OverallDifficulty:6
ApproachRate:8
SliderMultiplier:1.5
SliderTickRate:1

[Events]
//Background and Video events
0,0,"BG.jpg",0,0
//Break Periods
2,79102,80160
2,135944,137521
2,153628,157731
//Storyboard Layer 0 (Background)
//Storyboard Layer 1 (Fail)
//Storyboard Layer 2 (Pass)
//Storyboard Layer 3 (Foreground)
//Storyboard Layer 4 (Overlay)
//Storyboard Sound Samples

[TimingPoints]
587,315.789473684211,4,2,1,30,1,0
6744,-100,4,2,1,5,0,0
6902,-100,4,2,1,20,0,0
7218,-100,4,2,1,25,0,0
7376,-100,4,2,1,30,0,0
7613,-100,4,2,1,35,0,0
7850,-100,4,2,1,40,0,0
8008,-100,4,2,1,45,0,0
8165,-125,4,2,3,50,0,0
9271,-125,4,2,1,30,0,0
9429,-125,4,2,1,50,0,0
13218,-111.111111111111,4,2,1,50,0,0
13376,-111.111111111111,4,2,1,20,0,0
13534,-111.111111111111,4,2,1,50,0,0
13692,-111.111111111111,4,2,1,30,0,0
13850,-111.111111111111,4,2,1,50,0,0
14008,-111.111111111111,4,2,1,40,0,0
14165,-111.111111111111,4,2,1,50,0,0
15744,-111.111111111111,4,2,2,60,0,0
15981,-111.111111111111,4,2,1,5,0,0
16060,-111.111111111111,4,2,1,30,0,0
16218,-111.111111111111,4,2,1,40,0,0
16376,-111.111111111111,4,2,1,50,0,0
16534,-111.111111111111,4,2,1,60,0,0
16692,-111.111111111111,4,2,1,70,0,0
16850,-111.111111111111,4,2,1,60,0,0
18271,-100,4,2,1,70,0,0
18508,-100,4,2,1,5,0,0
18587,-100,4,2,1,70,0,0
23560,-100,4,2,1,5,0,0
23639,-100,4,2,1,70,0,0
28376,-166.666666666667,4,2,1,70,0,0
28692,-166.666666666667,4,2,1,40,0,0
32797,-166.666666666667,4,2,2,60,0,0
33271,-125,4,2,2,60,0,0
36744,-125,4,2,1,60,0,0
37060,-125,4,2,2,60,0,0
37376,-125,4,2,2,40,0,0
37534,-125,4,2,2,50,0,0
37692,-125,4,2,2,60,0,0
38402,-125,4,2,2,5,0,0
38481,-142.857142857143,4,2,2,60,0,0
47323,-142.857142857143,4,2,1,60,0,0
47797,-142.857142857143,4,2,2,60,0,0
48587,-111.111111111111,4,2,2,60,0,0
53323,-111.111111111111,4,2,1,60,0,0
53639,-111.111111111111,4,2,1,50,0,0
53876,-111.111111111111,4,2,1,5,0,0
53955,-111.111111111111,4,2,1,45,0,0
54192,-111.111111111111,4,2,1,5,0,0
54271,-111.111111111111,4,2,1,40,0,0
55534,-111.111111111111,4,2,3,5,0,0
56008,-100,4,2,3,75,0,1
56323,-100,4,2,1,75,0,1
58692,-100,4,2,2,75,0,1
58850,-100,4,2,1,75,0,1
63823,-100,4,2,1,5,0,1
63902,-100,4,2,1,75,0,1
63981,-100,4,2,1,5,0,1
64060,-100,4,2,1,75,0,1
64218,-100,4,2,2,75,0,1
64455,-100,4,2,2,5,0,1
64534,-100,4,2,2,75,0,1
65087,-100,4,2,1,5,0,1
65165,-100,4,2,1,75,0,1
66508,-100,4,2,1,5,0,1
66587,-100,4,2,1,75,0,1
68797,-100,4,2,2,75,0,1
68955,-100,4,2,1,75,0,1
70139,-100,4,2,1,5,0,1
70218,-100,4,2,1,75,0,1
70534,-100,4,2,2,75,0,1
70692,-100,4,2,1,75,0,1
74955,-100,4,2,2,75,0,1
75192,-100,4,2,2,5,0,1
75271,-100,4,2,1,75,0,1
76376,-100,4,2,1,70,0,0
76613,-100,4,2,1,5,0,0
76692,-100,4,2,1,70,0,0
81665,-100,4,2,1,5,0,0
81744,-100,4,2,1,70,0,0
86323,-125,4,2,2,60,0,0
96587,-125,4,2,1,60,0,0
101560,-125,4,2,1,5,0,0
101639,-125,4,2,2,60,0,0
104955,-125,4,2,1,60,0,0
105271,-125,4,2,2,60,0,0
106376,-125,4,2,1,60,0,0
106692,-111.111111111111,4,2,2,60,0,0
111429,-111.111111111111,4,2,1,60,0,0
112376,-111.111111111111,4,2,1,60,0,0
112692,-111.111111111111,4,2,1,5,0,0
112850,-100,4,2,3,75,0,1
113165,-100,4,2,1,75,0,1
115534,-100,4,2,2,75,0,1
115692,-100,4,2,1,75,0,1
120665,-100,4,2,1,5,0,1
120744,-100,4,2,1,75,0,1
120823,-100,4,2,1,5,0,1
120902,-100,4,2,1,75,0,1
121060,-100,4,2,2,75,0,1
121297,-100,4,2,2,5,0,1
121376,-100,4,2,2,75,0,1
121929,-100,4,2,2,5,0,1
122008,-100,4,2,1,75,0,1
123350,-100,4,2,1,5,0,1
123429,-100,4,2,1,75,0,1
125639,-100,4,2,2,75,0,1
125797,-100,4,2,1,75,0,1
126981,-100,4,2,1,5,0,1
127060,-100,4,2,1,75,0,1
127376,-100,4,2,2,75,0,1
127534,-100,4,2,1,75,0,1
131797,-100,4,2,2,75,0,1
132113,-100,4,2,1,75,0,1
133218,-100,4,2,1,70,0,0
133455,-100,4,2,1,5,0,0
133534,-100,4,2,1,70,0,0
141271,-100,4,2,2,70,0,0
141902,-100,4,2,1,70,0,0
142139,-100,4,2,1,5,0,0
142218,-100,4,2,1,70,0,0
143560,-100,4,2,1,5,0,0
143639,-100,4,2,1,70,0,0
145455,-100,4,2,1,5,0,0
145534,-100,4,2,1,70,0,0
145850,-100,4,2,2,70,0,0
146008,-100,4,2,1,70,0,0
150902,-125,4,2,1,70,0,0
152797,-125,4,2,2,70,0,0
153429,-125,4,2,99,50,0,0
158481,-125,4,2,1,40,0,0
161008,-100,4,2,2,60,0,0
161087,-100,4,2,1,60,0,0
162744,-100,4,2,2,60,0,0
162981,-100,4,2,1,5,0,0
163060,-100,4,2,1,60,0,0
163534,-111.111111111111,4,2,2,60,0,0
167955,-111.111111111111,4,2,2,45,0,0
168113,-111.111111111111,4,2,2,50,0,0
168271,-111.111111111111,4,2,2,55,0,0
168350,-111.111111111111,4,2,1,55,0,0
168429,-111.111111111111,4,2,1,60,0,0
168587,-111.111111111111,4,2,1,50,0,0
168823,-111.111111111111,4,2,1,5,0,0
168902,-111.111111111111,4,2,1,45,0,0
169139,-111.111111111111,4,2,1,5,0,0
169218,-111.111111111111,4,2,1,40,0,0
169455,-111.111111111111,4,2,1,5,0,0
169534,-111.111111111111,4,2,1,40,0,0
170955,-125,4,2,3,70,0,1
171587,-125,4,2,1,70,0,1
172218,-125,4,2,2,70,0,1
172534,-125,4,2,1,70,0,1
172850,-125,4,2,1,50,0,1
173008,-125,4,2,1,70,0,1
174744,-125,4,2,2,70,0,1
175060,-125,4,2,1,70,0,1
176165,-100,4,2,1,70,0,1
176481,-100,4,2,1,50,0,1
176639,-100,4,2,1,55,0,1
176797,-100,4,2,1,60,0,1
176955,-100,4,2,1,65,0,1
177113,-100,4,2,1,70,0,1
177271,-100,4,2,2,70,0,1
178534,-100,4,2,1,70,0,1
181534,-100,4,2,3,75,0,1
181692,-100,4,2,1,75,0,1
183744,-100,4,2,2,75,0,1
183902,-100,4,2,1,75,0,1
185087,-100,4,2,1,5,0,1
185165,-100,4,2,1,75,0,1
185481,-100,4,2,2,75,0,1
185639,-100,4,2,1,75,0,1
190850,-100,4,2,2,75,0,1
191323,-100,4,2,3,80,0,0
191481,-100,4,2,1,80,0,0
192429,-100,4,2,2,80,0,0
192587,-100,4,2,1,80,0,0
193850,-100,4,2,2,80,0,0
194008,-100,4,2,1,80,0,0
194955,-100,4,2,2,80,0,0
195113,-100,4,2,1,80,0,0
198744,-100,4,2,3,70,0,0
203718,-100,4,2,99,14,0,0

[Colours]
Combo1 : 128,64,0
Combo2 : 0,202,0
Combo3 : 0,128,128
Combo4 : 0,128,0

[HitObjects]
256,192,587,12,0,4376,0:0:0:0:
256,192,5639,5,0,0:0:0:0:
256,192,6902,5,0,0:0:0:0:
161,35,8165,6,0,B|129:-7|64:4|64:4|39:67|92:121|147:131|147:131|201:102|201:102|233:129|286:118,1,420,6|8,0:1|0:0,0:0:0:0:
301,106,9350,1,8,0:0:0:0:
301,106,9429,2,0,P|348:80|421:96,1,120,8|8,0:0|0:3,0:0:0:0:
428,189,9902,2,0,P|381:215|308:199,1,120,4|8,0:3|0:3,0:0:0:0:
231,174,10376,1,4,0:3:0:0:
71,293,10692,6,0,B|134:262|205:307|169:331|232:366|287:352|287:352|331:330|339:295|339:295|305:276|301:234|324:189,1,420,12|0,0:1|0:0,0:0:0:0:
348,108,11955,2,0,L|474:91,1,120,8|0,0:0|0:0,0:0:0:0:
397,16,12429,2,0,L|278:32,1,120,8|8,0:3|0:1,0:0:0:0:
203,93,12902,2,0,L|77:76,1,120,4|12,0:3|0:1,0:0:0:0:
21,251,13534,6,0,P|7:298|14:329,1,67.4999979400635,8|2,0:1|0:3,0:0:0:0:
98,365,13850,2,0,P|112:318|105:287,1,67.4999979400635,8|2,0:1|0:3,0:0:0:0:
125,200,14165,1,8,0:1:0:0:
210,262,14323,2,0,P|263:293|334:280,1,134.999995880127,2|2,0:3|0:3,0:0:0:0:
414,218,14797,1,8,0:1:0:0:
488,148,14955,2,0,P|430:116|366:130,1,134.999995880127,2|2,0:3|0:3,0:0:0:0:
285,193,15429,1,8,0:1:0:0:
426,333,15744,5,6,0:0:0:0:
488,148,16060,2,0,L|477:79,1,67.4999979400635,8|8,0:0|0:0,0:0:0:0:
368,27,16376,2,0,L|357:93,1,67.4999979400635,8|8,0:0|0:0,0:0:0:0:
285,193,16692,1,8,0:0:0:0:
226,87,16850,6,0,P|180:70|144:66,1,67.4999979400635,12|0,0:0|0:0,0:0:0:0:
48,112,17165,2,0,L|42:78,4,33.7499989700318,8|8|8|8|4,0:0|0:0|0:0|0:3|0:3,0:0:0:0:
73,233,17639,1,8,0:0:0:0:
167,149,17797,1,8,0:0:0:0:
464,303,18271,6,0,P|399:337|332:309,1,150,12|10,0:1|0:0,0:0:0:0:
396,216,18744,1,2,0:3:0:0:
396,216,18902,2,0,P|329:187|264:221,1,150,10|10,0:1|0:0,0:0:0:0:
209,343,19376,6,0,B|205:294|205:294|178:256|178:256|174:202,1,150,2|2,0:3|0:3,0:0:0:0:
65,185,19850,1,8,0:0:0:0:
65,185,20008,2,0,L|85:34,1,150,2|2,0:3|0:3,0:0:0:0:
165,122,20481,1,8,0:0:0:0:
246,42,20639,6,0,B|330:25|311:91|395:70,1,150,2|2,0:3|0:3,0:0:0:0:
485,14,21113,2,0,P|502:68|498:100,1,75,10|2,0:0|0:3,0:0:0:0:
441,181,21429,2,0,P|425:223|449:332,1,150,8|8,0:1|0:0,0:0:0:0:
349,380,21902,1,2,0:3:0:0:
349,380,22060,6,0,P|320:345|214:311,1,150,10|10,0:1|0:0,0:0:0:0:
257,200,22534,2,0,P|303:164|316:135,1,75,2|8,0:3|0:1,0:0:0:0:
295,31,22850,2,0,L|211:12,2,75,2|10|2,0:3|0:0|0:0,0:0:0:0:
229,120,23323,6,0,L|80:136,1,150,12|10,0:1|0:0,0:0:0:0:
11,224,23797,1,2,0:3:0:0:
11,224,23955,2,0,L|160:240,1,150,10|10,0:1|0:0,0:0:0:0:
249,311,24429,6,0,P|284:254|227:162,2,150,2|2|2,0:3|0:3|0:3,0:0:0:0:
343,375,25218,1,8,0:1:0:0:
436,311,25376,1,10,0:1:0:0:
436,311,25455,1,8,0:1:0:0:
436,311,25534,2,0,P|423:246|436:220,1,75,8|8,0:0|0:1,0:0:0:0:
498,147,25850,6,0,B|443:107|443:107|407:135|345:118,1,150,12|10,0:0|0:0,0:0:0:0:
250,57,26323,2,0,P|180:21|93:49,1,150,10|10,0:0|0:0,0:0:0:0:
161,160,26797,1,8,0:1:0:0:
19,109,26955,6,0,P|36:189|40:279,1,150,10|4,0:0|0:3,0:0:0:0:
20,372,27429,1,12,0:0:0:0:
498,147,28376,5,12,0:1:0:0:
369,80,28692,2,0,P|349:129|359:184,2,89.9999972534181,0|0|0,0:0|0:0|0:0,0:0:0:0:
298,28,29481,2,0,P|260:51|215:55,1,89.9999972534181,0|0,0:0|0:0,0:0:0:0:
205,143,29955,2,0,P|245:164|271:201,2,89.9999972534181,0|0|0,0:0|0:0|0:0,0:0:0:0:
188,226,30744,6,0,L|80:237,1,89.9999972534181,0|0,0:0|0:0,0:0:0:0:
17,244,31218,1,0,0:0:0:0:
324,343,32008,2,0,L|384:335,1,44.999998626709,0|0,0:0|0:0,0:0:0:0:
434,284,32323,2,0,L|478:289,1,44.999998626709,0|0,0:0|0:0,0:0:0:0:
331,222,32797,2,0,P|324:186|332:162,2,44.999998626709,0|2|8,0:0|0:1|0:0,0:0:0:0:
420,182,33271,6,0,P|427:130|396:55,1,120,6|0,0:0|0:0,0:0:0:0:
308,80,33744,2,0,L|315:17,2,60,2|0|2,0:0|0:0|0:0,0:0:0:0:
220,124,34218,2,0,L|226:183,2,60,0|2|0,0:0|0:0|0:0,0:0:0:0:
134,80,34692,1,2,0:0:0:0:
134,80,35008,2,0,P|77:51|9:65,1,120,2|2,0:0|0:0,0:0:0:0:
59,153,35481,1,2,0:0:0:0:
4,244,35639,1,8,0:0:0:0:
102,302,35797,6,0,P|160:307|212:279,1,120,6|2,0:1|0:0,0:0:0:0:
288,356,36271,2,0,P|316:304|311:245,1,120,8|8,0:0|0:0,0:0:0:0:
279,146,36744,1,8,0:3:0:0:
384,175,36902,1,8,0:3:0:0:
354,77,37060,6,0,P|318:46|233:36,1,120,6|8,0:0|0:0,0:0:0:0:
155,92,37534,1,8,0:0:0:0:
279,146,37692,1,12,0:0:0:0:
89,238,38481,6,0,P|84:181|70:128,1,104.999996795654,6|0,0:1|0:0,0:0:0:0:
155,92,38955,2,0,P|184:125|203:140,1,52.4999983978272,2|8,0:0|0:0,0:0:0:0:
184,221,39271,2,0,P|226:216|245:210,1,52.4999983978272,0|0,0:0|0:0,0:0:0:0:
307,281,39587,2,0,P|320:226|321:167,1,104.999996795654,2|0,0:0|0:0,0:0:0:0:
409,147,40060,2,0,P|450:185|500:216,1,104.999996795654,2|8,0:0|0:0,0:0:0:0:
475,312,40534,2,0,P|420:328|369:356,1,104.999996795654,0|2,0:0|0:0,0:0:0:0:
307,281,41008,5,2,0:0:0:0:
156,359,41323,1,0,0:0:0:0:
25,251,41639,1,8,0:0:0:0:
115,260,41797,2,0,L|108:201,1,52.4999983978272,0|0,0:0|0:0,0:0:0:0:
195,186,42113,2,0,L|180:66,1,104.999996795654,2|2,0:0|0:0,0:0:0:0:
262,37,42587,2,0,L|269:88,2,52.4999983978272,0|2|8,0:0|0:0|0:0,0:0:0:0:
262,37,43534,6,0,P|337:26|392:78,1,157.499995193482,6|2,0:0|0:0,0:0:0:0:
424,164,44165,2,0,P|468:181|490:181,1,52.4999983978272,8|2,0:0|0:0,0:0:0:0:
418,255,44481,1,8,0:0:0:0:
418,255,44639,2,0,P|360:231|308:235,1,104.999996795654,2|2,0:0|0:0,0:0:0:0:
237,272,45113,1,8,0:0:0:0:
152,211,45271,6,0,L|162:89,1,104.999996795654,6|2,0:0|0:0,0:0:0:0:
139,30,45744,2,0,P|174:27|196:35,1,52.4999983978272,8|2,0:0|0:0,0:0:0:0:
271,79,46060,1,2,0:0:0:0:
353,42,46218,2,0,P|368:39|386:38,3,26.2499991989136,8|8|8|8,0:0|0:0|0:0|0:0,0:0:0:0:
411,54,46534,1,8,0:0:0:0:
459,205,46850,6,0,L|395:213,1,52.4999983978272,2|8,0:0|0:0,0:0:0:0:
314,242,47165,1,8,0:0:0:0:
314,242,47244,1,8,0:0:0:0:
314,242,47323,2,0,L|308:202,4,26.2499991989136,8|8|4|4|8,0:3|0:3|0:3|0:3|0:0,0:0:0:0:
227,281,47797,2,0,P|168:285|129:244,1,104.999996795654,6|2,0:0|0:0,0:0:0:0:
86,180,48271,2,0,L|137:169,1,52.4999983978272,8|0,0:0|0:0,0:0:0:0:
238,146,48587,5,6,0:1:0:0:
465,30,48902,2,0,L|476:104,1,67.4999979400635,8|4,0:0|0:3,0:0:0:0:
394,178,49218,2,0,L|377:35,1,134.999995880127,4|8,0:3|0:0,0:0:0:0:
292,93,49692,6,0,P|232:128|157:103,1,134.999995880127,4|2,0:3|0:0,0:0:0:0:
101,39,50165,2,0,P|161:4|236:29,2,134.999995880127,8|4|8,0:0|0:3|0:0,0:0:0:0:
71,147,50955,1,2,0:0:0:0:
146,217,51113,6,0,P|159:263|160:300,1,67.4999979400635,12|2,0:0|0:0,0:0:0:0:
279,321,51429,2,0,P|312:286|343:267,1,67.4999979400635,8|2,0:0|0:0,0:0:0:0:
303,154,51744,2,0,P|256:142|224:124,1,67.4999979400635,8|2,0:0|0:0,0:0:0:0:
125,84,52060,1,8,0:0:0:0:
236,26,52218,6,0,P|328:34|379:78,1,134.999995880127,6|2,0:1|0:0,0:0:0:0:
461,130,52692,2,0,L|455:216,1,67.4999979400635,8|2,0:0|0:0,0:0:0:0:
404,308,53008,2,0,L|323:314,2,44.999998626709,8|8|8,0:0|0:0|0:0,0:0:0:0:
329,286,53323,2,0,L|248:292,3,44.999998626709,8|8|4|10,0:3|0:3|0:3|0:1,0:0:0:0:
256,192,53718,12,0,55534,0:0:0:0:
18,184,56008,6,0,P|112:201|160:155,1,150,6|2,0:1|0:3,0:0:0:0:
228,84,56481,2,0,P|271:85|312:96,1,75,10|2,0:0|0:3,0:0:0:0:
405,122,56797,1,10,0:1:0:0:
326,205,56955,2,0,P|360:221|400:228,1,75,2|10,0:3|0:0,0:0:0:0:
505,207,57271,1,2,0:3:0:0:
320,346,57587,5,2,0:3:0:0:
320,346,57744,1,10,0:0:0:0:
319,345,57902,2,0,P|287:328|250:322,1,75,2|8,0:3|0:1,0:0:0:0:
213,225,58218,1,2,0:3:0:0:
212,225,58376,2,0,P|180:244|157:273,1,75,10|2,0:0|0:3,0:0:0:0:
71,225,58692,6,0,P|53:295|99:364,2,150,6|8|10,0:0|0:0|0:1,0:0:0:0:
154,144,59481,1,2,0:3:0:0:
48,100,59639,1,10,0:0:0:0:
136,24,59797,6,0,B|217:14|197:69|282:56,1,150,2|2,0:3|0:3,0:0:0:0:
382,1,60271,1,10,0:0:0:0:
382,1,60429,2,0,P|395:59|388:84,1,75,2|10,0:3|0:1,0:0:0:0:
390,187,60744,2,0,P|333:169|315:150,1,75,2|8,0:3|0:0,0:0:0:0:
277,56,61060,2,0,P|216:103|215:192,1,150,2|0,0:3|0:0,0:0:0:0:
249,298,61534,5,8,0:0:0:0:
153,358,61692,1,2,0:3:0:0:
93,262,61850,2,0,B|59:199|59:199|81:106,1,150,10|10,0:1|0:0,0:0:0:0:
187,104,62323,2,0,L|169:199,1,75,2|8,0:3|0:1,0:0:0:0:
286,197,62639,1,2,0:3:0:0:
286,197,62797,1,10,0:0:0:0:
286,197,62955,2,0,L|299:123,1,75,2|8,0:3|0:1,0:0:0:0:
395,61,63271,2,0,P|413:101|408:146,1,75,2|8,0:3|0:0,0:0:0:0:
491,210,63587,6,0,P|445:240|404:240,1,75,2|10,0:3|0:1,0:0:0:0:
385,347,63902,2,0,P|343:321|332:284,1,75,10|8,0:1|0:0,0:0:0:0:
269,199,64218,2,0,P|218:242|216:328,1,150,6|10,0:0|0:1,0:0:0:0:
106,352,64692,1,8,0:0:0:0:
106,352,64850,2,0,P|91:303|63:281,1,75,6|0,0:0|0:0,0:0:0:0:
25,183,65165,1,8,0:0:0:0:
25,183,65244,1,8,0:0:0:0:
25,183,65323,2,0,L|16:130,3,37.5,8|8|8|8,0:0|0:0|0:0|0:0,0:0:0:0:
39,110,65639,6,0,L|87:97,3,37.5,8|8|8|8,0:3|0:0|0:0|0:0,0:0:0:0:
125,116,65955,2,0,L|161:107,3,37.5,8|8|8|4,0:0|0:0|0:3|0:3,0:0:0:0:
208,82,66271,5,12,0:1:0:0:
438,3,66587,2,0,P|456:64|446:95,1,75,8|2,0:0|0:3,0:0:0:0:
438,185,66902,1,10,0:1:0:0:
333,101,67060,2,0,P|315:162|325:193,1,75,2|10,0:3|0:0,0:0:0:0:
364,275,67376,1,2,0:3:0:0:
190,356,67692,5,2,0:3:0:0:
190,356,67850,1,10,0:0:0:0:
190,356,68008,2,0,L|107:346,1,75,2|8,0:3|0:1,0:0:0:0:
78,251,68323,1,2,0:3:0:0:
78,251,68481,2,0,L|-5:241,1,75,10|2,0:0|0:3,0:0:0:0:
97,148,68797,6,0,L|267:168,2,150,6|8|8,0:0|0:0|0:1,0:0:0:0:
13,72,69587,1,10,0:1:0:0:
107,12,69744,1,10,0:0:0:0:
195,86,69902,6,0,P|263:127|345:105,1,150,12|10,0:1|0:1,0:0:0:0:
432,56,70376,1,8,0:0:0:0:
491,156,70534,2,0,P|471:223|469:245,1,75,6|0,0:0|0:0,0:0:0:0:
401,332,70850,1,4,0:3:0:0:
311,270,71008,2,0,P|301:229|281:196,1,75,8|8,0:0|0:1,0:0:0:0:
195,86,71323,5,8,0:0:0:0:
195,86,71639,2,0,P|80:60|51:97,2,150,10|10|10,0:0|0:0|0:0,0:0:0:0:
119,170,72429,2,0,P|73:188|30:181,1,75,10|8,0:1|0:0,0:0:0:0:
25,306,72744,2,0,P|63:336|79:377,1,75,10|8,0:1|0:0,0:0:0:0:
190,320,73060,2,0,P|197:271|224:237,1,75,10|8,0:1|0:0,0:0:0:0:
326,218,73376,1,10,0:1:0:0:
326,218,73534,2,0,P|364:248|380:289,1,75,8|8,0:0|0:1,0:0:0:0:
301,363,73850,5,8,0:0:0:0:
301,363,74165,2,0,L|279:281,1,75,10|10,0:0|0:1,0:0:0:0:
184,219,74481,2,0,L|206:137,1,75,10|8,0:0|0:1,0:0:0:0:
238,29,74797,1,10,0:0:0:0:
358,74,74955,6,0,B|383:144|383:144|364:221,1,150,6|8,0:0|0:0,0:0:0:0:
388,252,75350,1,8,0:0:0:0:
388,252,75429,2,0,P|409:262|434:263,2,37.5,8|8|4,0:0|0:3|0:3,0:0:0:0:
256,192,75744,1,8,0:0:0:0:
271,333,75902,1,12,0:0:0:0:
237,40,76376,5,12,0:1:0:0:
256,192,76455,12,0,78902,0:0:0:0:
114,294,80955,6,0,P|71:310|29:302,2,75,2|10|2,0:3|0:0|0:0,0:0:0:0:
221,234,81429,2,0,P|277:212|370:225,1,150,12|10,0:1|0:0,0:0:0:0:
302,325,81902,1,2,0:3:0:0:
423,334,82060,2,0,P|473:278|475:189,1,150,10|10,0:1|0:0,0:0:0:0:
395,109,82534,6,0,B|336:92|336:92|304:98|304:98|239:79,3,150,2|2|2|10,0:3|0:3|0:3|0:1,0:0:0:0:
173,15,83639,2,0,P|152:46|148:90,1,75,8|8,0:0|0:1,0:0:0:0:
214,213,83955,6,0,P|259:150|243:73,1,150,12|10,0:0|0:0,0:0:0:0:
147,82,84429,2,0,L|60:95,1,75,10|8,0:0|0:1,0:0:0:0:
22,190,84744,2,0,L|105:203,1,75,10|8,0:0|0:1,0:0:0:0:
214,213,85060,6,0,P|259:275|243:352,1,150,10|4,0:0|0:3,0:0:0:0:
141,306,85534,1,12,0:0:0:0:
432,24,86323,6,0,P|390:69|394:144,1,120,6|2,0:1|0:0,0:0:0:0:
458,191,86797,2,0,P|398:227|331:203,2,120,8|2|8,0:0|0:0|0:0,0:0:0:0:
386,124,87587,2,0,P|327:117|279:151,1,120,2|2,0:0|0:0,0:0:0:0:
229,232,88060,2,0,L|239:309,1,60,8|0,0:0|0:0,0:0:0:0:
147,335,88376,2,0,L|135:242,1,90,2|8,0:0|0:0,0:0:0:0:
130,217,88692,1,8,0:0:0:0:
59,143,88850,6,0,P|114:119|187:132,1,120,2|2,0:0|0:0,0:0:0:0:
279,151,89323,2,0,P|319:166|353:163,1,60,8|0,0:0|0:0,0:0:0:0:
433,117,89639,2,0,P|473:102|507:105,2,60,2|2|8,0:0|0:0|0:0,0:0:0:0:
335,166,90113,6,0,B|327:211|327:211|339:243|339:243|329:298,1,120,2|2,0:0|0:0,0:0:0:0:
246,342,90587,2,0,L|236:272,1,60,8|0,0:0|0:0,0:0:0:0:
156,242,90902,2,0,L|166:172,2,60,2|2|8,0:0|0:0|0:0,0:0:0:0:
73,324,91376,6,0,L|56:201,1,120,6|2,0:0|0:0,0:0:0:0:
8,113,91850,2,0,P|41:101|86:109,1,60,8|0,0:0|0:0,0:0:0:0:
164,132,92165,2,0,P|234:151|279:131,1,120,2|8,0:0|0:0,0:0:0:0:
336,49,92639,2,0,P|266:30|221:50,1,120,2|2,0:0|0:0,0:0:0:0:
164,132,93113,6,0,L|180:250,2,120,8|2|8,0:0|0:0|0:0,0:0:0:0:
224,47,93902,2,0,P|280:29|336:49,1,120,2|2,0:0|0:0,0:0:0:0:
418,117,94376,2,0,P|456:132|488:127,2,60,8|0|2,0:0|0:0|0:0,0:0:0:0:
325,150,94850,1,2,0:0:0:0:
398,214,95008,1,8,0:0:0:0:
304,252,95165,6,0,B|246:235|248:297|175:273,1,120,2|8,0:0|0:0,0:0:0:0:
92,232,95639,1,8,0:0:0:0:
198,187,95797,1,8,0:0:0:0:
26,26,96587,6,0,P|43:97|51:169,1,120,12|8,0:1|0:0,0:0:0:0:
151,173,97060,2,0,P|200:151|217:147,1,60,2|8,0:3|0:1,0:0:0:0:
268,66,97376,2,0,P|295:94|308:123,1,60,2|8,0:3|0:0,0:0:0:0:
390,179,97692,2,0,P|340:208|275:214,1,120,2|2,0:3|0:3,0:0:0:0:
211,296,98165,1,8,0:0:0:0:
211,296,98323,2,0,P|232:316|245:343,1,60,2|8,0:3|0:1,0:0:0:0:
354,349,98639,2,0,P|361:320|378:295,1,60,2|8,0:3|0:0,0:0:0:0:
473,243,98955,1,2,0:3:0:0:
390,179,99113,6,0,P|361:129|355:64,2,120,8|8|8,0:1|0:0|0:1,0:0:0:0:
303,230,99902,2,0,L|221:221,2,60,2|8|2,0:3|0:0|0:3,0:0:0:0:
260,320,100376,2,0,L|178:311,1,60,8|2,0:1|0:3,0:0:0:0:
151,231,100692,2,0,L|91:237,1,60,8|2,0:0|0:3,0:0:0:0:
109,138,101008,2,0,P|183:125|237:167,1,120,8|8,0:1|0:0,0:0:0:0:
413,237,101639,6,0,P|339:250|285:208,1,120,6|8,0:0|0:0,0:0:0:0:
302,229,102113,1,0,0:0:0:0:
364,150,102271,2,0,L|368:74,2,60,2|2|8,0:0|0:0|0:0,0:0:0:0:
261,141,102744,6,0,B|227:123|227:123|180:127|180:127|148:112,1,120,6|2,0:0|0:0,0:0:0:0:
107,27,103218,1,8,0:0:0:0:
107,27,103376,2,0,P|61:57|46:124,1,120,6|2,0:0|0:0,0:0:0:0:
55,149,103771,1,2,0:0:0:0:
55,149,103850,2,0,P|61:206|54:226,1,60,8|2,0:0|0:0,0:0:0:0:
17,311,104165,6,0,L|91:322,1,60,2|8,0:0|0:0,0:0:0:0:
170,277,104481,2,0,L|217:285,2,30,8|8|8,0:0|0:0|0:0,0:0:0:0:
338,333,104955,2,0,P|346:292|341:266,1,60,8|4,0:3|0:3,0:0:0:0:
314,177,105271,1,8,0:0:0:0:
314,177,105350,1,8,0:0:0:0:
314,177,105429,6,0,P|311:153|314:137,3,30,2|0|8|8,0:0|0:0|0:0|0:0,0:0:0:0:
332,117,105744,2,0,L|364:112,2,30,8|8|6,0:0|0:0|0:0,0:0:0:0:
214,29,106218,1,2,0:0:0:0:
214,29,106376,2,0,L|141:40,1,60,12|4,0:3|0:3,0:0:0:0:
43,54,106692,5,6,0:1:0:0:
65,298,107008,2,0,L|81:218,1,67.4999979400635,8|4,0:0|0:3,0:0:0:0:
172,182,107323,2,0,L|186:265,2,67.4999979400635,4|2|8,0:3|0:0|0:0,0:0:0:0:
122,92,107797,1,4,0:3:0:0:
122,92,107876,1,0,0:0:0:0:
122,92,107955,6,0,P|157:81|194:83,1,67.4999979400635,4|2,0:3|0:0,0:0:0:0:
277,126,108271,2,0,P|306:136|346:135,1,67.4999979400635,8|4,0:0|0:3,0:0:0:0:
440,111,108587,2,0,P|456:86|488:62,1,67.4999979400635,4|2,0:3|0:0,0:0:0:0:
412,216,108903,2,0,P|425:242|430:289,1,67.4999979400635,8|2,0:0|0:0,0:0:0:0:
323,348,109218,6,0,L|242:335,1,67.4999979400635,8|2,0:0|0:0,0:0:0:0:
174,264,109534,1,8,0:0:0:0:
174,264,109692,2,0,L|92:271,1,67.4999979400635,2|8,0:0|0:0,0:0:0:0:
262,192,110008,2,0,L|334:201,1,67.4999979400635,2|8,0:0|0:0,0:0:0:0:
183,105,110323,6,0,L|47:122,1,134.999995880127,6|2,0:1|0:0,0:0:0:0:
109,9,110797,1,8,0:0:0:0:
256,192,110876,12,0,112376,0:0:0:0:
445,191,112850,6,0,P|370:177|300:220,1,150,6|2,0:1|0:3,0:0:0:0:
210,269,113323,2,0,L|200:178,1,75,10|2,0:0|0:3,0:0:0:0:
185,84,113639,1,10,0:1:0:0:
77,198,113797,2,0,L|87:107,1,75,2|10,0:3|0:0,0:0:0:0:
102,13,114113,1,2,0:3:0:0:
294,43,114429,5,2,0:3:0:0:
294,43,114587,1,10,0:0:0:0:
294,43,114744,2,0,P|337:74|346:99,1,75,2|8,0:3|0:1,0:0:0:0:
457,101,115060,1,2,0:3:0:0:
457,101,115218,2,0,P|451:153|434:174,1,75,10|2,0:0|0:3,0:0:0:0:
489,265,115534,6,0,P|440:286|351:235,2,150,6|8|10,0:0|0:0|0:1,0:0:0:0:
439,169,116323,1,2,0:3:0:0:
337,129,116481,1,10,0:0:0:0:
255,206,116639,6,0,B|243:253|243:253|270:350,1,150,2|2,0:3|0:3,0:0:0:0:
161,310,117113,1,10,0:0:0:0:
55,351,117271,2,0,L|72:270,1,75,2|10,0:3|0:1,0:0:0:0:
130,183,117587,2,0,P|83:165|48:172,1,75,2|8,0:3|0:0,0:0:0:0:
48,58,117902,2,0,P|127:53|204:100,1,150,2|0,0:3|0:0,0:0:0:0:
278,159,118376,5,8,0:0:0:0:
325,57,118534,1,2,0:3:0:0:
398,146,118692,2,0,P|418:255|401:288,1,150,10|10,0:1|0:0,0:0:0:0:
305,324,119165,2,0,L|215:314,1,75,2|8,0:3|0:1,0:0:0:0:
138,263,119481,1,2,0:3:0:0:
138,263,119639,1,10,0:0:0:0:
138,263,119797,2,0,L|63:271,1,75,2|8,0:3|0:1,0:0:0:0:
49,139,120113,2,0,L|123:130,1,75,2|8,0:3|0:0,0:0:0:0:
250,85,120429,6,0,L|324:93,1,75,2|10,0:3|0:1,0:0:0:0:
439,140,120744,2,0,P|450:93|441:61,1,75,10|8,0:1|0:0,0:0:0:0:
324,93,121060,2,0,P|294:157|323:246,1,150,6|10,0:0|0:1,0:0:0:0:
380,325,121534,1,8,0:0:0:0:
457,231,121692,6,0,B|412:215|412:215|302:232,1,150,6|8,0:0|0:0,0:0:0:0:
275,255,122087,1,8,0:0:0:0:
275,255,122165,2,0,L|226:249,3,37.5,8|8|8|8,0:0|0:0|0:0|0:0,0:0:0:0:
195,240,122481,2,0,L|190:202,3,37.5,8|8|8|8,0:3|0:0|0:0|0:0,0:0:0:0:
146,190,122797,2,0,L|141:152,3,37.5,8|8|4|4,0:0|0:3|0:3|0:3,0:0:0:0:
107,128,123113,5,12,0:1:0:0:
300,16,123429,2,0,P|318:84|312:100,1,75,8|2,0:0|0:3,0:0:0:0:
291,195,123744,1,10,0:1:0:0:
188,145,123902,2,0,P|170:213|176:229,1,75,2|10,0:3|0:0,0:0:0:0:
197,324,124217,1,2,0:0:0:0:
406,360,124534,5,2,0:3:0:0:
406,360,124692,1,10,0:0:0:0:
406,360,124850,2,0,L|492:343,1,75,2|8,0:3|0:1,0:0:0:0:
425,244,125165,1,2,0:3:0:0:
425,244,125323,2,0,L|511:227,1,75,10|2,0:0|0:3,0:0:0:0:
437,131,125639,6,0,L|275:162,2,150,6|8|8,0:0|0:0|0:1,0:0:0:0:
341,40,126429,1,10,0:1:0:0:
289,160,126587,1,10,0:0:0:0:
199,60,126744,6,0,P|128:63|57:138,1,150,12|10,0:1|0:1,0:0:0:0:
175,187,127218,1,8,0:0:0:0:
42,216,127376,2,0,P|54:270|58:316,1,75,6|0,0:0|0:0,0:0:0:0:
167,372,127692,1,4,0:3:0:0:
263,310,127850,2,0,P|268:272|277:236,1,75,8|8,0:0|0:1,0:0:0:0:
355,119,128165,5,8,0:0:0:0:
355,119,128481,2,0,B|390:132|419:112|419:112|437:118|437:118|463:100|498:107,2,150,10|10|10,0:0|0:0|0:0,0:0:0:0:
249,85,129271,2,0,L|239:7,1,75,10|8,0:1|0:0,0:0:0:0:
152,135,129587,2,0,L|142:57,1,75,10|8,0:1|0:0,0:0:0:0:
60,191,129902,2,0,L|50:113,1,75,10|8,0:1|0:0,0:0:0:0:
150,237,130218,1,10,0:1:0:0:
150,237,130376,2,0,P|162:292|157:315,1,75,8|8,0:0|0:1,0:0:0:0:
55,363,130692,5,8,0:0:0:0:
55,363,131008,2,0,P|43:308|48:285,1,75,10|10,0:0|0:1,0:0:0:0:
150,237,131323,2,0,L|233:248,1,75,10|8,0:0|0:1,0:0:0:0:
346,262,131639,1,10,0:0:0:0:
438,176,131797,6,0,L|283:157,1,150,6|8,0:0|0:0,0:0:0:0:
262,141,132192,1,8,0:0:0:0:
262,141,132271,2,0,P|258:109|261:92,3,37.5,10|10|10|10,0:0|0:0|0:1|0:1,0:0:0:0:
287,72,132587,2,0,P|287:53|283:34,2,37.5,8|8|4,0:0|0:0|0:3,0:0:0:0:
169,59,132902,1,8,0:0:0:0:
150,62,132980,1,8,0:0:0:0:
132,65,133059,1,8,0:0:0:0:
113,68,133138,1,8,0:0:0:0:
95,72,133217,5,12,0:1:0:0:
256,192,133297,12,12,135744,0:1:0:0:
354,348,138271,6,0,P|435:353|456:274,3,150,12|8|10|8,0:1|0:0|0:1|0:0,0:0:0:0:
441,187,139376,1,0,0:0:0:0:
354,107,139534,6,0,P|286:109|199:141,1,150,10|10,0:1|0:0,0:0:0:0:
301,217,140008,1,2,0:0:0:0:
201,285,140165,2,0,L|209:126,1,150,8|8,0:1|0:0,0:0:0:0:
214,21,140639,1,2,0:0:0:0:
114,74,140797,5,10,0:1:0:0:
208,135,140955,2,0,L|261:141,3,37.5,8|8|8|8,0:0|0:0|0:0|0:0,0:0:0:0:
276,171,141271,2,0,P|361:153|446:156,1,150,6|8,0:0|0:1,0:0:0:0:
423,153,141744,1,8,0:0:0:0:
364,274,141902,6,0,B|293:271|309:342|216:329,1,150,12|8,0:1|0:1,0:0:0:0:
198,320,142297,1,8,0:1:0:0:
198,320,142376,2,0,P|167:313|147:302,3,37.5,8|8|8|8,0:0|0:0|0:0|0:0,0:0:0:0:
116,298,142692,2,0,P|112:266|116:241,3,37.5,8|8|8|8,0:3|0:3|0:3|0:3,0:0:0:0:
152,233,143008,2,0,P|151:214|148:195,3,37.5,4|4|8|8,0:3|0:3|0:1|0:1,0:0:0:0:
158,152,143323,6,0,P|101:139|21:184,1,150,12|8,0:1|0:0,0:0:0:0:
112,260,143797,2,0,P|169:273|249:228,1,150,2|2,0:3|0:3,0:0:0:0:
275,115,144271,1,8,0:0:0:0:
389,154,144429,6,0,P|439:150|490:45,1,150,2|2,0:3|0:3,0:0:0:0:
376,38,144902,2,0,L|384:133,1,75,8|2,0:0|0:3,0:0:0:0:
275,115,145218,2,0,L|268:40,1,75,8|0,0:1|0:0,0:0:0:0:
157,45,145534,2,0,L|165:140,1,75,8|2,0:0|0:3,0:0:0:0:
165,161,145771,1,2,0:0:0:0:
165,161,145850,6,0,P|94:133|37:195,1,150,6|8,0:0|0:0,0:0:0:0:
118,277,146323,2,0,B|197:258|181:321|265:295,1,150,2|2,0:3|0:3,0:0:0:0:
349,228,146797,1,8,0:0:0:0:
349,228,146955,2,0,P|408:215|437:220,1,75,2|8,0:3|0:1,0:0:0:0:
460,330,147271,6,0,P|401:343|372:338,1,75,2|8,0:3|0:0,0:0:0:0:
261,296,147587,2,0,B|247:217|247:217|263:135,1,150,2|2,0:3|0:1,0:0:0:0:
365,87,148060,2,0,L|381:175,1,75,8|10,0:0|0:1,0:0:0:0:
253,29,148376,6,0,P|172:27|122:88,1,150,12|10,0:0|0:0,0:0:0:0:
106,191,148850,2,0,P|164:187|196:170,1,75,10|8,0:1|0:0,0:0:0:0:
126,73,149165,2,0,P|68:77|36:94,1,75,10|8,0:1|0:0,0:0:0:0:
0,187,149481,2,0,L|24:284,1,75,10|8,0:1|0:0,0:0:0:0:
103,351,149797,6,0,L|121:278,1,75,10|8,0:1|0:0,0:0:0:0:
238,254,150113,2,0,L|219:181,2,75,10|8|10,0:1|0:0|0:1,0:0:0:0:
318,344,150587,1,8,0:0:0:0:
421,280,150744,1,10,0:1:0:0:
340,190,150902,6,0,P|333:140|372:83,1,120,12|0,0:0|0:0,0:0:0:0:
369,84,151376,1,8,0:1:0:0:
288,28,151534,2,0,L|236:34,5,40,8|8|8|8|8|8,0:0|0:0|0:1|0:0|0:0|0:1,0:0:0:0:
208,75,152165,2,0,L|168:79,5,40,4|8|8|8|4|8,0:3|0:3|0:3|0:3|0:3|0:1,0:0:0:0:
136,119,152797,2,0,B|87:133|64:103|64:103|53:142|5:144|5:144|74:156|92:200,1,240,6|0,0:0|0:0,0:0:0:0:
256,192,158481,5,2,0:0:0:0:
256,192,159744,5,0,0:0:0:0:
256,192,161008,5,6,0:0:0:0:
274,189,161086,1,0,0:0:0:0:
293,186,161165,2,0,L|358:177,3,37.5,8|8|8|8,0:0|0:0|0:0|0:0,0:0:0:0:
372,174,161481,2,0,P|387:222|377:260,1,75,8|0,0:0|0:0,0:0:0:0:
473,161,161797,2,0,P|458:113|468:75,1,75,8|0,0:1|0:0,0:0:0:0:
355,55,162113,5,8,0:0:0:0:
355,55,162192,1,8,0:0:0:0:
355,55,162271,1,8,0:0:0:0:
355,55,162350,1,8,0:0:0:0:
355,55,162429,2,0,L|298:50,3,37.5,8|4|8|8,0:3|0:3|0:0|0:0,0:0:0:0:
270,47,162744,2,0,L|281:136,1,75,6|0,0:0|0:0,0:0:0:0:
195,202,163060,1,8,0:1:0:0:
99,140,163218,2,0,L|93:90,4,37.5,8|8|4|4|6,0:3|0:3|0:3|0:3|0:1,0:0:0:0:
84,324,163850,6,0,P|147:319|163:306,1,67.4999979400635,8|4,0:0|0:3,0:0:0:0:
238,258,164165,2,0,P|269:247|302:251,2,67.4999979400635,4|2|8,0:3|0:0|0:0,0:0:0:0:
278,356,164639,1,4,0:3:0:0:
278,356,164718,1,4,0:3:0:0:
278,356,164797,6,0,L|368:349,1,67.4999979400635,4|2,0:3|0:0,0:0:0:0:
436,271,165113,2,0,L|291:250,2,134.999995880127,8|4|8,0:0|0:3|0:0,0:0:0:0:
384,158,165902,1,2,0:0:0:0:
465,64,166060,6,0,P|401:32|332:45,1,134.999995880127,12|8,0:0|0:0,0:0:0:0:
253,111,166534,2,0,P|201:126|166:120,1,67.4999979400635,2|8,0:0|0:0,0:0:0:0:
128,222,166850,2,0,P|98:193|87:159,1,67.4999979400635,2|8,0:0|0:0,0:0:0:0:
0,123,167165,6,0,P|47:74|112:76,1,134.999995880127,6|2,0:1|0:0,0:0:0:0:
188,125,167639,1,8,0:0:0:0:
135,316,167955,2,0,P|185:306|224:305,1,67.4999979400635,8|8,0:0|0:0,0:0:0:0:
309,339,168271,2,0,P|325:346|342:349,3,33.7499989700318,8|2|10|2,0:0|0:0|0:0|0:0,0:0:0:0:
391,339,168587,5,10,0:1:0:0:
404,75,170481,6,0,L|493:67,2,67.4999979400635,0|0|2,0:0|0:0|0:0,0:0:0:0:
323,10,170955,6,0,P|287:79|338:163,1,180,6|0,0:1|0:0,0:0:0:0:
407,219,171587,1,0,0:0:0:0:
375,306,171744,1,8,0:1:0:0:
282,302,171902,2,0,L|267:230,1,60,10|10,0:1|0:0,0:0:0:0:
206,353,172218,1,6,0:0:0:0:
50,204,172534,6,0,L|65:276,1,60,10|10,0:1|0:0,0:0:0:0:
126,153,172850,1,8,0:0:0:0:
126,153,172929,1,8,0:0:0:0:
126,153,173008,1,8,0:0:0:0:
29,94,173165,2,0,P|19:60|26:27,2,60,8|4|8,0:3|0:3|0:1,0:0:0:0:
134,43,173639,6,0,P|240:72|240:189,1,240,12|8,0:1|0:1,0:0:0:0:
185,294,174429,1,10,0:0:0:0:
294,351,174587,1,10,0:0:0:0:
351,242,174744,2,0,L|438:227,1,60,6|0,0:0|0:0,0:0:0:0:
457,129,175060,1,8,0:0:0:0:
457,129,175139,1,8,0:0:0:0:
457,129,175218,2,0,L|504:138,2,40,8|8|8,0:0|0:0|0:0,0:0:0:0:
408,91,175534,2,0,L|417:44,2,40,8|8|4,0:3|0:3|0:3,0:0:0:0:
348,116,175850,2,0,L|355:155,2,40,4|8|0,0:3|0:1|0:0,0:0:0:0:
295,81,176165,5,12,0:0:0:0:
72,174,176481,2,0,L|61:92,1,75,8|8,0:0|0:0,0:0:0:0:
167,126,176797,2,0,L|182:222,1,75,8|8,0:0|0:0,0:0:0:0:
87,275,177113,1,8,0:0:0:0:
193,318,177271,6,0,P|242:332|281:323,1,75,6|0,0:0|0:0,0:0:0:0:
366,266,177587,1,2,0:0:0:0:
244,226,177744,1,12,0:0:0:0:
374,152,177902,2,0,P|408:139|446:141,1,75,2|12,0:0|0:0,0:0:0:0:
498,47,178218,1,2,0:0:0:0:
498,47,178376,2,0,P|465:30|421:30,1,75,8|4,0:0|0:3,0:0:0:0:
316,74,178692,6,0,L|278:67,4,37.5,8|8|4|4|8,0:0|0:3|0:3|0:3|0:1,0:0:0:0:
409,147,179165,2,0,L|445:140,4,37.5,8|8|4|4|8,0:0|0:3|0:3|0:3|0:1,0:0:0:0:
296,195,179639,1,8,0:3:0:0:
296,195,179718,1,8,0:3:0:0:
296,195,179797,1,8,0:1:0:0:
361,270,179955,6,0,P|371:312|359:355,1,75,8|8,0:0|0:1,0:0:0:0:
232,347,180271,2,0,P|222:305|234:262,1,75,8|8,0:0|0:1,0:0:0:0:
170,178,180587,1,8,0:3:0:0:
151,181,180665,1,8,0:0:0:0:
133,184,180744,1,8,0:0:0:0:
114,187,180823,1,8,0:0:0:0:
96,190,180902,2,0,L|49:197,3,37.5,8|8|8|8,0:0|0:0|0:0|0:0,0:0:0:0:
462,49,181534,6,0,L|360:27,1,75,6|2,0:1|0:3,0:0:0:0:
277,11,181850,1,10,0:1:0:0:
338,121,182008,2,0,L|236:143,1,75,2|10,0:3|0:0,0:0:0:0:
153,159,182324,1,2,0:3:0:0:
338,255,182639,1,2,0:3:0:0:
338,255,182797,1,10,0:0:0:0:
338,255,182955,2,0,P|349:290|344:327,1,75,2|8,0:3|0:1,0:0:0:0:
247,375,183271,1,2,0:3:0:0:
247,375,183429,2,0,P|210:367|181:344,1,75,10|2,0:0|0:3,0:0:0:0:
157,254,183744,6,0,P|198:196|281:182,2,150,6|8|8,0:0|0:0|0:1,0:0:0:0:
60,313,184534,2,0,L|49:230,1,75,10|10,0:1|0:0,0:0:0:0:
34,124,184850,6,0,B|68:90|106:85|106:85|139:100|171:92,1,150,12|10,0:1|0:1,0:0:0:0:
286,48,185323,1,8,0:0:0:0:
379,122,185481,2,0,P|395:183|390:214,1,75,6|0,0:0|0:0,0:0:0:0:
326,305,185797,1,4,0:3:0:0:
226,253,185955,2,0,P|227:215|241:180,1,75,8|8,0:0|0:1,0:0:0:0:
286,48,186271,5,8,0:0:0:0:
286,48,186587,2,0,P|361:37|447:34,2,150,10|10|10,0:0|0:0|0:0,0:0:0:0:
200,125,187376,2,0,P|162:120|129:103,1,75,10|8,0:1|0:0,0:0:0:0:
44,182,187692,6,0,P|58:216|60:253,1,75,10|8,0:1|0:0,0:0:0:0:
172,289,188008,2,0,P|194:259|225:238,1,75,10|8,0:1|0:0,0:0:0:0:
333,180,188323,1,10,0:1:0:0:
333,180,188481,2,0,P|347:214|349:251,1,75,8|8,0:0|0:1,0:0:0:0:
275,351,188797,5,8,0:0:0:0:
275,351,189113,2,0,P|308:368|346:373,1,75,10|10,0:0|0:1,0:0:0:0:
349,251,189429,2,0,P|315:234|278:229,1,75,10|8,0:0|0:1,0:0:0:0:
172,289,189744,1,10,0:0:0:0:
79,193,189902,6,0,P|128:153|218:156,1,150,12|8,0:1|0:0,0:0:0:0:
243,137,190297,1,8,0:0:0:0:
243,137,190376,2,0,L|235:85,2,37.5,8|8|8,0:0|0:0|0:3,0:0:0:0:
349,251,190692,1,12,0:0:0:0:
408,112,190850,1,8,0:0:0:0:
152,47,191323,6,0,B|81:36|81:36|53:67|-3:62,2,150,6|8|8,0:1|0:0|0:0,0:0:0:0:
272,31,192113,2,0,P|286:86|280:124,1,75,10|10,0:1|0:0,0:0:0:0:
264,216,192429,1,6,0:0:0:0:
87,134,192744,6,0,P|73:189|79:227,1,75,10|10,0:1|0:0,0:0:0:0:
95,319,193060,2,0,L|171:306,1,75,10|8,0:1|0:0,0:0:0:0:
264,216,193376,2,0,L|337:203,2,75,10|10|10,0:1|0:0|0:1,0:0:0:0:
325,338,193850,6,0,P|399:323|441:238,2,150,12|8|8,0:1|0:0|0:0,0:0:0:0:
205,314,194639,1,10,0:1:0:0:
282,225,194797,1,10,0:0:0:0:
156,196,194955,6,0,P|103:182|60:184,1,75,6|0,0:1|0:0,0:0:0:0:
54,71,195271,2,0,P|92:32|112:-6,1,75,10|8,0:1|0:0,0:0:0:0:
213,45,195587,2,0,P|227:97|250:134,1,75,10|8,0:1|0:0,0:0:0:0:
317,205,195902,1,10,0:1:0:0:
415,128,196060,2,0,P|430:94|438:57,1,75,10|8,0:0|0:1,0:0:0:0:
327,77,196376,6,0,L|319:170,1,75,8|8,0:0|0:1,0:0:0:0:
207,223,196692,2,0,L|200:148,1,75,8|8,0:0|0:1,0:0:0:0:
187,33,197008,1,8,0:0:0:0:
187,33,197087,1,8,0:0:0:0:
187,33,197165,1,8,0:1:0:0:
92,103,197323,1,10,0:0:0:0:
200,148,197481,6,0,P|262:167|366:164,1,150,10|8,0:1|0:1,0:0:0:0:
425,260,197955,2,0,P|369:276|337:296,1,75,8|8,0:0|0:1,0:0:0:0:
241,354,198271,1,8,0:0:0:0:
197,233,198429,1,8,0:0:0:0:
113,327,198587,2,0,L|24:318,1,75,8|6,0:0|0:1,0:0:0:0:
256,192,198823,12,0,203718,0:0:0:0:
