osu file format v14

[General]
AudioFilename: LFK.mp3
AudioLeadIn: 0
PreviewTime: 112293
Countdown: 0
SampleSet: None
StackLeniency: 0.5
Mode: 0
LetterboxInBreaks: 0
WidescreenStoryboard: 1

[Editor]
DistanceSpacing: 1
BeatDivisor: 4
GridSize: 4
TimelineZoom: 2.799999

[Metadata]
Title:Light for Knight
TitleUnicode:Light for Knight
Artist:Mimori Suzuko
ArtistUnicode:三森すずこ
Creator:-Brethia
Version:Kowari's Extra
Source:ランス・アンド・マスクス
Tags:Lance N' Masques opening anime japanese pop dkblaze Kowari Lasse Yuuma Kalibe Irohas kotachi _kotachi_
BeatmapID:2612246
BeatmapSetID:801337

[Difficulty]
HPDrainRate:5
CircleSize:4
OverallDifficulty:8.5
ApproachRate:9.3
SliderMultiplier:1.8
SliderTickRate:1

[Events]
//Background and Video events
0,0,"BG.jpg",0,0
//Break Periods
2,28576,32244
2,153628,157769
//Storyboard Layer 0 (Background)
//Storyboard Layer 1 (Fail)
//Storyboard Layer 2 (Pass)
//Storyboard Layer 3 (Foreground)
//Storyboard Layer 4 (Overlay)
//Storyboard Sound Samples

[TimingPoints]
587,315.789473684211,4,2,34,22,1,0
587,-133.333333333333,4,2,34,22,0,0
1850,-133.333333333333,4,2,34,24,0,0
3113,-133.333333333333,4,2,34,26,0,0
3744,-133.333333333333,4,2,34,28,0,0
4376,-133.333333333333,4,2,34,30,0,0
5481,-133.333333333333,4,2,34,30,0,0
5639,-200,4,2,34,30,0,0
7060,-200,4,2,34,20,0,0
7218,-133.333333333333,4,2,34,25,0,0
7375,-133.333333333333,4,2,34,30,0,0
7612,-133.333333333333,4,2,34,35,0,0
7849,-133.333333333333,4,2,34,40,0,0
8007,-133.333333333333,4,2,34,45,0,0
8165,-133.333333333333,4,2,34,50,0,0
9271,-133.333333333333,4,2,34,30,0,0
9429,-133.333333333333,4,2,34,50,0,0
13218,-133.333333333333,4,2,35,50,0,0
13375,-133.333333333333,4,2,35,80,0,0
13534,-133.333333333333,4,2,34,50,0,0
13691,-133.333333333333,4,2,34,30,0,0
13850,-133.333333333333,4,2,34,50,0,0
14008,-133.333333333333,4,2,34,40,0,0
14165,-133.333333333333,4,2,34,50,0,0
15744,-133.333333333333,4,2,34,60,0,0
16060,-133.333333333333,4,2,34,30,0,0
16218,-133.333333333333,4,2,34,40,0,0
16376,-133.333333333333,4,2,34,50,0,0
16534,-133.333333333333,4,2,34,60,0,0
16692,-133.333333333333,4,2,34,70,0,0
16850,-133.333333333333,4,2,34,60,0,0
17639,-76.9230769230769,4,2,34,60,0,0
17718,-76.9230769230769,4,2,34,5,0,0
17797,-76.9230769230769,4,2,34,60,0,0
17876,-76.9230769230769,4,2,34,5,0,0
18271,-100,4,2,34,70,0,0
19059,-100,4,2,34,80,0,0
19218,-100,4,2,34,70,0,0
21350,-100,4,2,34,80,0,0
21429,-100,4,2,34,70,0,0
28376,-100,4,2,99,70,0,0
32798,-100,4,2,34,60,0,0
33271,-111.111111111111,4,2,34,60,0,0
35165,-111.111111111111,4,2,34,80,0,0
35323,-111.111111111111,4,2,34,60,0,0
35560,-111.111111111111,4,2,34,80,0,0
35639,-111.111111111111,4,2,34,60,0,0
35797,-99.9999999999999,4,2,34,60,0,0
37297,-99.9999999999999,4,2,34,5,0,0
37376,-76.9230769230769,4,2,34,40,0,0
37455,-76.9230769230769,4,2,34,5,0,0
37534,-76.9230769230769,4,2,34,50,0,0
37613,-76.9230769230769,4,2,34,5,0,0
37692,-76.9230769230769,4,2,34,60,0,0
37771,-76.9230769230769,4,2,34,5,0,0
38008,-111.111111111111,4,2,34,60,0,0
38481,-133.333333333333,4,2,34,60,0,0
39902,-133.333333333333,4,2,34,80,0,0
40060,-133.333333333333,4,2,34,60,0,0
40691,-133.333333333333,4,2,34,80,0,0
40850,-133.333333333333,4,2,34,60,0,0
40929,-133.333333333333,4,2,34,80,0,0
41008,-133.333333333333,4,2,34,60,0,0
42587,-133.333333333333,4,2,34,80,0,0
42744,-133.333333333333,4,2,34,60,0,0
43534,-133.333333333333,4,2,35,60,0,0
43849,-133.333333333333,4,2,35,80,0,0
44008,-133.333333333333,4,2,34,60,0,0
44639,-111.111111111111,4,2,34,60,0,0
44876,-111.111111111111,4,2,34,5,0,0
44955,-111.111111111111,4,2,34,60,0,0
45271,-90.9090909090909,4,2,35,60,0,0
45744,-90.9090909090909,4,2,34,60,0,0
46138,-90.9090909090909,4,2,34,80,0,0
46218,-71.4285714285714,4,2,34,60,0,0
46613,-71.4285714285714,4,2,34,5,0,0
46850,-71.4285714285714,4,2,34,60,0,0
47323,-90.9090909090909,4,2,34,60,0,0
47639,-71.4285714285714,4,2,34,60,0,0
47797,-71.4285714285714,4,2,35,60,0,0
47876,-71.4285714285714,4,2,35,5,0,0
48113,-71.4285714285714,4,2,35,60,0,0
48587,-111.111111111111,4,2,35,60,0,0
48823,-111.111111111111,4,2,34,5,0,0
48902,-111.111111111111,4,2,34,60,0,0
51113,-111.111111111111,4,2,34,65,0,0
52218,-99.9999999999999,4,2,34,70,0,0
52455,-99.9999999999999,4,2,34,5,0,0
52534,-99.9999999999999,4,2,34,70,0,0
53639,-133.333333333333,4,2,34,50,0,0
53955,-133.333333333333,4,2,34,45,0,0
54271,-133.333333333333,4,2,34,40,0,0
54902,-200,4,2,34,40,0,0
55533,-200,4,2,34,30,0,0
56008,-100,4,2,34,75,0,1
59165,-100,4,2,34,80,0,1
59322,-100,4,2,34,75,0,1
61454,-100,4,2,34,5,0,1
61534,-100,4,2,34,75,0,1
62560,-100,4,2,34,5,0,1
62639,-100,4,2,34,75,0,1
63744,-71.4285714285714,4,2,34,75,0,1
63823,-71.4285714285714,4,2,34,5,0,1
63902,-71.4285714285714,4,2,34,75,0,1
63981,-71.4285714285714,4,2,34,5,0,1
64060,-71.4285714285714,4,2,34,75,0,1
64139,-71.4285714285714,4,2,34,5,0,1
64218,-71.4285714285714,4,2,35,75,0,1
64454,-71.4285714285714,4,2,34,5,0,1
64534,-71.4285714285714,4,2,34,75,0,1
64850,-71.4285714285714,4,2,35,75,0,1
65086,-71.4285714285714,4,2,34,5,0,1
65165,-71.4285714285714,4,2,34,75,0,1
66271,-100,4,2,34,75,0,1
69271,-100,4,2,34,80,0,1
69428,-100,4,2,34,75,0,1
69902,-76.9230769230769,4,2,35,75,0,1
70138,-76.9230769230769,4,2,35,5,0,1
70218,-76.9230769230769,4,2,34,75,0,1
70534,-76.9230769230769,4,2,35,75,0,1
70692,-76.9230769230769,4,2,34,75,0,1
74955,-90.9090909090909,4,2,35,75,0,1
75191,-90.9090909090909,4,2,35,5,0,1
75271,-90.9090909090909,4,2,34,75,0,1
75744,-71.4285714285714,4,2,34,75,0,1
75823,-71.4285714285714,4,2,34,5,0,1
75902,-71.4285714285714,4,2,34,75,0,1
75981,-71.4285714285714,4,2,34,5,0,1
76376,-100,4,2,34,70,0,0
77165,-100,4,2,34,80,0,0
77323,-100,4,2,34,70,0,0
79455,-100,4,2,34,80,0,0
79534,-100,4,2,34,70,0,0
86323,-111.111111111111,4,2,34,60,0,0
90508,-111.111111111111,4,2,34,80,0,0
90587,-111.111111111111,4,2,34,60,0,0
90823,-111.111111111111,4,2,34,5,0,0
90902,-111.111111111111,4,2,34,60,0,0
91376,-111.111111111111,4,2,35,60,0,0
94533,-111.111111111111,4,2,35,80,0,0
94692,-111.111111111111,4,2,35,60,0,0
95165,-99.9999999999999,4,2,34,60,0,0
95402,-99.9999999999999,4,2,34,5,0,0
95481,-71.4285714285714,4,2,34,60,0,0
95560,-71.4285714285714,4,2,34,5,0,0
95639,-71.4285714285714,4,2,34,60,0,0
95718,-71.4285714285714,4,2,34,5,0,0
95797,-71.4285714285714,4,2,34,60,0,0
95876,-71.4285714285714,4,2,34,5,0,0
96113,-111.111111111111,4,2,34,50,0,0
96271,-111.111111111111,4,2,34,52,0,0
96587,-111.111111111111,4,2,34,60,0,0
99823,-111.111111111111,4,2,34,5,0,0
99902,-111.111111111111,4,2,34,60,0,0
101639,-111.111111111111,4,2,35,60,0,0
102113,-111.111111111111,4,2,35,80,0,0
102271,-111.111111111111,4,2,35,60,0,0
102744,-90.9090909090908,4,2,35,60,0,0
102980,-90.9090909090908,4,2,34,5,0,0
103060,-90.9090909090908,4,2,35,60,0,0
104243,-90.9090909090908,4,2,35,80,0,0
104323,-90.9090909090908,4,2,35,60,0,0
104481,-71.4285714285714,4,2,35,60,0,0
104718,-71.4285714285714,4,2,35,5,0,0
104955,-71.4285714285714,4,2,35,60,0,0
105034,-71.4285714285714,4,2,35,5,0,0
105271,-71.4285714285714,4,2,35,60,0,0
105981,-71.4285714285714,4,2,35,5,0,0
106218,-71.4285714285714,4,2,35,60,0,0
106692,-111.111111111111,4,2,35,60,0,0
106929,-111.111111111111,4,2,35,5,0,0
107008,-111.111111111111,4,2,35,60,0,0
109218,-111.111111111111,4,2,35,65,0,0
110323,-111.111111111111,4,2,35,70,0,0
110559,-111.111111111111,4,2,35,5,0,0
110639,-111.111111111111,4,2,35,70,0,0
110797,-99.9999999999999,4,2,35,70,0,0
111033,-99.9999999999999,4,2,35,5,0,0
111113,-99.9999999999999,4,2,35,70,0,0
111744,-166.666666666667,4,2,35,70,0,0
112060,-166.666666666667,4,2,35,5,0,0
112375,-166.666666666667,4,2,35,30,0,0
112850,-100,4,2,34,75,0,1
113165,-100,4,2,35,75,0,1
116008,-100,4,2,35,80,0,1
116165,-100,4,2,35,75,0,1
116875,-100,4,2,35,5,0,1
116955,-100,4,2,35,75,0,1
118296,-100,4,2,35,5,0,1
118376,-100,4,2,35,75,0,1
118849,-100,4,2,35,80,0,1
119008,-100,4,2,35,75,0,1
120587,-71.4285714285714,4,2,35,75,0,1
120665,-71.4285714285714,4,2,35,5,0,1
120744,-71.4285714285714,4,2,35,75,0,1
120823,-71.4285714285714,4,2,35,5,0,1
120902,-71.4285714285714,4,2,35,75,0,1
120981,-71.4285714285714,4,2,35,5,0,1
121060,-71.4285714285714,4,2,35,75,0,1
121296,-71.4285714285714,4,2,35,5,0,1
121376,-71.4285714285714,4,2,35,75,0,1
121928,-71.4285714285714,4,2,35,5,0,1
122008,-71.4285714285714,4,2,35,75,0,1
123113,-100,4,2,34,75,0,1
123428,-100,4,2,35,75,0,1
126113,-100,4,2,35,80,0,1
126270,-100,4,2,35,75,0,1
126744,-76.9230769230769,4,2,35,75,0,1
126980,-76.9230769230769,4,2,35,5,0,1
127060,-76.9230769230769,4,2,35,75,0,1
131797,-90.9090909090909,4,2,35,75,0,1
132033,-90.9090909090909,4,2,35,5,0,1
132113,-90.9090909090909,4,2,35,75,0,1
132902,-76.9230769230769,4,2,35,75,0,1
133218,-100,4,2,35,70,0,0
133455,-100,4,2,35,5,0,0
133533,-100,4,2,35,70,0,0
135429,-76.9230769230769,4,2,35,70,0,0
135665,-76.9230769230769,4,2,35,30,0,0
135744,-90.9090909090909,4,2,35,70,0,0
137007,-90.9090909090909,4,2,35,80,0,0
137165,-90.9090909090909,4,2,35,70,0,0
138376,-90.9090909090909,4,2,35,30,0,0
138481,-90.9090909090909,4,2,35,70,0,0
138586,-90.9090909090909,4,2,35,30,0,0
138692,-90.9090909090909,4,2,35,70,0,0
138797,-90.9090909090909,4,2,35,30,0,0
138902,-90.9090909090909,4,2,35,70,0,0
139007,-90.9090909090909,4,2,35,30,0,0
139113,-90.9090909090909,4,2,35,70,0,0
139218,-90.9090909090909,4,2,35,30,0,0
139323,-90.9090909090909,4,2,35,70,0,0
139428,-90.9090909090909,4,2,35,30,0,0
139534,-90.9090909090909,4,2,35,70,0,0
141192,-90.9090909090909,4,2,35,80,0,0
141271,-90.9090909090909,4,2,35,70,0,0
141507,-90.9090909090909,4,2,35,5,0,0
141587,-90.9090909090909,4,2,35,70,0,0
142297,-90.9090909090909,4,2,35,40,0,0
142376,-90.9090909090909,4,2,35,70,0,0
143323,-90.9090909090909,4,2,35,75,0,0
144191,-90.9090909090909,4,2,35,30,0,0
144271,-90.9090909090909,4,2,35,75,0,0
146007,-90.9090909090909,4,2,35,80,0,0
146165,-90.9090909090909,4,2,35,75,0,0
151060,-111.111111111111,4,2,35,75,0,0
151534,-76.9230769230769,4,2,35,75,0,0
151850,-83.3333333333333,4,2,35,75,0,0
152165,-90.9090909090909,4,2,35,75,0,0
152481,-100,4,2,35,75,0,0
152797,-166.666666666667,4,2,35,75,0,0
153428,-166.666666666667,4,2,99,50,0,0
158323,-166.666666666667,4,2,35,40,0,0
158954,-166.666666666667,4,2,35,80,0,0
159113,-166.666666666667,4,2,35,40,0,0
160218,-166.666666666667,4,2,35,44,0,0
160850,-166.666666666667,4,2,35,48,0,0
161008,-90.9090909090909,4,2,35,60,0,0
161323,-71.4285714285714,4,2,35,60,0,0
161560,-71.4285714285714,4,2,35,5,0,0
161797,-71.4285714285714,4,2,35,60,0,0
161876,-71.4285714285714,4,2,35,5,0,0
162113,-71.4285714285714,4,2,35,60,0,0
162823,-71.4285714285714,4,2,35,5,0,0
163060,-71.4285714285714,4,2,35,60,0,0
163534,-111.111111111111,4,2,35,60,0,0
164560,-111.111111111111,4,2,35,80,0,0
164639,-111.111111111111,4,2,35,60,0,0
166060,-111.111111111111,4,2,35,65,0,0
167165,-111.111111111111,4,2,35,70,0,0
167322,-111.111111111111,4,2,35,80,0,0
167481,-111.111111111111,4,2,35,70,0,0
167955,-62.5,4,2,35,45,0,0
168033,-62.5,4,2,35,5,0,0
168113,-62.5,4,2,35,50,0,0
168191,-62.5,4,2,35,5,0,0
168271,-62.5,4,2,35,55,0,0
168429,-62.5,4,2,35,60,0,0
168587,-133.333333333333,4,2,35,50,0,0
168902,-133.333333333333,4,2,35,45,0,0
169218,-133.333333333333,4,2,35,40,0,0
169850,-166.666666666667,4,2,35,40,0,0
169929,-166.666666666667,4,2,35,5,0,0
170797,-166.666666666667,4,2,35,30,0,0
170955,-133.333333333333,4,2,34,70,0,0
171428,-133.333333333333,4,2,34,50,0,0
171744,-133.333333333333,4,2,35,60,0,0
172218,-111.111111111111,4,2,35,70,0,0
172850,-111.111111111111,4,2,35,50,0,0
173008,-111.111111111111,4,2,35,70,0,0
173639,-133.333333333333,4,2,35,70,0,0
173718,-133.333333333333,4,2,35,5,0,0
174112,-133.333333333333,4,2,35,80,0,0
174271,-133.333333333333,4,2,35,60,0,0
174744,-90.9090909090909,4,2,35,70,0,0
176165,-90.9090909090909,4,2,35,70,0,1
176401,-90.9090909090909,4,2,35,5,0,1
176481,-90.9090909090909,4,2,35,50,0,1
176639,-90.9090909090909,4,2,35,55,0,1
176797,-90.9090909090909,4,2,35,60,0,1
176956,-90.9090909090909,4,2,35,65,0,1
177113,-90.9090909090909,4,2,35,70,0,1
178297,-90.9090909090909,4,2,35,80,0,1
178376,-90.9090909090909,4,2,35,70,0,1
178534,-90.9090909090909,4,2,35,66,0,1
179165,-90.9090909090909,4,2,35,68,0,1
179955,-90.9090909090909,4,2,35,70,0,1
180192,-90.9090909090909,4,2,35,80,0,1
180271,-90.9090909090909,4,2,35,70,0,1
180587,-90.9090909090909,4,2,35,72,0,1
180902,-66.6666666666667,4,2,35,72,0,0
181534,-76.9230769230769,4,2,34,75,0,1
181770,-76.9230769230769,4,2,35,5,0,1
181850,-76.9230769230769,4,2,35,75,0,1
182323,-100,4,2,35,75,0,1
184850,-76.9230769230769,4,2,35,75,0,1
185086,-76.9230769230769,4,2,35,5,0,1
185165,-76.9230769230769,4,2,35,75,0,1
190138,-76.9230769230769,4,2,35,5,0,1
190218,-76.9230769230769,4,2,35,75,0,1
190692,-66.6666666666667,4,2,35,75,0,1
190771,-66.6666666666667,4,2,35,5,0,1
190850,-66.6666666666667,4,2,35,75,0,0
190929,-66.6666666666667,4,2,35,5,0,0
191008,-66.6666666666667,4,2,2,80,0,0
191323,-90.9090909090909,4,2,34,80,0,1
191559,-90.9090909090909,4,2,35,5,0,1
191639,-90.9090909090909,4,2,35,80,0,1
197243,-90.9090909090909,4,3,35,80,0,1
197323,-90.9090909090909,4,2,35,80,0,1
198271,-62.5,4,2,35,80,0,1
198350,-62.5,4,3,35,5,0,1
198429,-62.5,4,2,35,80,0,1
198508,-62.5,4,3,35,5,0,1
198587,-62.5,4,2,35,80,0,1
198665,-62.5,4,3,35,5,0,1
198744,-333.333333333333,4,2,35,70,0,0
203718,-133.333333333333,4,2,99,14,0,0

[Colours]
Combo1 : 128,64,0
Combo2 : 0,202,0
Combo3 : 0,128,128
Combo4 : 0,128,0

[HitObjects]
484,378,587,6,0,P|443:369|405:362,1,67.5000025749208,2|0,0:0|0:0,0:0:0:0:
313,300,902,2,0,P|346:293|379:286,1,67.5000025749208
482,206,1218,2,0,P|470:255|464:291,1,67.5000025749208
374,124,1534,2,0,P|386:173|392:209,1,67.5000025749208
276,90,1850,6,0,P|230:82|188:74,1,67.5000025749208,2|0,0:0|0:0,0:0:0:0:
79,161,2165,2,0,B|112:154|145:149,1,67.5000025749208
115,5,2481,2,0,P|124:47|133:82,1,67.5000025749208
64,226,2797,2,0,P|73:184|82:149,1,67.5000025749208
121,315,3113,6,0,P|72:324|36:331,1,67.5000025749208,2|0,0:0|0:0,0:0:0:0:
160,231,3429,2,0,P|209:240|245:247,1,67.5000025749208
325,384,3744,2,0,P|314:331|309:304,1,67.5000025749208,2|0,0:0|0:0,0:0:0:0:
349,110,4060,2,0,P|342:143|335:176,1,67.5000025749208
300,243,4376,6,0,B|338:206|388:211|422:272|422:272|391:170|395:97|465:76|536:99|552:152|503:210|475:175,1,472.500018024445,2|0,0:0|0:0,0:0:0:0:
335,93,5639,6,0,B|326:8|244:-23|170:16|170:16|157:89|226:115|247:78,1,360,2|2,0:0|0:0,0:0:0:0:
94,111,7060,5,2,0:0:0:0:
94,111,7139,1,2,0:0:0:0:
94,111,7218,2,0,L|85:161,3,33.7500012874604,2|2|2|2,0:0|0:0|0:0|0:0,0:0:0:0:
27,203,7534,1,2,0:0:0:0:
57,188,7612,1,2,0:0:0:0:
90,186,7691,1,2,0:0:0:0:
122,197,7770,1,2,0:0:0:0:
147,219,7849,1,2,0:0:0:0:
161,249,7928,1,2,0:0:0:0:
163,282,8007,1,2,0:0:0:0:
152,314,8086,1,2,0:0:0:0:
130,339,8165,1,6,0:1:0:0:
472,85,9271,5,8,0:0:0:0:
472,85,9350,1,8,0:0:0:0:
472,85,9429,2,0,P|393:68|328:52,1,135.000005149842,8|8,0:0|0:3,0:0:0:0:
225,203,9902,2,0,P|275:154|359:172,1,135.000005149842,4|8,0:3|0:3,0:0:0:0:
395,234,10376,1,4,0:3:0:0:
395,234,10692,5,14,0:1:0:0:
176,345,11482,5,0,0:0:0:0:
85,285,11640,1,0,0:0:0:0:
232,248,11797,1,0,0:0:0:0:
94,183,11955,6,0,P|83:112|72:22,1,135.000005149842,10|0,0:0|0:0,0:0:0:0:
187,127,12429,2,0,P|225:83|308:74,1,135.000005149842,10|8,0:3|0:1,0:0:0:0:
298,71,12823,1,8,0:1:0:0:
298,71,12902,1,6,0:3:0:0:
512,337,13218,6,0,P|463:330|419:321,1,67.5000025749208,14|0,0:1|0:0,0:0:0:0:
324,263,13534,2,0,P|357:258|390:252,1,67.5000025749208,10|0,0:1|0:3,0:0:0:0:
512,164,13850,2,0,P|475:170|416:98,1,135.000005149842,10|8,0:1|0:1,0:0:0:0:
272,167,14323,1,2,0:3:0:0:
313,27,14481,6,0,P|326:75|333:108,1,67.5000025749208,8|2,0:1|0:3,0:0:0:0:
168,176,14797,2,0,P|175:143|184:110,1,67.5000025749208,8|2,0:1|0:3,0:0:0:0:
212,296,15113,1,8,0:1:0:0:
68,217,15271,1,2,0:3:0:0:
272,167,15429,1,8,0:1:0:0:
87,377,15744,5,6,0:0:0:0:
410,338,16060,1,10,0:0:0:0:
272,167,16218,1,8,0:0:0:0:
431,248,16376,1,10,0:0:0:0:
509,48,16534,1,8,0:0:0:0:
373,172,16692,1,8,0:0:0:0:
269,24,16850,6,0,P|211:15|176:12,1,67.5000025749208,14|0,0:0|0:0,0:0:0:0:
21,129,17165,2,0,L|66:118,1,33.7500012874604,8|8,0:0|0:0,0:0:0:0:
161,172,17323,1,8,0:0:0:0:
181,208,17401,1,8,0:3:0:0:
180,249,17480,1,4,0:3:0:0:
158,285,17559,1,8,0:1:0:0:
121,304,17639,6,0,L|59:287,1,58.4999973220826,10|0,0:0|0:0,0:0:0:0:
345,366,17797,2,0,L|411:351,1,58.4999973220826,10|0,0:0|0:0,0:0:0:0:
438,341,18271,6,0,P|420:279|306:268,1,180,14|10,0:1|0:0,0:1:0:0:
165,351,18744,1,0,0:3:0:0:
191,157,18902,2,0,P|203:213|217:258,1,90,10|0,0:1|0:0,0:0:0:0:
286,80,19218,1,8,0:0:0:0:
90,220,19376,6,0,P|15:203|-16:197,1,90,2|8,0:3|0:1,0:0:0:0:
301,302,19692,2,0,P|376:285|407:279,1,90,2|8,0:3|0:0,0:0:0:0:
286,80,20008,2,0,P|261:143|271:178,1,90,2|8,0:3|0:1,0:0:0:0:
493,163,20323,2,0,P|435:146|389:137,1,90,2|8,0:3|0:0,0:0:0:0:
301,302,20639,5,2,0:3:0:0:
144,192,20797,2,0,P|193:157|299:225,1,180,10|8,0:1|0:0,0:0:0:0:
70,303,21271,1,2,0:3:0:0:
70,303,21350,1,0,0:0:0:0:
70,303,21429,2,0,P|56:240|41:200,1,90,8|0,0:1|0:3,0:0:0:0:
233,21,21744,2,0,P|219:63|210:107,1,90,8|0,0:0|0:3,0:0:0:0:
81,37,22060,5,10,0:1:0:0:
292,203,22218,2,0,P|352:187|395:180,1,90,2|8,0:3|0:0,0:0:0:0:
466,13,22534,2,0,P|375:5|332:84,1,180,2|2,0:3|0:3,0:0:0:0:
504,172,23008,2,0,L|490:113,1,45,10|2,0:0|0:0,0:0:0:0:
430,279,23165,2,0,L|419:322,1,45,2|2,0:0|0:0,0:0:0:0:
302,374,23323,6,0,B|279:328|217:331|217:331|188:365|142:369,1,180,14|10,0:1|0:0,0:0:0:0:
0,284,23797,1,0,0:3:0:0:
123,173,23955,2,0,P|146:218|136:274,1,90,10|0,0:1|0:3,0:0:0:0:
1,132,24271,1,10,0:0:0:0:
188,50,24429,6,0,P|127:37|89:28,1,90,2|8,0:3|0:1,0:0:0:0:
284,173,24744,2,0,P|327:162|371:153,1,90,2|8,0:3|0:0,0:0:0:0:
418,0,25060,2,0,P|363:14|340:50,1,90,2|8,0:3|0:1,0:0:0:0:
194,241,25376,1,10,0:1:0:0:
194,241,25455,1,8,0:1:0:0:
194,241,25534,1,8,0:0:0:0:
119,55,25692,1,8,0:1:0:0:
284,173,25850,5,14,0:0:0:0:
50,267,26008,1,8,0:1:0:0:
50,267,26087,1,8,0:1:0:0:
50,267,26165,1,10,0:0:0:0:
226,365,26323,2,0,P|226:303|203:277,1,90,10|8,0:0|0:1,0:0:0:0:
184,279,26560,1,8,0:1:0:0:
184,279,26639,1,10,0:0:0:0:
405,210,26797,1,8,0:1:0:0:
293,83,26955,6,0,P|285:137|281:184,1,90,8|4,0:0|0:3,0:0:0:0:
453,303,27271,1,8,0:3:0:0:
403,100,27429,1,12,0:0:0:0:
403,100,28376,5,12,0:1:0:0:
180,113,32798,6,0,P|136:101|93:89,1,90,2|8,0:0|0:1,0:0:0:0:
237,26,33114,1,8,0:0:0:0:
133,205,33271,6,0,P|178:150|276:171,1,161.999995056153,6|0,0:0|0:0,0:0:0:0:
388,119,33744,2,0,P|378:167|371:212,1,80.9999975280763,10|0,0:1|0:0,0:0:0:0:
303,68,34060,1,10,0:1:0:0:
485,145,34218,2,0,P|474:86|468:55,1,80.9999975280763,2|10,0:0|0:1,0:0:0:0:
451,265,34534,6,0,P|373:283|280:309,1,161.999995056153,2|0,0:0|0:0,0:0:0:0:
95,268,35008,2,0,B|118:328|129:364,1,80.9999975280763,10|0,0:1|0:0,0:0:0:0:
215,203,35323,1,8,0:1:0:0:
16,182,35481,1,8,0:1:0:0:
16,182,35560,1,10,0:1:0:0:
16,182,35639,1,8,0:0:0:0:
207,313,35797,6,0,P|249:237|343:237,1,180,12|8,0:1|0:1,0:0:0:0:
422,343,36271,1,10,0:0:0:0:
484,164,36429,1,0,0:0:0:0:
307,319,36587,1,8,0:0:0:0:
261,118,36745,1,10,0:3:0:0:
444,248,36902,1,8,0:3:0:0:
199,336,37060,6,0,B|104:310|104:310|62:340,1,135,6|0,0:0|0:0,0:0:0:0:
16,378,37376,6,0,P|2:350|0:321,1,58.4999973220826,10|0,0:0|0:0,0:0:0:0:
213,203,37534,6,0,P|188:232|159:243,1,58.4999973220826,10|0,0:0|0:0,0:0:0:0:
0,102,37692,6,0,P|31:134|41:167,1,58.4999973220826,14|0,0:0|0:0,0:0:0:0:
70,241,38007,5,8,0:1:0:0:
179,119,38165,2,0,P|223:110|288:106,1,80.9999975280763,8|0,0:0|0:0,0:0:0:0:
378,12,38481,6,0,P|367:77|356:169,1,135.000005149842,4|0,0:1|0:0,0:0:0:0:
471,212,38955,2,0,P|459:163|452:135,1,67.5000025749208,10|8,0:1|0:0,0:0:0:0:
419,311,39271,2,0,P|485:318|505:321,1,67.5000025749208,2|0,0:0|0:0,0:0:0:0:
353,238,39587,6,0,P|294:238|242:315,1,135.000005149842,10|0,0:1|0:0,0:0:0:0:
105,240,40060,1,8,0:1:0:0:
203,142,40218,2,0,P|195:189|186:231,1,67.5000025749208,2|8,0:0|0:0,0:0:0:0:
92,94,40534,2,0,P|85:60|80:27,1,67.5000025749208,2|0,0:0|0:0,0:0:0:0:
190,51,40850,5,8,0:1:0:0:
190,51,40929,1,0,0:0:0:0:
190,51,41008,2,0,P|281:37|339:30,1,135.000005149842,10|0,0:1|0:0,0:0:0:0:
310,192,41481,2,0,P|293:139|278:108,1,67.5000025749208,10|8,0:1|0:0,0:0:0:0:
427,30,41797,2,0,P|414:61|405:93,1,67.5000025749208,2|0,0:0|0:0,0:0:0:0:
378,265,42113,6,0,P|421:221|495:227,1,135.000005149842,10|8,0:1|0:1,0:0:0:0:
415,364,42587,1,0,0:0:0:0:
297,301,42744,1,8,0:1:0:0:
297,301,42902,2,0,P|244:293|206:288,1,67.5000025749208,8|0,0:0|0:0,0:0:0:0:
123,205,43218,2,0,P|156:200|189:195,1,67.5000025749208
49,329,43534,6,0,P|33:262|9:183,1,135.000005149842,14|0,0:1|0:0,0:0:0:0:
191,72,44008,1,8,0:1:0:0:
191,72,44087,1,8,0:1:0:0:
191,72,44165,1,8,0:0:0:0:
123,205,44323,1,8,0:1:0:0:
49,40,44481,1,8,0:0:0:0:
235,176,44639,6,0,P|303:157|319:93,1,121.499996292114,10|0,0:1|0:0,0:0:0:0:
311,79,44955,1,8,0:1:0:0:
123,205,45113,1,8,0:0:0:0:
338,327,45271,6,0,B|281:288|230:280|230:280|186:305|157:348,1,198.000006042481,14|8,0:1|0:1,0:0:0:0:
171,368,45665,1,8,0:1:0:0:
171,368,45744,1,10,0:0:0:0:
358,217,45902,1,8,0:1:0:0:
180,57,46060,6,0,L|196:113,1,49.5000015106202,10|0,0:1|0:0,0:0:0:0:
223,238,46218,5,8,0:0:0:0:
229,242,46297,1,8,0:0:0:0:
238,243,46376,2,0,P|258:199|248:158,1,62.9999980773926,8|8,0:0|0:0,0:0:0:0:
98,150,46534,6,0,L|17:167,1,62.9999980773926,10|0,0:0|0:0,0:0:0:0:
337,350,46850,6,0,L|418:367,1,62.9999980773926,8|8,0:0|0:0,0:0:0:0:
503,234,47008,5,8,0:0:0:0:
500,246,47087,1,8,0:0:0:0:
495,254,47165,2,0,P|458:272|424:265,1,62.9999980773926,8|8,0:0|0:0,0:0:0:0:
302,108,47323,5,8,0:3:0:0:
342,80,47401,1,8,0:3:0:0:
390,84,47480,1,4,0:3:0:0:
426,117,47559,1,4,0:3:0:0:
434,165,47639,2,0,L|346:186,1,62.9999980773926,8|8,0:0|0:0,0:0:0:0:
116,226,47797,6,0,L|201:253,1,62.9999980773926,14|0,0:1|0:0,0:0:0:0:
253,370,48112,5,8,0:1:0:0:
373,179,48271,1,8,0:0:0:0:
176,245,48429,1,0,0:0:0:0:
368,326,48587,6,0,P|396:279|479:282,1,121.499996292114,14|0,0:1|0:0,0:0:0:0:
489,293,48902,1,10,0:0:0:0:
304,220,49060,1,4,0:3:0:0:
420,102,49218,2,0,P|409:152|401:192,1,80.9999975280763,6|0,0:3|0:0,0:0:0:0:
314,10,49534,1,8,0:0:0:0:
229,128,49692,5,4,0:3:0:0:
229,128,49771,1,4,0:3:0:0:
229,128,49850,2,0,P|279:116|322:108,1,80.9999975280763,6|0,0:3|0:0,0:0:0:0:
154,237,50165,1,8,0:0:0:0:
74,61,50323,1,4,0:3:0:0:
229,128,50481,5,4,0:3:0:0:
36,244,50639,1,0,0:0:0:0:
229,321,50797,1,10,0:0:0:0:
131,147,50955,1,0,0:0:0:0:
134,384,51113,5,14,0:0:0:0:
314,201,51271,1,0,0:0:0:0:
36,244,51429,1,10,0:0:0:0:
314,358,51587,6,0,P|358:365|406:372,1,80.9999975280763,0|10,0:0|0:0,0:0:0:0:
266,111,51902,1,8,0:1:0:0:
146,354,52060,1,8,0:0:0:0:
147,70,52218,6,0,P|89:27|3:59,1,135,14|0,0:1|0:0,0:0:0:0:
7,76,52534,1,8,0:1:0:0:
188,218,52692,2,0,P|246:205|289:189,1,90,10|0,0:0|0:0,0:0:0:0:
435,24,53008,5,8,0:0:0:0:
405,40,53113,2,0,P|385:71|376:103,1,60,8|8,0:0|0:0,0:0:0:0:
443,196,53323,5,10,0:3:0:0:
446,235,53429,2,2,P|463:269|491:285,1,60,10|6,0:3|0:3,0:1:0:0:
296,186,53639,6,0,P|258:176|208:169,1,67.5000025749208,10|0,0:1|0:0,0:0:0:0:
32,280,53955,2,0,P|65:274|97:265,1,67.5000025749208,2|0,0:0|0:0,0:0:0:0:
122,37,54271,2,0,P|105:74|110:115,1,67.5000025749208,2|0,0:0|0:0,0:0:0:0:
156,201,54587,5,2,0:0:0:0:
156,201,54665,1,2,0:0:0:0:
156,201,54744,1,2,0:0:0:0:
156,201,54823,1,2,0:0:0:0:
156,201,54902,2,0,P|205:190|238:297,1,180,2|0,0:0|0:0,0:0:0:0:
507,52,56008,6,0,P|445:45|391:149,1,180,14|0,0:1|0:3,0:0:0:0:
223,27,56481,1,10,0:0:0:0:
256,221,56639,1,2,0:1:0:0:
256,221,56718,1,2,0:1:0:0:
256,221,56797,2,0,P|273:163|282:128,1,90,10|2,0:1|0:3,0:0:0:0:
99,242,57113,1,10,0:0:0:0:
271,356,57271,6,0,P|341:339|391:329,1,90,2|8,0:3|0:1,0:0:0:0:
280,134,57587,1,2,0:3:0:0:
166,322,57744,1,10,0:0:0:0:
91,126,57902,2,0,P|35:120|-15:117,1,90,2|8,0:3|0:1,0:0:0:0:
259,225,58218,1,2,0:3:0:0:
179,0,58376,1,10,0:0:0:0:
63,222,58534,5,2,0:3:0:0:
63,222,58613,1,2,0:0:0:0:
63,222,58692,2,0,P|116:155|213:184,1,180,10|8,0:1|0:0,0:0:0:0:
315,16,59165,2,0,P|303:78|294:126,1,90,0|8,0:0|0:1,0:0:0:0:
478,237,59481,1,2,0:3:0:0:
418,49,59639,1,10,0:0:0:0:
353,261,59797,6,0,P|304:319|194:277,1,180,2|2,0:3|0:3,0:0:0:0:
45,173,60271,1,10,0:0:0:0:
87,354,60429,2,0,P|108:281|114:245,1,90,2|8,0:3|0:1,0:0:0:0:
243,139,60744,2,0,P|252:182|266:225,1,90,2|8,0:3|0:0,0:0:0:0:
134,71,61060,5,2,0:3:0:0:
134,71,61139,1,2,0:0:0:0:
134,71,61218,2,0,P|61:86|10:36,1,135,10|0,0:1|0:0,0:0:0:0:
11,10,61534,1,8,0:0:0:0:
240,104,61692,1,2,0:3:0:0:
50,215,61850,2,0,P|64:160|77:123,1,90,10|0,0:1|0:3,0:0:0:0:
185,375,62165,1,10,0:0:0:0:
285,207,62323,6,0,P|209:210|164:281,1,135,2|2,0:3|0:1,0:0:0:0:
170,288,62639,1,2,0:3:0:0:
387,248,62797,1,10,0:0:0:0:
267,108,62955,2,0,P|257:53|253:7,1,90,2|8,0:3|0:1,0:0:0:0:
499,87,63271,2,0,P|494:131|485:175,1,90,2|8,0:3|0:0,0:0:0:0:
303,295,63587,5,2,0:3:0:0:
303,295,63665,1,2,0:0:0:0:
303,295,63744,2,0,P|340:268|367:266,1,62.9999980773926,10|0,0:1|0:0,0:0:0:0:
486,176,63902,6,0,P|443:158|428:136,1,62.9999980773926,10|0,0:1|0:0,0:0:0:0:
352,0,64060,6,0,L|338:70,1,62.9999980773926,8|0,0:0|0:0,0:0:0:0:
217,184,64218,6,0,B|179:170|168:133|168:133|96:117|57:169,1,188.999994232178,14|0,0:1|0:0,0:0:0:0:
54,204,64534,1,10,0:1:0:0:
265,108,64692,1,8,0:0:0:0:
165,346,64850,6,0,P|211:280|317:279,1,188.999994232178,14|0,0:1|0:0,0:0:0:0:
381,335,65165,2,0,L|392:273,1,62.9999980773926,8|8,0:0|0:0,0:0:0:0:
353,99,65323,5,8,0:0:0:0:
315,49,65401,1,8,0:0:0:0:
256,29,65480,1,8,0:0:0:0:
196,45,65559,1,8,0:0:0:0:
161,88,65639,5,8,2:3:0:0:
189,115,65717,1,8,2:3:0:0:
203,151,65796,1,8,2:3:0:0:
202,190,65875,1,8,2:3:0:0:
184,225,65954,1,4,2:3:0:0:
154,250,66033,1,4,2:3:0:0:
117,261,66112,1,4,2:3:0:0:
78,255,66191,1,4,2:3:0:0:
45,234,66271,6,0,P|111:232|161:329,1,180,14|10,0:1|0:0,0:0:0:0:
352,207,66745,1,2,0:1:0:0:
208,96,66903,2,0,P|223:153|239:198,1,90,10|2,0:1|0:3,0:0:0:0:
347,0,67218,1,10,0:0:0:0:
496,134,67377,6,0,P|448:109|404:113,1,90,2|8,0:3|0:1,0:0:0:0:
270,300,67692,1,2,0:3:0:0:
206,79,67851,1,10,0:0:0:0:
344,232,68008,2,0,P|406:217|441:210,1,90,2|8,0:3|0:1,0:0:0:0:
202,183,68323,1,2,0:3:0:0:
395,68,68481,1,10,0:0:0:0:
270,300,68639,5,2,0:3:0:0:
270,300,68718,1,2,0:0:0:0:
270,300,68797,2,0,P|208:233|103:263,1,180,10|8,0:1|0:0,0:0:0:0:
0,204,69271,2,0,B|14:266|22:316,1,90,0|8,0:0|0:1,0:0:0:0:
204,96,69587,1,10,0:1:0:0:
25,30,69744,1,10,0:0:0:0:
126,242,69902,6,0,B|253:209|253:209|293:243,1,175.499991966248,14|0,0:1|0:0,0:0:0:0:
311,263,70218,1,8,0:1:0:0:
182,21,70376,1,10,0:0:0:0:
512,61,70534,6,0,P|422:34|344:147,1,233.999989288331,14|4,0:1|0:3,0:0:0:0:
355,162,70929,1,4,0:3:0:0:
355,162,71008,1,10,0:0:0:0:
173,7,71165,1,8,0:1:0:0:
61,200,71323,5,10,0:0:0:0:
260,72,71481,1,8,0:1:0:0:
63,36,71639,1,10,0:0:0:0:
223,192,71797,1,8,0:1:0:0:
11,284,71955,5,10,0:0:0:0:
148,100,72113,1,8,0:1:0:0:
224,344,72271,1,10,0:0:0:0:
88,188,72429,1,8,0:1:0:0:
88,188,72508,1,8,0:1:0:0:
88,188,72587,5,8,0:0:0:0:
312,126,72744,1,10,0:1:0:0:
144,298,72902,1,8,0:0:0:0:
366,231,73060,5,10,0:1:0:0:
366,231,73139,1,8,0:1:0:0:
366,231,73218,1,8,0:0:0:0:
152,87,73376,1,10,0:1:0:0:
416,17,73534,1,8,0:0:0:0:
211,245,73692,5,8,0:1:0:0:
211,245,73771,1,8,0:1:0:0:
211,245,73850,1,8,0:0:0:0:
318,0,74008,1,8,0:1:0:0:
446,193,74165,1,10,0:0:0:0:
184,103,74323,1,8,0:1:0:0:
273,353,74481,5,10,0:0:0:0:
284,99,74639,1,8,0:1:0:0:
441,311,74797,1,10,0:0:0:0:
198,236,74955,6,0,P|128:238|78:298,1,148.50000453186,14|0,0:1|0:0,0:0:0:0:
94,332,75271,2,0,L|163:320,1,49.5000015106202,8|8,0:0|0:0,0:0:0:0:
312,168,75429,1,8,0:0:0:0:
352,141,75507,1,8,0:3:0:0:
401,141,75586,1,4,0:3:0:0:
442,168,75665,1,8,0:1:0:0:
461,212,75744,6,0,L|527:197,1,62.9999980773926,10|0,0:0|0:0,0:0:0:0:
170,123,75902,6,0,L|95:108,1,62.9999980773926,10|0,0:0|0:0,0:0:0:0:
71,99,76376,6,0,P|99:47|227:63,1,180,14|10,0:1|0:0,0:0:0:0:
404,0,76850,1,0,0:3:0:0:
309,180,77008,2,0,P|316:131|330:83,1,90,10|0,0:1|0:0,0:0:0:0:
475,239,77323,1,10,0:0:0:0:
317,344,77481,6,0,P|263:328|211:318,1,90,2|8,0:3|0:1,0:0:0:0:
36,229,77797,2,0,P|84:218|131:204,1,90,2|8,0:3|0:0,0:0:0:0:
327,92,78113,2,0,P|285:135|282:180,1,90,2|8,0:3|0:1,0:0:0:0:
487,329,78429,2,0,P|474:263|467:219,1,90,2|8,0:3|0:0,0:0:0:0:
317,344,78744,5,2,0:3:0:0:
389,151,78902,2,0,P|341:83|219:104,1,180,10|8,0:1|0:0,0:0:0:0:
117,242,79376,1,2,0:3:0:0:
117,242,79455,1,2,0:0:0:0:
117,242,79534,2,0,P|178:227|224:218,1,90,8|0,0:1|0:3,0:0:0:0:
103,28,79850,2,0,P|123:87|137:134,1,90,10|0,0:0|0:3,0:0:0:0:
180,325,80165,5,10,0:1:0:0:
345,155,80323,2,0,P|286:142|243:129,1,90,2|8,0:3|0:0,0:0:0:0:
383,288,80639,2,0,P|444:278|485:155,1,180,2|2,0:3|0:3,0:0:0:0:
380,38,81113,2,0,L|439:27,1,45,10|2,0:0|0:0,0:0:0:0:
341,179,81271,2,0,L|282:168,1,45,2|2,0:0|0:0,0:0:0:0:
142,18,81429,6,0,P|174:126|197:232,1,180,14|10,0:1|0:0,0:0:0:0:
26,77,81902,1,0,0:3:0:0:
0,233,82060,2,0,P|75:201|105:193,1,90,10|0,0:1|0:3,0:0:0:0:
266,291,82376,1,10,0:0:0:0:
102,381,82534,6,0,P|118:301|133:268,1,90,2|8,0:3|0:1,0:0:0:0:
360,177,82850,2,0,P|375:223|382:272,1,90,2|8,0:3|0:0,0:0:0:0:
202,102,83165,2,0,P|151:70|102:77,1,90,2|8,0:3|0:1,0:0:0:0:
259,273,83481,1,10,0:1:0:0:
259,273,83560,1,8,0:1:0:0:
259,273,83639,1,8,0:0:0:0:
362,60,83797,1,8,0:1:0:0:
168,196,83955,5,14,0:0:0:0:
420,308,84113,1,8,0:1:0:0:
420,308,84192,1,8,0:1:0:0:
420,308,84271,1,8,0:0:0:0:
362,60,84429,2,0,P|343:113|331:160,1,90,10|8,0:0|0:1,0:0:0:0:
339,191,84665,1,8,0:1:0:0:
339,191,84744,1,10,0:0:0:0:
200,372,84902,5,8,0:1:0:0:
200,372,84981,1,8,0:1:0:0:
200,372,85060,2,0,P|182:310|158:265,1,90,10|4,0:0|0:3,0:0:0:0:
149,259,85297,1,4,0:3:0:0:
149,259,85376,1,6,0:3:0:0:
6,87,85534,1,14,0:0:0:0:
328,301,86323,6,0,P|413:299|452:219,1,161.999995056153,14|8,0:1|0:1,0:0:0:0:
341,118,86797,2,0,P|357:177|366:212,1,80.9999975280763,10|0,0:0|0:0,0:0:0:0:
424,38,87113,1,10,0:1:0:0:
234,140,87271,2,0,P|245:89|253:57,1,80.9999975280763,8|10,0:1|0:0,0:0:0:0:
257,253,87587,6,0,P|184:269|88:302,1,161.999995056153,10|8,0:1|0:1,0:0:0:0:
12,156,88060,2,0,P|68:181|95:191,1,80.9999975280763,10|8,0:0|0:1,0:0:0:0:
251,61,88376,1,10,0:1:0:0:
97,90,88534,1,0,0:2:0:0:
97,90,88613,1,8,0:2:0:0:
97,90,88692,1,8,0:0:0:0:
195,238,88850,6,0,P|232:186|334:188,1,161.999995056153,10|8,0:1|0:1,0:0:0:0:
455,151,89323,2,0,P|437:204|429:245,1,80.9999975280763,8|2,0:0|0:0,0:0:0:0:
352,77,89639,1,8,0:1:0:0:
352,77,89797,2,0,P|342:37|328:0,1,80.9999975280763,10|8,0:1|0:0,0:0:0:0:
232,153,90113,6,0,P|184:142|156:110,1,80.9999975280763,10|0,0:1|3:0,0:0:0:0:
28,300,90429,1,10,3:1:0:0:
28,300,90508,1,8,0:1:0:0:
28,300,90587,2,0,P|74:262|145:278,1,121.499996292114,10|0,0:0|0:0,0:0:0:0:
158,297,90902,1,10,0:1:0:0:
32,169,91060,1,8,0:1:0:0:
92,367,91218,1,8,0:0:0:0:
240,229,91376,6,0,P|368:202|418:194,1,161.999995056153,14|8,0:1|0:1,0:0:0:0:
457,339,91850,2,0,P|401:327|359:321,1,80.9999975280763,10|2,0:0|0:0,0:0:0:0:
512,212,92165,1,10,0:1:0:0:
381,117,92323,2,0,P|392:172|401:208,1,80.9999975280763,8|10,0:1|0:0,0:0:0:0:
426,21,92639,6,0,P|373:78|288:58,1,161.999995056153,10|8,0:1|0:1,0:0:0:0:
161,114,93113,2,0,P|181:42|189:7,1,80.9999975280763,10|0,0:0|0:0,0:0:0:0:
265,202,93429,1,2,0:0:0:0:
49,219,93587,1,8,0:0:0:0:
49,219,93665,1,8,0:0:0:0:
49,219,93744,1,8,0:0:0:0:
153,352,93902,6,0,P|200:296|290:326,1,161.999995056153,10|8,0:1|0:1,0:0:0:0:
415,205,94376,2,0,P|368:216|335:229,1,80.9999975280763,10|0,0:0|0:0,0:0:0:0:
492,110,94692,1,8,0:1:0:0:
332,93,94850,1,10,0:1:0:0:
501,253,95008,1,10,0:0:0:0:
412,36,95165,6,0,P|353:-2|263:31,1,135,10|0,0:1|0:0,0:0:0:0:
196,9,95481,6,0,L|214:90,1,62.9999980773926,10|0,0:0|0:0,0:0:0:0:
342,228,95639,6,0,L|265:211,1,62.9999980773926,10|0,0:0|0:0,0:0:0:0:
67,203,95797,6,0,L|137:179,1,62.9999980773926,10|0,0:0|0:0,0:0:0:0:
211,157,96113,5,8,0:1:0:0:
211,157,96192,1,8,0:1:0:0:
211,157,96271,2,0,P|198:237|193:272,1,80.9999975280763,8|0,0:0|0:0,0:0:0:0:
12,370,96587,6,0,P|46:319|142:324,1,161.999995056153,14|8,0:1|0:0,0:0:0:0:
26,221,97060,2,0,P|9:168|4:133,1,80.9999975280763,2|8,0:0|0:1,0:0:0:0:
155,37,97376,2,0,P|147:76|133:114,1,80.9999975280763,2|8,0:0|0:0,0:0:0:0:
49,22,97692,1,2,0:3:0:0:
131,214,97850,6,0,P|266:190|318:184,1,161.999995056153,10|8,0:1|0:0,0:0:0:0:
295,356,98323,2,0,P|269:289|258:268,1,80.9999975280763,2|8,0:0|0:1,0:0:0:0:
410,184,98639,2,0,B|393:220|379:259,1,80.9999975280763,2|10,0:3|0:0,0:0:0:0:
292,108,98955,1,0,0:3:0:0:
407,39,99113,6,0,B|445:30|492:28,1,80.9999975280763,10|2,0:1|0:0,0:0:0:0:
512,54,99351,1,2,0:0:0:0:
512,54,99430,1,8,0:0:0:0:
292,108,99587,2,0,P|248:66|160:88,1,121.499996292114,2|0,0:0|0:0,0:0:0:0:
166,92,99902,1,2,0:3:0:0:
33,28,100060,2,0,P|49:64|61:103,1,80.9999975280763,8|0,0:0|0:0,0:0:0:0:
20,311,100376,5,10,0:1:0:0:
184,219,100534,1,2,0:0:0:0:
0,178,100692,1,10,0:0:0:0:
141,333,100850,2,0,P|211:315|253:307,1,80.9999975280763,2|10,0:0|0:1,0:0:0:0:
383,215,101165,1,0,0:3:0:0:
316,376,101323,2,0,P|314:313|328:289,1,80.9999975280763,8|0,0:0|0:0,0:0:0:0:
487,203,101639,6,0,P|443:190|308:153,1,161.999995056153,14|8,0:1|0:0,0:0:0:0:
158,246,102113,1,0,0:0:0:0:
210,83,102271,2,0,P|227:140|235:180,1,80.9999975280763,10|10,0:1|0:1,0:0:0:0:
69,79,102587,1,10,0:0:0:0:
298,0,102744,6,0,P|363:0|414:81,1,148.50000453186,14|0,0:1|0:0,0:0:0:0:
398,97,103060,1,10,0:1:0:0:
158,212,103218,1,8,0:0:0:0:
362,329,103376,6,0,B|335:273|259:272|259:272|230:308|182:320,1,198.000006042481,14|8,0:1|0:1,0:0:0:0:
164,315,103771,1,8,0:1:0:0:
164,315,103850,1,8,0:0:0:0:
321,152,104008,1,10,0:1:0:0:
469,384,104165,6,0,L|453:332,1,49.5000015106202,10|0,0:1|0:0,0:0:0:0:
418,201,104323,5,8,0:0:0:0:
406,202,104402,1,8,0:0:0:0:
397,207,104481,2,0,P|369:235|358:270,1,62.9999980773926,8|8,0:0|0:0,0:0:0:0:
429,76,104639,6,0,L|505:92,1,62.9999980773926,10|0,0:1|0:0,0:0:0:0:
110,193,104955,6,0,L|34:209,1,62.9999980773926,10|0,0:3|0:0,0:0:0:0:
9,217,105271,5,8,0:2:0:0:
81,14,105429,1,8,0:2:0:0:
126,2,105507,1,8,0:2:0:0:
170,16,105586,1,8,0:2:0:0:
200,51,105665,1,8,0:2:0:0:
206,98,105744,2,0,L|135:87,1,62.9999980773926,8|8,0:0|0:0,0:0:0:0:
297,264,105902,6,0,L|368:253,1,62.9999980773926,14|0,0:1|0:0,0:0:0:0:
401,246,106217,5,8,0:1:0:0:
219,196,106376,1,12,0:3:0:0:
331,363,106534,1,4,0:3:0:0:
371,147,106692,6,0,P|430:99|502:122,1,121.499996292114,14|0,0:1|0:0,0:0:0:0:
500,130,107008,1,10,0:0:0:0:
401,246,107165,1,6,0:3:0:0:
286,91,107323,2,0,P|231:80|187:76,1,80.9999975280763,10|8,0:3|0:3,0:0:0:0:
57,182,107639,5,10,0:0:0:0:
57,182,107718,1,2,0:0:0:0:
57,182,107797,2,0,P|111:176|145:167,1,80.9999975280763,6|4,0:3|0:3,0:0:0:0:
73,47,108113,1,10,0:1:0:0:
240,190,108271,2,0,P|227:243|219:299,1,80.9999975280763,10|8,0:0|0:3,0:0:0:0:
122,370,108587,2,0,P|114:330|104:290,1,80.9999975280763,4|4,0:3|0:3,0:0:0:0:
262,357,108902,1,10,0:0:0:0:
26,214,109060,5,8,0:1:0:0:
26,214,109139,1,8,0:1:0:0:
26,214,109218,1,14,0:0:0:0:
264,153,109376,1,8,0:1:0:0:
122,370,109534,1,10,0:0:0:0:
358,259,109692,6,0,P|410:267|448:277,1,80.9999975280763,8|10,0:1|0:0,0:0:0:0:
234,127,110008,1,8,0:1:0:0:
445,37,110165,1,8,0:0:0:0:
259,234,110323,6,0,P|200:240|156:188,1,121.499996292114,14|0,0:1|0:0,0:0:0:0:
118,117,110639,2,0,L|161:105,1,40.4999987640381,8|8,0:1|0:1,0:0:0:0:
406,16,110797,6,0,P|356:27|318:114,1,135,10|0,0:0|0:0,0:0:0:0:
374,177,111113,5,8,0:0:0:0:
404,145,111218,2,0,P|441:130|474:128,1,60,8|8,0:0|0:1,0:0:0:0:
325,315,111429,5,8,0:3:0:0:
295,283,111534,2,0,P|258:268|225:266,1,60,8|8,0:3|0:3,0:0:0:0:
120,330,111744,6,0,B|65:388|1:365|1:365|-2:298|49:283,1,215.999993408203,14|0,0:1|0:0,0:0:0:0:
45,25,112850,6,0,P|63:100|83:215,1,180,14|0,0:1|0:3,0:0:0:0:
185,24,113323,1,10,0:0:0:0:
262,156,113481,1,2,0:1:0:0:
262,156,113560,1,2,0:1:0:0:
262,156,113639,2,0,P|195:142|150:135,1,90,10|2,0:1|0:3,0:0:0:0:
361,49,113955,1,10,0:0:0:0:
242,285,114113,6,0,P|317:269|352:265,1,90,2|8,0:3|0:1,0:0:0:0:
512,314,114429,1,2,0:3:0:0:
331,148,114587,1,10,0:0:0:0:
391,346,114744,2,0,P|422:291|416:257,1,90,2|8,0:3|0:1,0:0:0:0:
253,84,115060,1,2,0:3:0:0:
469,140,115218,1,10,0:0:0:0:
262,265,115376,5,2,0:3:0:0:
262,265,115455,1,2,0:0:0:0:
262,265,115534,2,0,P|154:238|53:223,1,180,10|8,0:1|0:0,0:0:0:0:
209,60,116008,2,0,P|215:128|222:173,1,90,0|8,0:0|0:1,0:0:0:0:
92,15,116323,1,2,0:3:0:0:
333,75,116481,1,10,0:0:0:0:
164,240,116639,6,0,P|233:191|290:204,1,135,2|0,0:3|0:0,0:0:0:0:
307,224,116955,1,2,0:3:0:0:
449,360,117113,1,10,0:0:0:0:
463,142,117271,2,0,P|434:203|421:243,1,90,2|8,0:3|0:1,0:0:0:0:
284,383,117587,2,0,P|267:340|247:300,1,90,2|8,0:3|0:0,0:0:0:0:
32,205,117902,5,2,0:3:0:0:
32,205,117981,1,2,0:0:0:0:
32,205,118060,2,0,P|98:197|130:112,1,135,10|0,0:1|0:0,0:0:0:0:
115,101,118376,1,8,0:0:0:0:
312,217,118534,1,2,0:3:0:0:
279,13,118692,2,0,P|260:67|248:112,1,90,10|0,0:1|0:0,0:0:0:0:
402,281,119008,1,8,0:0:0:0:
498,73,119165,6,0,P|441:53|356:138,1,180,2|2,3:1|3:1,0:0:0:0:
175,22,119639,1,10,0:0:0:0:
301,243,119797,2,0,P|380:226|417:223,1,90,2|8,0:3|0:1,0:0:0:0:
144,377,120113,2,0,P|99:370|55:358,1,90,2|8,0:3|0:0,0:0:0:0:
8,160,120429,5,2,0:3:0:0:
8,160,120508,1,2,0:0:0:0:
8,160,120587,2,0,P|57:152|79:127,1,62.9999980773926,10|0,0:1|0:0,0:0:0:0:
199,264,120744,6,0,P|154:240|109:239,1,62.9999980773926,10|0,0:1|0:0,0:0:0:0:
182,50,120902,6,0,L|169:122,1,62.9999980773926,8|0,0:0|0:0,0:0:0:0:
305,281,121060,6,0,B|412:241|412:241|441:278|497:275,1,188.999994232178,6|0,0:0|0:0,0:0:0:0:
509,251,121376,1,10,0:1:0:0:
281,118,121534,1,8,0:0:0:0:
512,7,121692,6,0,P|495:90|381:98,1,188.999994232178,6|0,0:0|0:0,0:0:0:0:
342,43,122008,2,0,L|406:25,1,62.9999980773926,8|8,0:0|0:0,0:0:0:0:
323,238,122165,5,8,0:0:0:0:
284,286,122243,1,8,0:0:0:0:
224,302,122322,1,8,0:0:0:0:
167,280,122401,1,8,0:0:0:0:
144,223,122481,5,12,0:3:0:0:
166,201,122559,1,8,0:3:0:0:
181,173,122638,1,8,0:3:0:0:
187,142,122717,1,8,0:3:0:0:
184,111,122796,1,4,0:3:0:0:
171,82,122875,1,4,0:3:0:0:
151,59,122954,1,4,0:3:0:0:
124,42,123033,1,4,0:3:0:0:
94,35,123113,6,0,P|167:74|241:6,1,180,14|10,0:1|0:0,0:0:0:0:
79,162,123587,1,2,0:3:0:0:
241,240,123744,2,0,P|218:179|207:139,1,90,10|2,0:1|0:3,0:0:0:0:
172,349,124060,1,10,0:0:0:0:
352,190,124218,6,0,P|410:196|443:232,1,90,2|8,0:3|0:1,0:0:0:0:
278,341,124534,1,2,0:3:0:0:
304,101,124692,1,10,0:0:0:0:
489,306,124850,2,0,P|437:318|385:329,1,90,2|8,0:3|0:1,0:0:0:0:
168,206,125165,1,2,0:3:0:0:
386,145,125323,1,10,0:0:0:0:
246,328,125481,5,2,0:3:0:0:
246,328,125560,1,2,0:0:0:0:
246,328,125639,2,0,P|149:305|51:289,1,180,10|8,0:1|0:0,0:0:0:0:
167,104,126113,2,0,P|179:172|187:207,1,90,0|8,0:0|0:1,0:0:0:0:
271,17,126429,1,10,0:1:0:0:
39,143,126587,1,10,0:0:0:0:
290,247,126744,6,0,P|331:192|441:196,1,175.499991966248,14|0,0:1|0:0,0:0:0:0:
456,220,127060,1,8,0:1:0:0:
247,39,127218,1,10,0:0:0:0:
512,43,127376,6,0,B|377:3|377:3|321:27|334:78,1,233.999989288331,6|4,0:0|0:3,0:0:0:0:
359,104,127771,1,4,0:3:0:0:
359,104,127850,1,10,0:0:0:0:
490,246,128008,1,8,0:1:0:0:
256,296,128165,5,14,0:0:0:0:
438,165,128323,1,8,0:1:0:0:
211,117,128481,1,10,0:0:0:0:
385,253,128639,1,8,0:1:0:0:
138,338,128797,5,10,0:0:0:0:
316,149,128955,1,8,0:1:0:0:
371,368,129113,1,10,0:0:0:0:
188,223,129271,1,8,0:1:0:0:
188,223,129350,1,8,0:1:0:0:
188,223,129429,5,8,0:0:0:0:
439,143,129587,1,10,0:1:0:0:
244,36,129744,1,8,0:0:0:0:
345,262,129902,5,10,0:1:0:0:
345,262,129981,1,8,0:1:0:0:
345,262,130060,1,8,0:0:0:0:
128,123,130218,1,10,0:1:0:0:
356,56,130376,1,8,0:0:0:0:
179,256,130534,5,8,0:1:0:0:
179,256,130613,1,8,0:1:0:0:
179,256,130692,1,8,0:0:0:0:
54,49,130850,1,8,0:1:0:0:
260,137,131008,1,10,0:0:0:0:
20,246,131165,1,8,0:1:0:0:
233,341,131323,5,10,0:0:0:0:
160,74,131481,1,8,0:1:0:0:
35,256,131639,1,10,0:0:0:0:
276,129,131797,6,0,P|337:113|400:182,1,148.50000453186,14|0,0:1|0:0,0:0:0:0:
382,207,132113,2,0,L|313:198,1,49.5000015106202,10|10,0:0|0:0,0:0:0:0:
172,100,132271,1,10,0:0:0:0:
130,74,132349,1,8,0:0:0:0:
81,79,132428,1,10,0:1:0:0:
45,111,132507,1,10,0:1:0:0:
36,160,132587,1,10,0:0:0:0:
52,205,132665,1,8,0:0:0:0:
96,226,132744,1,12,0:3:0:0:
142,210,132823,1,8,0:3:0:0:
187,191,132902,6,0,L|261:215,1,58.4999973220826,8|8,0:0|0:0,0:0:0:0:
314,321,133060,2,0,L|380:302,1,58.4999973220826,8|8,0:0|0:0,0:0:0:0:
479,125,133218,6,0,P|414:122|362:217,1,180,14|8,0:1|0:0,0:0:0:0:
170,106,133692,1,8,0:1:0:0:
305,5,133850,2,0,P|298:59|279:106,1,90,10|0,0:1|0:0,0:0:0:0:
64,192,134165,2,0,P|49:149|44:104,1,90,10|0,0:0|0:0,0:0:0:0:
172,232,134481,5,10,0:1:0:0:
206,203,134559,1,2,0:0:0:0:
248,189,134638,1,2,0:0:0:0:
293,193,134717,1,2,0:0:0:0:
333,212,134796,1,10,0:0:0:0:
363,245,134875,1,2,0:0:0:0:
378,288,134954,1,2,0:0:0:0:
376,332,135033,1,2,0:0:0:0:
337,370,135113,5,10,0:1:0:0:
293,337,135192,1,2,0:0:0:0:
287,283,135271,1,2,0:1:0:0:
315,236,135350,1,2,0:0:0:0:
363,211,135429,2,0,L|439:227,1,58.4999973220826,10|2,0:0|0:0,0:0:0:0:
287,45,135587,2,0,L|271:121,1,58.4999973220826,10|0,0:1|0:0,0:0:0:0:
209,342,135744,5,12,0:0:0:0:
396,119,135902,1,8,0:1:0:0:
396,119,135981,1,8,0:1:0:0:
396,119,136060,1,10,0:3:0:0:
106,194,136218,2,0,P|45:154|36:121,1,99.0000030212403,10|4,0:3|0:3,0:0:0:0:
326,14,136534,6,0,P|306:89|300:128,1,99.0000030212403,10|8,0:0|0:1,0:0:0:0:
209,342,136850,2,0,P|199:293|185:245,1,99.0000030212403,14|0,0:0|0:0,0:0:0:0:
406,349,137165,5,8,0:1:0:0:
406,349,137244,1,8,0:1:0:0:
406,349,137323,1,8,0:0:0:0:
128,118,137481,1,10,0:1:0:0:
128,118,137560,1,8,0:1:0:0:
128,118,137639,1,4,0:3:0:0:
451,10,137797,5,10,0:0:0:0:
475,52,137875,1,8,0:0:0:0:
475,101,137954,1,8,0:0:0:0:
453,145,138033,1,8,0:0:0:0:
413,172,138112,1,8,0:0:0:0:
364,178,138191,1,8,0:0:0:0:
319,159,138271,6,0,P|344:108|363:95,1,66.0000020141602,14|0,0:1|0:0,0:0:0:0:
192,95,138481,2,0,P|221:75|266:75,1,66.0000020141602,2|8,0:0|0:0,0:0:0:0:
78,6,138692,2,0,P|123:7|152:25,1,66.0000020141602,2|0,0:0|0:0,0:0:0:0:
216,175,138902,6,0,P|207:207|189:235,1,66.0000020141602,10|0,0:1|0:0,0:0:0:0:
105,173,139113,2,0,P|77:188|44:189,1,66.0000020141602,2|8,0:0|0:0,0:0:0:0:
32,83,139323,2,0,P|8:62|0:31,1,66.0000020141602,2|0,0:0|0:0,0:0:0:0:
158,323,139534,6,0,P|229:324|279:281,1,99.0000030212403,10|8,0:1|0:1,0:0:0:0:
276,282,139771,1,8,0:1:0:0:
276,282,139850,2,0,P|359:305|387:313,1,99.0000030212403,8|0,0:0|0:0,0:0:0:0:
501,100,140165,1,10,0:1:0:0:
454,85,140243,1,2,0:0:0:0:
406,97,140322,1,2,0:0:0:0:
371,131,140401,1,2,0:0:0:0:
358,178,140481,2,0,L|426:197,1,49.5000015106202,10|0,0:0|0:0,0:0:0:0:
280,32,140639,2,0,L|212:50,1,49.5000015106202,2|2,0:0|0:0,0:0:0:0:
51,96,140797,5,10,0:1:0:0:
272,207,140955,1,10,0:0:0:0:
22,317,141113,1,8,0:0:0:0:
22,317,141192,1,0,0:0:0:0:
22,317,141271,2,0,P|56:275|149:286,1,148.50000453186,14|0,0:1|0:0,0:0:0:0:
205,240,141587,2,0,P|184:300|172:349,1,99.0000030212403,10|8,0:1|0:0,0:0:0:0:
391,157,141902,6,0,P|319:162|271:52,1,198.000006042481,14|10,0:1|0:1,0:0:0:0:
297,32,142297,1,8,0:1:0:0:
297,32,142376,2,0,L|364:23,1,49.5000015106202,10|8,0:0|0:0,0:0:0:0:
505,106,142534,2,0,L|438:97,1,49.5000015106202,8|8,0:0|0:0,0:0:0:0:
303,184,142692,5,10,0:3:0:0:
288,211,142770,1,8,0:3:0:0:
283,241,142849,1,8,0:3:0:0:
286,272,142928,1,8,0:3:0:0:
299,300,143007,1,6,0:3:0:0:
320,323,143086,1,4,0:3:0:0:
346,338,143165,1,8,0:1:0:0:
376,345,143244,1,8,0:1:0:0:
407,343,143323,6,2,B|378:289|308:286|308:286|270:332|226:337,1,198.000006042481,14|8,0:1|0:0,0:1:0:0:
76,173,143797,1,2,0:3:0:0:
76,173,143876,1,2,0:0:0:0:
76,173,143955,2,2,P|136:153|204:219,1,148.50000453186,10|0,0:1|0:0,0:1:0:0:
206,240,144271,1,10,0:0:0:0:
337,55,144429,6,2,P|321:103|310:153,1,99.0000030212403,2|8,0:3|0:1,0:1:0:0:
135,374,144744,2,0,P|124:325|108:278,1,99.0000030212403,2|8,0:3|0:0,0:0:0:0:
15,119,145060,1,2,0:3:0:0:
216,266,145218,2,2,B|292:242|345:233|345:233|403:286,1,198.000006042481,10|8,0:1|0:0,0:1:0:0:
495,86,145692,5,2,0:3:0:0:
495,86,145771,1,2,0:0:0:0:
495,86,145850,2,2,P|444:116|428:159,1,99.0000030212403,10|0,0:1|0:0,0:1:0:0:
484,342,146165,1,10,0:0:0:0:
251,252,146323,2,0,P|321:236|358:229,1,99.0000030212403,2|10,0:3|0:1,0:0:0:0:
109,377,146639,2,0,P|60:367|12:355,1,99.0000030212403,2|8,0:3|0:0,0:0:0:0:
24,141,146955,6,0,P|68:183|66:241,1,99.0000030212403,2|8,0:3|0:1,0:1:0:0:
261,58,147271,1,2,0:3:0:0:
47,9,147429,1,10,0:0:0:0:
223,167,147587,2,2,P|309:162|349:49,1,198.000006042481,2|8,0:3|0:1,0:1:0:0:
133,86,148060,1,10,0:0:0:0:
265,324,148218,5,10,0:1:0:0:
265,324,148297,1,10,0:1:0:0:
265,324,148376,1,14,0:0:0:0:
434,90,148534,1,8,0:1:0:0:
205,161,148692,1,10,0:0:0:0:
419,282,148850,1,10,0:1:0:0:
216,67,149008,5,8,0:0:0:0:
442,184,149165,1,10,0:1:0:0:
442,184,149244,1,8,0:1:0:0:
442,184,149323,1,8,0:0:0:0:
185,287,149481,1,10,0:1:0:0:
309,68,149639,5,8,0:0:0:0:
104,194,149797,1,10,0:1:0:0:
104,194,149876,1,8,0:1:0:0:
104,194,149955,1,8,0:0:0:0:
312,287,150113,1,10,0:1:0:0:
312,287,150192,1,8,0:1:0:0:
312,287,150271,5,8,0:0:0:0:
155,71,150429,1,10,0:1:0:0:
393,151,150587,1,10,0:0:0:0:
197,231,150744,1,10,0:1:0:0:
315,19,150902,5,14,0:0:0:0:
488,93,151060,2,0,P|397:107|369:191,1,161.999995056153,10|8,0:1|0:1,0:0:0:0:
378,293,151534,5,10,0:0:0:0:
415,284,151639,2,0,P|443:249|445:218,1,77.9999964294435,10|10,0:0|0:1,0:0:0:0:
262,254,151850,5,10,0:0:0:0:
250,294,151955,2,0,P|267:350|284:364,1,71.9999978027344,10|10,0:0|0:1,0:0:0:0:
333,149,152165,5,6,0:3:0:0:
302,123,152271,2,0,P|266:112|229:115,1,66.0000020141602,10|10,0:3|0:3,0:0:0:0:
141,207,152481,5,10,0:3:0:0:
102,230,152587,1,6,0:3:0:0:
54,227,152692,1,10,0:1:0:0:
21,194,152797,6,0,P|77:197|106:331,1,215.999993408203,14|0,0:1|0:0,0:0:0:0:
170,74,158323,5,0,0:0:0:0:
170,74,158481,2,0,P|122:73|67:167,1,161.999995056153,2|0,0:0|0:0,0:0:0:0:
33,265,159113,2,0,P|74:250|150:237,1,107.999996704102,2|0,0:0|0:0,0:0:0:0:
221,189,159587,6,0,P|264:202|289:272,1,107.999996704102,2|0,0:0|0:0,0:0:0:0:
480,94,160218,2,0,P|459:125|436:192,1,107.999996704102,2|0,0:0|0:0,0:0:0:0:
295,0,160850,1,2,0:0:0:0:
216,180,161008,6,0,L|264:187,1,49.5000015106202,14|8,0:1|0:1,0:0:0:0:
399,67,161165,5,8,0:0:0:0:
390,61,161244,1,8,0:0:0:0:
379,58,161323,2,0,P|353:70|327:111,1,62.9999980773926,8|8,0:0|0:0,0:0:0:0:
450,222,161481,6,0,L|525:211,1,62.9999980773926,10|0,0:1|0:0,0:0:0:0:
167,331,161797,6,0,L|92:320,1,62.9999980773926,10|0,0:1|0:0,0:0:0:0:
67,313,162113,5,10,0:0:0:0:
72,263,162191,1,8,0:0:0:0:
102,223,162270,1,8,0:0:0:0:
148,203,162349,1,8,0:0:0:0:
197,209,162428,1,8,0:3:0:0:
237,239,162507,1,4,0:3:0:0:
259,278,162587,2,0,L|247:349,1,62.9999980773926,10|8,0:0|0:0,0:0:0:0:
122,122,162744,6,0,L|111:59,1,62.9999980773926,14|0,0:1|0:0,0:0:0:0:
105,12,163060,5,8,0:1:0:0:
259,135,163218,1,8,0:3:0:0:
279,92,163296,1,8,0:3:0:0:
316,64,163375,1,4,0:3:0:0:
362,56,163454,1,4,0:3:0:0:
407,71,163534,6,0,P|390:142|386:175,1,80.9999975280763,14|8,0:1|0:1,0:0:0:0:
500,300,163850,2,0,P|492:260|481:221,1,80.9999975280763,10|4,0:0|0:3,0:0:0:0:
366,372,164165,2,0,P|416:378|461:389,1,80.9999975280763,6|8,0:3|0:1,0:0:0:0:
343,248,164481,1,10,0:0:0:0:
343,248,164560,1,0,0:0:0:0:
343,248,164639,1,6,0:3:0:0:
234,342,164797,6,0,P|178:362|146:369,1,80.9999975280763,4|10,0:3|0:1,0:0:0:0:
9,240,165113,2,0,P|48:250|85:264,1,80.9999975280763,10|4,0:0|0:3,0:0:0:0:
201,109,165429,1,4,0:3:0:0:
74,155,165587,1,8,0:1:0:0:
296,180,165744,1,10,0:0:0:0:
133,14,165902,5,8,0:1:0:0:
133,14,165981,1,8,0:1:0:0:
133,14,166060,1,14,0:0:0:0:
210,254,166218,1,8,0:1:0:0:
334,29,166376,1,10,0:0:0:0:
158,136,166534,6,0,P|82:120|51:116,1,80.9999975280763,8|10,0:1|0:0,0:0:0:0:
326,276,166850,1,8,0:1:0:0:
241,43,167008,1,8,0:0:0:0:
133,269,167165,2,0,P|179:243|218:243,1,80.9999975280763,14|0,0:1|0:0,0:0:0:0:
423,245,167481,5,8,0:1:0:0:
423,245,167560,1,8,0:1:0:0:
423,245,167639,2,0,B|412:302|410:336,1,80.9999975280763,10|0,0:0|0:0,0:0:0:0:
238,209,167955,6,0,P|273:199|302:171,1,72,8|0,0:0|0:0,0:0:0:0:
512,105,168113,6,0,P|474:93|442:56,1,72,8|0,0:0|0:0,0:0:0:0:
326,0,168271,5,10,0:0:0:0:
326,0,168350,1,10,0:1:0:0:
326,0,168429,2,0,L|349:77,1,72,10|10,0:0|0:1,0:0:0:0:
200,71,168587,6,0,P|149:57|120:52,1,67.5000025749208,14|0,0:1|0:0,0:0:0:0:
141,300,168902,2,0,P|161:252|173:231,1,67.5000025749208,2|0,0:0|0:0,0:0:0:0:
0,125,169218,2,0,P|15:154|27:186,1,67.5000025749208,2|0,0:0|0:0,0:0:0:0:
132,158,169534,5,2,0:0:0:0:
132,158,169613,1,2,0:0:0:0:
132,158,169692,1,2,0:0:0:0:
132,158,169771,1,2,0:0:0:0:
132,158,169850,2,0,B|165:68|256:83|256:83|287:131|251:191|251:191|236:158|198:150,1,323.999990112305
178,249,170955,6,0,P|297:278|346:211,1,202.500007724762,14|0,0:1|0:0,0:0:0:0:
459,15,171744,1,8,0:1:0:0:
295,106,171902,1,8,0:1:0:0:
496,178,172060,1,8,0:0:0:0:
356,21,172218,6,0,P|293:12|183:6,1,161.999995056153,6|8,0:0|0:1,0:0:0:0:
175,24,172613,1,8,0:1:0:0:
175,24,172692,1,10,0:0:0:0:
48,169,172850,1,10,0:0:0:0:
48,169,172929,1,8,0:0:0:0:
48,169,173008,1,8,0:0:0:0:
250,118,173165,1,10,0:3:0:0:
49,12,173323,1,4,0:3:0:0:
192,205,173481,1,8,0:1:0:0:
0,279,173639,6,0,B|118:251|118:251|147:294|214:296,1,202.500007724762,14|0,0:1|0:0,0:0:0:0:
350,146,174271,1,8,0:1:0:0:
311,371,174429,1,10,0:0:0:0:
195,151,174587,1,10,0:0:0:0:
472,292,174744,6,0,P|431:226|318:277,1,198.000006042481,14|10,0:1|0:0,0:0:0:0:
212,349,175218,5,10,0:0:0:0:
179,330,175323,2,0,P|172:290|185:258,1,66.0000020141602,8|8,0:0|0:0,0:0:0:0:
75,144,175534,5,10,0:3:0:0:
97,182,175639,2,0,P|78:216|40:240,1,66.0000020141602,8|4,0:3|0:3,0:0:0:0:
151,36,175850,5,6,0:3:0:0:
198,39,175955,2,0,P|234:58|249:80,1,66.0000020141602,4|4,0:3|0:3,0:0:0:0:
321,222,176165,6,0,P|408:199|421:122,1,148.50000453186,14|0,0:0|0:0,0:0:0:0:
405,109,176481,1,10,0:0:0:0:
199,197,176639,1,8,0:0:0:0:
435,341,176797,1,10,0:0:0:0:
170,292,176956,1,8,0:0:0:0:
350,199,177113,1,10,0:0:0:0:
142,42,177272,6,0,P|60:41|19:157,1,198.000006042481,14|8,0:1|0:1,0:0:0:0:
35,163,177665,1,8,0:1:0:0:
35,163,177744,1,12,0:0:0:0:
291,111,177902,2,0,P|306:49|318:12,1,99.0000030212403,10|8,0:1|0:0,0:0:0:0:
141,197,178218,1,10,0:3:0:0:
141,197,178297,1,0,0:0:0:0:
141,197,178376,1,8,0:0:0:0:
406,224,178534,2,0,L|350:244,1,49.5000015106202,14|8,0:1|0:1,0:0:0:0:
173,281,178692,5,8,0:0:0:0:
124,288,178770,1,8,0:2:0:0:
79,269,178849,1,8,0:3:0:0:
49,230,178928,1,8,0:3:0:0:
43,182,179007,1,8,0:1:0:0:
63,137,179086,1,8,0:1:0:0:
102,108,179165,1,8,0:2:0:0:
151,104,179244,1,8,0:2:0:0:
196,123,179323,1,8,0:3:0:0:
230,158,179402,1,8,0:3:0:0:
275,178,179481,1,4,0:3:0:0:
323,168,179560,1,4,0:3:0:0:
366,144,179639,1,8,0:3:0:0:
389,101,179718,1,8,0:3:0:0:
387,51,179797,1,8,0:3:0:0:
361,9,179876,1,8,0:3:0:0:
312,1,179955,5,10,0:0:0:0:
373,258,180113,1,10,0:1:0:0:
373,258,180192,1,0,0:0:0:0:
373,258,180271,2,0,P|432:273|473:281,1,99.0000030212403,10|10,0:0|0:1,0:0:0:0:
240,102,180587,5,10,0:3:0:0:
206,157,180665,1,10,0:3:0:0:
146,183,180744,1,10,0:0:0:0:
83,169,180823,1,10,0:0:0:0:
49,116,180902,2,0,P|24:99|-20:93,1,67.5000025749208,10|10,0:0|0:0,0:0:0:0:
386,125,181060,6,0,L|475:112,1,67.5000025749208,10|10,0:0|0:0,0:0:0:0:
494,101,181534,6,0,P|456:32|352:48,1,175.499991966248,14|0,0:1|0:2,0:0:0:0:
341,61,181850,1,10,0:1:0:0:
254,248,182008,1,2,0:3:0:0:
167,26,182165,1,10,0:0:0:0:
390,202,182323,6,0,P|403:269|406:330,1,90,2|8,0:3|0:1,0:0:0:0:
222,132,182639,1,2,0:3:0:0:
439,21,182797,1,10,0:0:0:0:
254,248,182955,2,0,P|166:233|137:229,1,90,2|8,0:3|0:1,0:0:0:0:
19,84,183271,1,2,0:3:0:0:
91,321,183429,1,10,0:0:0:0:
197,74,183587,5,2,0:3:0:0:
197,74,183665,1,2,0:0:0:0:
197,74,183744,2,0,P|258:61|330:163,1,180,10|10,0:1|3:2,0:0:0:0:
497,271,184218,2,0,P|437:287|389:306,1,90,0|10,3:3|3:1,0:0:0:0:
191,163,184534,1,10,0:1:0:0:
431,172,184692,1,10,0:0:0:0:
254,384,184850,6,0,P|271:284|295:207,1,175.499991966248,14|0,0:1|0:0,0:0:0:0:
315,185,185165,1,8,0:1:0:0:
112,320,185323,1,10,0:0:0:0:
75,91,185481,6,0,B|136:65|136:65|201:96|210:160|147:211,1,233.999989288331,14|4,0:1|0:3,0:0:0:0:
127,214,185876,1,4,0:3:0:0:
127,214,185955,1,10,0:0:0:0:
295,22,186113,1,8,0:1:0:0:
428,219,186271,5,10,0:0:0:0:
198,116,186429,1,8,0:1:0:0:
451,50,186587,1,10,0:0:0:0:
254,249,186744,1,8,0:1:0:0:
512,320,186902,5,10,0:0:0:0:
352,101,187060,1,8,0:1:0:0:
262,343,187218,1,10,0:0:0:0:
458,209,187376,1,8,0:1:0:0:
458,209,187455,1,8,0:1:0:0:
458,209,187534,5,8,0:0:0:0:
169,124,187692,1,10,0:1:0:0:
425,5,187850,1,8,0:0:0:0:
207,253,188008,5,10,0:1:0:0:
207,253,188087,1,8,0:1:0:0:
207,253,188165,1,8,0:0:0:0:
474,94,188323,1,10,0:1:0:0:
132,7,188481,1,8,0:0:0:0:
346,237,188639,5,8,0:1:0:0:
346,237,188718,1,8,0:1:0:0:
346,237,188798,1,8,0:0:0:0:
241,0,188955,1,8,0:1:0:0:
92,240,189113,1,10,0:0:0:0:
280,86,189271,1,8,0:1:0:0:
332,345,189429,5,10,0:0:0:0:
144,158,189587,1,8,0:1:0:0:
442,123,189744,1,10,0:0:0:0:
197,319,189902,6,0,P|154:253|39:280,1,175.499991966248,14|0,0:1|0:0,0:0:0:0:
53,293,190218,2,0,L|120:313,1,58.4999973220826,8|8,0:0|0:0,0:0:0:0:
243,159,190376,1,8,0:0:0:0:
262,105,190454,1,8,0:0:0:0:
242,51,190533,1,8,0:3:0:0:
191,25,190612,1,4,0:3:0:0:
141,28,190692,6,0,L|60:44,1,67.5000025749208,10|0,0:0|0:0,0:0:0:0:
379,176,190850,6,0,L|460:192,1,67.5000025749208,10|0,0:0|0:0,0:0:0:0:
489,203,191323,6,0,P|463:270|372:291,1,148.50000453186,14|0,0:1|0:0,0:0:0:0:
361,279,191639,1,10,0:0:0:0:
293,88,191797,1,8,0:1:0:0:
239,330,191955,1,8,0:0:0:0:
145,92,192113,1,10,0:1:0:0:
82,374,192271,1,10,0:0:0:0:
218,145,192429,6,0,P|275:116|373:193,1,198.000006042481,14|10,0:1|0:1,0:0:0:0:
115,229,192902,1,10,0:0:0:0:
266,14,193060,1,10,0:1:0:0:
266,14,193139,1,8,0:1:0:0:
266,14,193218,1,8,0:0:0:0:
35,116,193376,1,10,0:1:0:0:
281,213,193534,1,10,0:0:0:0:
38,296,193692,1,10,0:1:0:0:
154,40,193850,6,0,P|181:117|193:159,1,99.0000030212403,14|8,0:1|0:1,0:0:0:0:
312,352,194165,1,10,0:0:0:0:
390,82,194323,1,8,0:1:0:0:
169,253,194481,5,8,0:0:0:0:
439,179,194639,1,10,0:1:0:0:
189,43,194797,1,10,0:0:0:0:
302,331,194955,6,0,P|341:269|482:293,1,198.000006042481,14|10,0:1|0:1,0:0:0:0:
204,212,195429,2,0,P|138:196|102:184,1,99.0000030212403,8|10,0:0|0:1,0:0:0:0:
267,15,195744,1,8,0:0:0:0:
314,24,195822,1,8,0:3:0:0:
346,60,195901,1,4,0:3:0:0:
348,109,195980,1,8,0:1:0:0:
319,148,196059,1,10,0:0:0:0:
67,172,196218,1,8,0:1:0:0:
284,351,196376,5,10,0:0:0:0:
211,95,196534,1,8,0:1:0:0:
211,95,196613,1,8,0:1:0:0:
211,95,196692,1,10,0:0:0:0:
83,284,196850,1,8,0:1:0:0:
337,178,197008,5,10,0:0:0:0:
337,178,197087,1,8,0:0:0:0:
337,178,197165,2,0,L|277:166,1,49.5000015106202,8|0,0:1|0:0,0:0:0:0:
50,130,197323,1,10,0:0:0:0:
282,22,197481,6,0,P|364:2|418:126,1,198.000006042481,10|8,0:1|0:1,0:0:0:0:
456,113,197876,1,8,0:1:0:0:
456,113,197955,2,0,P|433:182|418:232,1,99.0000030212403,10|8,0:0|0:1,0:0:0:0:
83,366,198271,6,0,P|121:351|146:320,1,72,10|0,0:0|0:0,0:0:0:0:
335,208,198429,6,0,P|282:180|261:144,1,72,10|0,0:0|0:0,0:0:0:0:
121,0,198587,6,0,L|139:74,1,72,10|0,0:0|0:0,0:0:0:0:
160,204,198744,6,0,B|281:197|261:279|261:279|189:189|232:113|289:94|289:94|346:273|523:173|511:78|498:18|458:-16|338:2|364:86|391:93,1,850.499974044801,14|0,0:1|0:0,0:0:0:0:
