osu file format v14

[General]
AudioFilename: LFK.mp3
AudioLeadIn: 0
PreviewTime: 112293
Countdown: 0
SampleSet: Soft
StackLeniency: 0.7
Mode: 0
LetterboxInBreaks: 0
WidescreenStoryboard: 0

[Editor]
DistanceSpacing: 1.5
BeatDivisor: 4
GridSize: 4
TimelineZoom: 2.799999

[Metadata]
Title:Light for Knight
TitleUnicode:Light for Knight
Artist:Mimori Suzuko
ArtistUnicode:三森すずこ
Creator:-Brethia
Version:Destiny
Source:ランス・アンド・マスクス
Tags:Lance N' Masques opening anime japanese pop dkblaze Kowari Lasse Yuuma Kalibe Irohas kotachi _kotachi_
BeatmapID:1682101
BeatmapSetID:801337

[Difficulty]
HPDrainRate:5
CircleSize:3.8
OverallDifficulty:9
ApproachRate:9.5
SliderMultiplier:1.76
SliderTickRate:1

[Events]
//Background and Video events
0,0,"BG.jpg",0,0
//Break Periods
2,154692,157956
//Storyboard Layer 0 (Background)
//Storyboard Layer 1 (Fail)
//Storyboard Layer 2 (Pass)
//Storyboard Layer 3 (Foreground)
//Storyboard Layer 4 (Overlay)
//Storyboard Sound Samples

[TimingPoints]
587,315.789473684211,4,2,1,30,1,0
587,-133.333333333333,4,2,1,30,0,0
6744,-133.333333333333,4,2,1,5,0,0
6902,-200,4,2,1,20,0,0
7218,-133.333333333333,4,2,1,25,0,0
7376,-133.333333333333,4,2,1,30,0,0
7613,-133.333333333333,4,2,1,35,0,0
7850,-133.333333333333,4,2,1,40,0,0
8008,-133.333333333333,4,2,1,45,0,0
8165,-133.333333333333,4,2,3,50,0,0
9271,-133.333333333333,4,2,1,30,0,0
9429,-133.333333333333,4,2,1,50,0,0
13218,-125,4,2,1,50,0,0
13376,-125,4,2,1,20,0,0
13534,-125,4,2,1,50,0,0
13692,-125,4,2,1,30,0,0
13850,-125,4,2,1,50,0,0
14008,-125,4,2,1,40,0,0
14165,-125,4,2,1,50,0,0
15744,-100,4,2,2,60,0,0
15981,-100,4,2,1,5,0,0
16060,-100,4,2,1,30,0,0
16218,-100,4,2,1,40,0,0
16376,-100,4,2,1,50,0,0
16534,-100,4,2,1,60,0,0
16692,-100,4,2,1,70,0,0
16850,-100,4,2,1,60,0,0
18271,-90.9090909090909,4,2,1,70,0,0
18508,-90.9090909090909,4,2,1,5,0,0
18587,-90.9090909090909,4,2,1,70,0,0
23560,-90.9090909090909,4,2,1,5,0,0
23639,-90.9090909090909,4,2,1,70,0,0
28376,-200,4,2,1,70,0,0
28692,-200,4,2,1,40,0,0
32797,-100,4,2,2,60,0,0
36744,-100,4,2,1,60,0,0
37060,-100,4,2,2,60,0,0
37376,-100,4,2,2,40,0,0
37534,-100,4,2,2,50,0,0
37692,-100,4,2,2,60,0,0
38402,-100,4,2,2,5,0,0
38481,-133.333333333333,4,2,2,60,0,0
44639,-111.111111111111,4,2,2,60,0,0
47323,-111.111111111111,4,2,1,60,0,0
47797,-111.111111111111,4,2,2,60,0,0
48587,-100,4,2,2,60,0,0
53323,-100,4,2,1,60,0,0
53639,-133.333333333333,4,2,1,50,0,0
53876,-133.333333333333,4,2,1,5,0,0
53955,-166.666666666667,4,2,1,45,0,0
54192,-166.666666666667,4,2,1,5,0,0
54271,-250,4,2,1,40,0,0
54902,-133.333333333333,4,2,1,40,0,0
55534,-133.333333333333,4,2,3,5,0,0
56008,-83.3333333333333,4,2,3,75,0,1
56323,-83.3333333333333,4,2,1,75,0,1
58692,-83.3333333333333,4,2,2,75,0,1
58850,-83.3333333333333,4,2,1,75,0,1
63744,-83.3333333333333,4,2,1,75,0,1
63823,-83.3333333333333,4,2,1,5,0,1
63902,-83.3333333333333,4,2,1,75,0,1
63981,-83.3333333333333,4,2,1,5,0,1
64060,-83.3333333333333,4,2,1,75,0,1
64218,-66.6666666666667,4,2,2,75,0,1
64455,-66.6666666666667,4,2,2,5,0,1
64534,-66.6666666666667,4,2,2,75,0,1
65087,-83.3333333333333,4,2,1,5,0,1
65165,-83.3333333333333,4,2,1,75,0,1
66271,-66.6666666666667,4,2,1,75,0,1
66508,-83.3333333333333,4,2,1,5,0,1
66587,-83.3333333333333,4,2,1,75,0,1
68797,-83.3333333333333,4,2,2,75,0,1
68955,-83.3333333333333,4,2,1,75,0,1
69902,-66.6666666666667,4,2,1,75,0,1
70139,-66.6666666666667,4,2,1,5,0,1
70218,-83.3333333333333,4,2,1,75,0,1
70534,-83.3333333333333,4,2,2,75,0,1
70692,-83.3333333333333,4,2,1,75,0,1
74955,-83.3333333333333,4,2,2,75,0,1
75192,-83.3333333333333,4,2,2,5,0,1
75271,-83.3333333333333,4,2,1,75,0,1
76376,-90.9090909090909,4,2,1,70,0,0
76613,-90.9090909090909,4,2,1,5,0,0
76692,-90.9090909090909,4,2,1,70,0,0
81665,-90.9090909090909,4,2,1,5,0,0
81744,-90.9090909090909,4,2,1,70,0,0
86323,-100,4,2,2,60,0,0
96587,-111.111111111111,4,2,1,60,0,0
101560,-111.111111111111,4,2,1,5,0,0
101639,-111.111111111111,4,2,2,60,0,0
104955,-111.111111111111,4,2,1,60,0,0
105271,-111.111111111111,4,2,2,60,0,0
106376,-111.111111111111,4,2,1,60,0,0
106692,-111.111111111111,4,2,2,60,0,0
111429,-111.111111111111,4,2,1,60,0,0
111744,-133.333333333333,4,2,1,60,0,0
112692,-133.333333333333,4,2,1,5,0,0
112850,-83.3333333333333,4,2,3,75,0,1
113165,-83.3333333333333,4,2,1,75,0,1
115534,-83.3333333333333,4,2,2,75,0,1
115692,-83.3333333333333,4,2,1,75,0,1
120587,-83.3333333333333,4,2,1,75,0,1
120665,-83.3333333333333,4,2,1,5,0,1
120744,-83.3333333333333,4,2,1,75,0,1
120823,-83.3333333333333,4,2,1,5,0,1
120902,-83.3333333333333,4,2,1,75,0,1
121060,-66.6666666666667,4,2,2,75,0,1
121297,-66.6666666666667,4,2,2,5,0,1
121376,-66.6666666666667,4,2,2,75,0,1
121929,-66.6666666666667,4,2,2,5,0,1
122008,-66.6666666666667,4,2,1,75,0,1
123113,-66.6666666666667,4,2,1,75,0,1
123350,-83.3333333333333,4,2,1,5,0,1
123429,-83.3333333333333,4,2,1,75,0,1
125639,-83.3333333333333,4,2,2,75,0,1
125797,-83.3333333333333,4,2,1,75,0,1
126744,-66.6666666666667,4,2,1,75,0,1
126981,-66.6666666666667,4,2,1,5,0,1
127060,-83.3333333333333,4,2,1,75,0,1
127376,-83.3333333333333,4,2,2,75,0,1
127534,-83.3333333333333,4,2,1,75,0,1
131797,-83.3333333333333,4,2,2,75,0,1
132113,-58.8235294117647,4,2,1,75,0,1
132271,-62.5,4,2,1,75,0,1
132429,-66.6666666666667,4,2,1,75,0,1
133218,-90.9090909090909,4,2,1,70,0,0
133455,-90.9090909090909,4,2,1,5,0,0
133534,-90.9090909090909,4,2,1,70,0,0
138481,-66.6666666666667,4,2,1,70,0,0
139534,-83.3333333333333,4,2,1,70,0,0
141271,-83.3333333333333,4,2,2,70,0,0
141902,-83.3333333333333,4,2,1,70,0,0
142139,-83.3333333333333,4,2,1,5,0,0
142218,-83.3333333333333,4,2,1,70,0,0
143323,-66.6666666666667,4,2,1,70,0,0
143560,-66.6666666666667,4,2,1,5,0,0
143639,-83.3333333333333,4,2,1,70,0,0
145455,-83.3333333333333,4,2,1,5,0,0
145534,-83.3333333333333,4,2,1,70,0,0
145850,-83.3333333333333,4,2,2,70,0,0
146008,-83.3333333333333,4,2,1,70,0,0
147902,-83.3333333333333,4,2,0,70,0,0
148060,-83.3333333333333,4,2,1,70,0,0
151060,-100,4,2,1,70,0,0
152797,-100,4,2,2,70,0,0
153429,-200,4,2,99,50,0,0
158481,-200,4,2,1,40,0,0
161008,-111.111111111111,4,2,2,60,0,0
161087,-111.111111111111,4,2,1,60,0,0
162744,-111.111111111111,4,2,2,60,0,0
162981,-111.111111111111,4,2,1,5,0,0
163060,-111.111111111111,4,2,1,60,0,0
163534,-100,4,2,2,60,0,0
167955,-100,4,2,2,45,0,0
168113,-100,4,2,2,50,0,0
168271,-100,4,2,2,55,0,0
168350,-100,4,2,1,55,0,0
168429,-100,4,2,1,60,0,0
168587,-133.333333333333,4,2,1,50,0,0
168823,-133.333333333333,4,2,1,5,0,0
168902,-166.666666666667,4,2,1,45,0,0
169139,-166.666666666667,4,2,1,5,0,0
169218,-250,4,2,1,40,0,0
169455,-250,4,2,1,5,0,0
169534,-250,4,2,1,40,0,0
169850,-133.333333333333,4,2,1,40,0,0
170955,-133.333333333333,4,2,3,70,0,0
171587,-133.333333333333,4,2,1,70,0,0
172218,-100,4,2,2,70,0,0
172534,-100,4,2,1,70,0,0
172850,-100,4,2,1,50,0,0
173008,-100,4,2,1,70,0,0
173639,-133.333333333333,4,2,1,70,0,0
174744,-100,4,2,2,70,0,0
175060,-100,4,2,1,70,0,0
176165,-90.9090909090909,4,2,1,70,0,1
176481,-90.9090909090909,4,2,1,50,0,1
176639,-90.9090909090909,4,2,1,55,0,1
176797,-90.9090909090909,4,2,1,60,0,1
176955,-90.9090909090909,4,2,1,65,0,1
177113,-90.9090909090909,4,2,1,70,0,1
177271,-90.9090909090909,4,2,2,70,0,1
178534,-90.9090909090909,4,2,1,70,0,1
181060,-90.9090909090909,4,2,1,70,0,0
181534,-66.6666666666667,4,2,3,75,0,1
181692,-83.3333333333333,4,2,1,75,0,1
183744,-83.3333333333333,4,2,2,75,0,1
183902,-83.3333333333333,4,2,1,75,0,1
184850,-66.6666666666667,4,2,1,75,0,1
185087,-83.3333333333333,4,2,1,5,0,1
185165,-83.3333333333333,4,2,1,75,0,1
185481,-83.3333333333333,4,2,2,75,0,1
185639,-83.3333333333333,4,2,1,75,0,1
190850,-83.3333333333333,4,2,2,75,0,0
191323,-66.6666666666667,4,3,3,80,0,1
191481,-66.6666666666667,4,2,1,80,0,1
192429,-66.6666666666667,4,2,2,80,0,1
192587,-66.6666666666667,4,2,1,80,0,1
193850,-66.6666666666667,4,2,2,80,0,1
194008,-66.6666666666667,4,2,1,80,0,1
194955,-66.6666666666667,4,2,2,80,0,1
195113,-66.6666666666667,4,2,1,80,0,1
198744,-126.582278481013,4,2,3,70,0,0
203718,-133.333333333333,4,2,99,14,0,0

[Colours]
Combo1 : 128,64,0
Combo2 : 0,202,0
Combo3 : 0,128,128
Combo4 : 0,128,0

[HitObjects]
143,151,587,6,0,L|77:159,1,66.0000025177003
231,243,902,2,0,L|165:234,1,66.0000025177003
238,81,1218,6,0,P|239:113|241:146,1,66.0000025177003,2|0,0:0|0:0,0:0:0:0:
321,280,1534,2,0,P|322:247|324:214,1,66.0000025177003
441,114,1850,6,0,P|430:145|419:176,1,66.0000025177003,2|0,0:0|0:0,0:0:0:0:
314,13,2165,2,0,P|324:44|335:75,1,66.0000025177003
220,209,2481,6,0,P|230:177|241:146,1,66.0000025177003,2|0,0:0|0:0,0:0:0:0:
90,211,2797,2,0,P|100:242|111:273,1,66.0000025177003,2|0,0:0|0:0,0:0:0:0:
149,124,3113,5,2,0:0:0:0:
321,167,3429,1,0,0:0:0:0:
206,32,3744,1,2,0:0:0:0:
220,209,4060,1,2,0:0:0:0:
313,58,4376,1,2,0:0:0:0:
256,192,4455,12,0,5639,0:0:0:0:
256,192,5718,12,0,6744,0:0:0:0:
391,62,6902,6,0,L|370:65,3,22,2|2|2|2,0:0|0:0|0:0|0:0,0:0:0:0:
278,30,7218,6,0,L|245:26,3,33.0000012588501,2|2|2|2,0:0|0:0|0:0|0:0,0:0:0:0:
187,98,7534,5,2,0:0:0:0:
174,119,7612,1,2,0:0:0:0:
169,143,7691,1,2,0:0:0:0:
171,167,7770,1,2,0:0:0:0:
183,190,7850,5,2,0:0:0:0:
199,218,7928,1,2,0:0:0:0:
206,250,8007,1,2,0:0:0:0:
203,282,8086,1,2,0:0:0:0:
182,320,8165,5,6,0:1:0:0:
419,117,9271,5,8,0:0:0:0:
402,114,9349,1,8,0:0:0:0:
386,111,9429,2,0,L|401:252,1,132.000005035401,8|8,0:0|0:3,0:0:0:0:
265,187,9902,2,0,L|279:56,1,132.000005035401,4|8,0:3|0:3,0:0:0:0:
180,157,10376,2,0,P|177:198|188:235,1,66.0000025177003,4|0,0:3|0:0,0:0:0:0:
295,347,10692,5,12,0:1:0:0:
92,110,11481,5,0,0:0:0:0:
102,208,11639,1,0,0:0:0:0:
184,153,11797,1,0,0:0:0:0:
13,170,11955,6,0,L|31:306,1,132.000005035401,8|0,0:0|0:0,0:0:0:0:
249,221,12429,2,0,P|187:200|128:225,1,132.000005035401,8|8,0:3|0:1,0:0:0:0:
128,225,12823,1,8,0:1:0:0:
128,225,12902,2,0,L|137:290,1,66.0000025177003,4|0,0:3|0:0,0:0:0:0:
360,144,13218,6,0,P|360:177|358:217,1,70.4,12|2,0:1|0:3,0:0:0:0:
217,103,13534,2,0,P|216:136|219:176,1,70.4,8|2,0:1|0:3,0:0:0:0:
323,68,13850,6,0,P|357:59|392:60,1,70.4,8|2,0:1|0:3,0:0:0:0:
260,15,14165,2,0,P|225:6|190:7,1,70.4,8|2,0:1|0:3,0:0:0:0:
148,181,14481,6,0,L|227:172,1,70.4,8|2,0:1|0:3,0:0:0:0:
126,327,14797,2,0,L|47:318,1,70.4,8|2,0:1|0:3,0:0:0:0:
26,110,15113,5,8,0:1:0:0:
67,225,15271,1,2,0:3:0:0:
113,80,15429,2,0,L|33:94,1,70.4,8|0,0:1|0:0,0:0:0:0:
230,256,15744,6,0,P|302:256|366:262,1,132,6|0,0:0|0:0,0:0:0:0:
383,268,16060,1,8,0:0:0:0:
420,131,16218,1,8,0:0:0:0:
296,303,16376,5,8,0:0:0:0:
292,113,16534,1,8,0:0:0:0:
206,348,16692,5,8,0:0:0:0:
141,105,16850,2,0,L|150:13,1,88,12|0,0:0|0:0,0:0:0:0:
67,305,17165,5,8,0:0:0:0:
110,303,17243,1,8,0:0:0:0:
141,273,17322,1,8,0:0:0:0:
145,231,17401,1,8,0:3:0:0:
121,195,17480,1,4,0:3:0:0:
79,185,17559,1,8,0:1:0:0:
41,205,17638,5,8,0:0:0:0:
383,268,17797,1,8,0:0:0:0:
383,268,18271,6,0,B|397:110,1,145.200004431152,12|0,0:1|0:0,0:0:0:0:
406,35,18587,2,0,P|359:43|323:75,1,96.8000029541017,10|2,0:0|0:3,0:0:0:0:
464,317,18902,2,0,L|472:215,1,96.8000029541017,10|2,0:1|0:3,0:0:0:0:
482,94,19218,1,10,0:0:0:0:
305,186,19376,6,0,L|200:172,1,96.8000029541017,2|8,0:3|0:1,0:0:0:0:
64,325,19692,2,0,L|169:311,1,96.8000029541017,2|8,0:3|0:0,0:0:0:0:
176,84,20008,2,0,P|139:115|118:158,1,96.8000029541017,2|8,0:3|0:1,0:0:0:0:
275,359,20323,2,0,L|267:250,1,96.8000029541017,2|8,0:3|0:0,0:0:0:0:
323,75,20639,1,2,0:3:0:0:
461,274,20797,6,0,P|414:266|350:262,1,96.8000029541017,10|2,0:1|0:3,0:0:0:0:
420,79,21113,2,0,P|458:119|468:164,1,96.8000029541017,10|2,0:0|0:3,0:0:0:0:
271,310,21428,1,8,0:1:0:0:
380,159,21587,1,2,0:3:0:0:
456,371,21744,2,0,L|461:258,1,96.8000029541017,8|2,0:0|0:3,0:0:0:0:
181,316,22060,6,0,L|84:305,1,96.8000029541017,10|2,0:1|0:3,0:0:0:0:
363,264,22376,2,0,L|459:274,1,96.8000029541017,10|2,0:0|0:3,0:0:0:0:
209,173,22692,1,8,0:1:0:0:
414,43,22850,5,2,0:3:0:0:
447,76,22928,1,2,0:0:0:0:
455,123,23007,1,10,0:0:0:0:
434,166,23086,1,2,0:0:0:0:
392,188,23165,1,2,0:0:0:0:
344,182,23244,1,2,0:0:0:0:
310,150,23323,6,0,L|166:166,1,145.200004431152,12|0,0:1|0:0,0:0:0:0:
110,94,23639,2,0,L|209:82,1,96.8000029541017,10|2,0:0|0:3,0:0:0:0:
107,293,23955,2,0,L|8:281,1,96.8000029541017,10|2,0:1|0:3,0:0:0:0:
165,166,24271,1,10,0:0:0:0:
225,384,24429,6,0,P|229:335|237:288,1,96.8000029541017,2|8,0:3|0:1,0:0:0:0:
379,114,24744,2,0,P|387:161|391:209,1,96.8000029541017,2|8,0:3|0:0,0:0:0:0:
159,77,25060,2,0,L|262:80,1,96.8000029541017,2|8,0:3|0:1,0:0:0:0:
141,260,25376,1,10,0:1:0:0:
141,260,25455,1,8,0:1:0:0:
141,260,25534,1,8,0:0:0:0:
310,178,25692,1,8,0:1:0:0:
57,141,25850,5,12,0:0:0:0:
276,266,26008,1,8,0:1:0:0:
276,266,26087,1,8,0:1:0:0:
276,266,26165,1,10,0:0:0:0:
51,341,26323,2,0,P|46:292|40:244,1,96.8000029541017,10|8,0:0|0:1,0:0:0:0:
40,244,26560,1,8,0:1:0:0:
40,244,26639,1,10,0:0:0:0:
276,266,26797,1,8,0:1:0:0:
182,34,26955,6,0,L|194:135,1,96.8000029541017,10|8,0:0|0:1,0:0:0:0:
26,38,27271,1,4,0:3:0:0:
358,96,27429,1,12,0:0:0:0:
358,96,28376,5,12,0:1:0:0:
358,96,28692,6,0,L|405:93,1,44,2|0,0:0|0:0,0:0:0:0:
375,188,29008,2,0,L|328:185,1,44,2|0,0:0|0:0,0:0:0:0:
260,122,29323,1,2,0:0:0:0:
245,299,29481,6,0,L|249:199,1,88,2|0,0:0|0:0,0:0:0:0:
181,92,29955,2,0,L|178:137,1,44,2|0,0:0|0:0,0:0:0:0:
160,247,30271,2,0,P|117:248|73:256,1,88,2|2,0:0|0:0,0:0:0:0:
0,99,30744,6,0,P|43:107|87:108,1,88,2|2,0:0|0:0,0:0:0:0:
181,92,31218,1,2,0:0:0:0:
181,92,31376,2,0,L|184:47,1,44,2|0,0:0|0:0,0:0:0:0:
271,116,31692,2,0,L|268:71,1,44,2|0,0:0|0:0,0:0:0:0:
357,140,32008,6,0,L|367:40,1,88,2|2,0:0|0:0,0:0:0:0:
445,142,32481,2,0,P|437:171|428:198,1,44,2|0,0:0|0:0,0:0:0:0:
212,315,32797,5,0,0:0:0:0:
359,231,32955,1,2,0:1:0:0:
159,190,33113,1,8,0:0:0:0:
253,33,33271,6,0,L|260:214,1,176,6|0,0:0|0:0,0:0:0:0:
90,144,33744,2,0,P|120:114|163:106,1,88,2|0,0:0|0:0,0:0:0:0:
195,270,34060,2,0,L|154:180,2,88,2|0|2,0:0|0:0|0:0,0:0:0:0:
354,181,34534,6,0,L|337:270,1,88,0|2,0:0|0:0,0:0:0:0:
257,125,34850,1,0,0:0:0:0:
435,63,35008,2,0,P|391:63|348:74,1,88,2|0,0:0|0:0,0:0:0:0:
473,243,35323,2,0,L|456:156,1,88,2|2,0:0|0:0,0:0:0:0:
426,348,35639,1,8,0:0:0:0:
261,209,35797,6,0,B|196:205|196:205|159:228|159:228|79:221,1,176,6|2,0:1|0:0,0:0:0:0:
223,34,36271,1,8,0:0:0:0:
222,289,36429,1,2,0:0:0:0:
47,118,36587,1,8,0:0:0:0:
237,125,36744,1,8,0:3:0:0:
7,205,36902,1,8,0:3:0:0:
308,65,37060,6,0,P|327:110|326:153,1,88,6|0,0:0|0:0,0:0:0:0:
91,222,37376,1,8,0:0:0:0:
223,34,37534,1,8,0:0:0:0:
199,328,37692,1,12,0:0:0:0:
199,328,38008,5,2,0:0:0:0:
326,148,38165,2,0,L|344:278,1,132,8|0,0:0|0:0,0:0:0:0:
349,300,38481,6,0,P|406:298|492:306,1,132.000005035401,6|0,0:1|0:0,0:0:0:0:
417,211,38955,1,2,0:0:0:0:
278,348,39113,2,0,L|259:217,1,132,8|0,0:0|0:0,0:0:0:0:
154,133,39587,6,0,B|220:148|215:105|282:121,1,132.000005035401,2|0,0:0|0:0,0:0:0:0:
388,183,40060,2,0,L|380:117,1,66.0000025177003,2|0,0:0|0:0,0:0:0:0:
262,41,40376,1,8,0:0:0:0:
262,41,40534,2,0,P|204:44|125:53,1,132.000005035401,0|2,0:0|0:0,0:0:0:0:
39,221,41008,6,0,B|81:201|81:201|68:110,1,132.000005035401,2|0,0:0|0:0,0:0:0:0:
0,56,41481,1,2,0:0:0:0:
157,133,41639,1,8,0:0:0:0:
157,133,41797,2,0,L|231:127,1,66.0000025177003
351,183,42113,6,0,B|324:125|324:125|347:62,1,132.000005035401,2|2,0:0|0:0,0:0:0:0:
478,120,42587,2,0,L|406:120,1,66.0000025177003,0|2,0:0|0:0,0:0:0:0:
305,291,42902,1,8,0:0:0:0:
274,215,43060,1,0,0:0:0:0:
351,183,43218,1,0,0:0:0:0:
381,260,43376,1,0,0:0:0:0:
274,215,43534,6,0,B|227:222|227:222|195:206|195:206|135:215,1,132.000005035401,6|0,0:0|0:0,0:0:0:0:
2,265,44008,1,2,0:0:0:0:
2,265,44087,1,2,0:1:0:0:
2,265,44165,5,8,0:0:0:0:
176,301,44323,1,2,0:0:0:0:
122,130,44481,1,8,0:0:0:0:
176,301,44639,6,0,P|216:301|256:302,1,79.1999975830079,2|0,0:0|0:0,0:0:0:0:
207,137,44955,1,2,0:0:0:0:
46,182,45113,1,8,0:0:0:0:
36,24,45271,2,0,L|46:182,1,158.399995166016,6|2,0:0|0:0,0:0:0:0:
160,74,45665,1,2,0:0:0:0:
160,74,45744,2,0,P|197:62|237:66,1,79.1999975830079,8|2,0:0|0:0,0:0:0:0:
299,312,46060,5,2,0:0:0:0:
338,282,46138,1,0,0:0:0:0:
358,238,46217,1,8,0:0:0:0:
355,189,46296,1,8,0:0:0:0:
329,147,46376,2,0,P|307:137|281:128,1,39.5999987915039,8|8,0:0|0:0,0:0:0:0:
137,255,46534,1,8,0:0:0:0:
137,255,46851,5,2,0:0:0:0:
132,274,46929,1,2,0:0:0:0:
129,293,47009,1,8,0:0:0:0:
164,275,47087,1,8,0:0:0:0:
203,271,47166,1,8,0:0:0:0:
241,281,47245,1,8,0:0:0:0:
276,306,47324,5,8,0:3:0:0:
315,326,47402,1,8,0:3:0:0:
358,331,47482,1,4,0:3:0:0:
402,323,47561,1,4,0:3:0:0:
441,299,47639,2,0,L|434:253,1,39.5999987915039,8|8,0:0|0:0,0:0:0:0:
363,85,47797,6,0,L|349:256,1,158.399995166016,6|2,0:0|0:0,0:0:0:0:
460,133,48271,1,8,0:0:0:0:
268,162,48429,1,0,0:0:0:0:
393,5,48587,6,0,P|350:4|309:20,1,88,6|0,0:1|0:0,0:0:0:0:
268,162,48902,1,8,0:0:0:0:
113,42,49060,1,4,0:3:0:0:
113,42,49139,1,4,0:3:0:0:
113,42,49218,2,0,L|119:136,1,88,4|2,0:3|0:0,0:0:0:0:
262,249,49534,2,0,L|267:161,1,88,8|4,0:0|0:3,0:0:0:0:
268,162,49771,1,4,0:3:0:0:
268,162,49850,5,4,0:3:0:0:
331,306,50008,1,2,0:0:0:0:
181,195,50165,1,8,0:0:0:0:
359,126,50323,1,4,0:3:0:0:
359,126,50402,1,4,0:3:0:0:
359,126,50481,2,0,P|368:174|359:215,1,88,4|2,0:3|0:0,0:0:0:0:
360,211,50718,1,2,0:0:0:0:
360,211,50797,1,8,0:0:0:0:
198,107,50955,1,2,0:0:0:0:
156,326,51113,5,12,0:0:0:0:
281,82,51271,1,2,0:0:0:0:
327,328,51429,5,8,0:0:0:0:
198,107,51587,1,2,0:0:0:0:
243,332,51744,5,8,0:0:0:0:
363,57,51902,1,2,0:0:0:0:
411,332,52060,1,8,0:0:0:0:
117,130,52218,6,0,L|133:222,1,88,6|0,0:1|0:0,0:0:0:0:
359,195,52534,2,0,L|352:145,1,44,2|2,0:0|0:0,0:0:0:0:
198,107,52692,1,8,0:0:0:0:
243,332,52850,1,2,0:0:0:0:
439,231,53008,6,0,L|445:166,2,58.6666666666667,8|8|8,0:0|0:0|0:0,0:0:0:0:
274,230,53323,6,0,L|268:165,2,58.6666666666667,8|8|4,0:3|0:3|0:3,0:0:0:0:
359,195,53639,6,0,B|354:148|354:148|366:83,1,99.0000037765504,10|0,0:1|0:0,0:0:0:0:
397,21,53955,6,0,L|316:28,1,79.1999975830079,2|0,0:0|0:0,0:0:0:0:
244,77,54271,6,0,L|180:73,1,52.8,2|0,0:0|0:0,0:0:0:0:
100,47,54587,5,2,0:0:0:0:
101,60,54665,1,2,0:0:0:0:
102,73,54744,1,2,0:0:0:0:
103,86,54823,1,2,0:0:0:0:
102,102,54902,6,0,B|81:141|97:182|140:198|174:188|174:188|203:212|210:247|197:281|172:298,1,264.000010070801,2|0,0:0|0:0,0:0:0:0:
415,86,56008,6,0,B|289:58|289:58|245:86|266:129,1,211.199993554688,6|2,0:1|0:3,0:0:0:0:
343,331,56481,1,10,0:0:0:0:
378,187,56639,1,2,0:3:0:0:
175,189,56797,1,10,0:1:0:0:
417,268,56955,1,2,0:3:0:0:
338,48,57113,1,10,0:0:0:0:
221,282,57271,6,0,P|172:290|115:272,1,105.599996777344,2|8,0:3|0:1,0:0:0:0:
44,41,57587,1,2,0:3:0:0:
175,188,57744,1,10,0:0:0:0:
337,3,57902,6,0,P|331:62|328:114,1,105.599996777344,2|8,0:3|0:1,0:0:0:0:
307,308,58218,1,2,0:3:0:0:
479,207,58376,1,10,0:0:0:0:
252,150,58534,1,2,0:3:0:0:
220,361,58692,6,0,P|171:369|114:353,1,105.599996777344,6|2,0:0|0:3,0:0:0:0:
166,82,59008,2,0,P|170:137|175:199,1,105.599996777344,8|2,0:0|0:3,0:0:0:0:
58,238,59323,1,10,0:1:0:0:
252,150,59481,1,2,0:3:0:0:
49,104,59639,1,10,0:0:0:0:
284,229,59797,6,0,P|338:219|392:216,1,105.599996777344,2|8,0:3|0:1,0:0:0:0:
206,270,60113,1,2,0:3:0:0:
328,107,60271,1,10,0:0:0:0:
464,334,60429,2,0,P|467:282|476:227,1,105.599996777344,2|10,0:3|0:1,0:0:0:0:
348,15,60744,2,0,P|356:67|360:119,1,105.599996777344,2|8,0:3|0:0,0:0:0:0:
205,186,61060,1,2,0:3:0:0:
64,68,61218,6,0,P|136:75|204:192,1,211.199993554688,10|8,0:1|0:0,0:0:0:0:
89,181,61692,1,2,0:3:0:0:
243,29,61850,2,0,L|356:13,1,105.599996777344,10|2,0:1|0:3,0:0:0:0:
204,185,62165,1,10,0:0:0:0:
450,215,62323,6,0,P|453:160|435:104,1,105.599996777344,2|8,0:3|0:1,0:0:0:0:
226,273,62639,1,2,0:3:0:0:
374,172,62797,1,10,0:0:0:0:
174,102,62955,2,0,L|67:94,1,105.599996777344,2|8,0:3|0:1,0:0:0:0:
226,273,63271,2,0,L|333:265,1,105.599996777344,2|8,0:3|0:0,0:0:0:0:
215,25,63587,1,2,0:3:0:0:
446,59,63744,6,0,L|438:118,1,52.7999983886719,10|0,0:1|0:0,0:0:0:0:
280,179,63902,2,0,L|272:126,1,52.7999983886719,10|0,0:1|0:0,0:0:0:0:
425,254,64060,1,8,0:0:0:0:
213,336,64218,6,0,B|167:354|167:354|181:204,1,198.000007553101,6|0,0:0|0:0,0:0:0:0:
180,206,64534,1,10,0:1:0:0:
369,348,64692,1,8,0:0:0:0:
299,48,64850,6,0,B|345:30|345:30|331:180,1,198.000007553101,6|0,0:0|0:0,0:0:0:0:
400,250,65165,1,8,0:0:0:0:
352,272,65243,1,8,0:0:0:0:
300,268,65322,1,8,0:0:0:0:
257,239,65401,1,8,0:0:0:0:
234,192,65480,1,8,0:0:0:0:
238,140,65559,1,8,0:0:0:0:
265,95,65639,6,0,L|253:36,1,52.7999983886719,8|8,0:3|0:0,0:0:0:0:
58,212,65797,2,0,L|109:201,1,52.7999983886719,8|8,0:0|0:0,0:0:0:0:
155,35,65955,6,0,L|110:5,1,52.7999983886719,8|8,0:0|0:0,0:0:0:0:
143,312,66113,2,0,L|172:267,1,52.7999983886719,8|4,0:3|0:3,0:0:0:0:
418,116,66271,6,0,B|345:134|345:134|316:177|316:177|220:194,1,198.000007553101,12|0,0:1|0:0,0:0:0:0:
234,192,66587,1,8,0:0:0:0:
434,226,66744,1,2,0:3:0:0:
358,27,66902,1,10,0:1:0:0:
302,264,67060,1,2,0:3:0:0:
463,43,67218,1,10,0:0:0:0:
452,250,67376,6,0,L|441:358,1,105.599996777344,2|8,0:3|0:1,0:0:0:0:
204,235,67692,1,2,0:3:0:0:
360,152,67850,1,10,0:0:0:0:
235,345,68008,6,0,L|119:329,1,105.599996777344,2|8,0:3|0:1,0:0:0:0:
71,107,68323,1,2,0:3:0:0:
204,235,68481,1,10,0:0:0:0:
10,281,68639,1,2,0:3:0:0:
195,124,68797,6,0,P|184:73|166:21,1,105.599996777344,6|2,0:0|0:3,0:0:0:0:
410,152,69113,2,0,P|357:160|307:178,1,105.599996777344,8|2,0:0|0:3,0:0:0:0:
130,330,69429,1,8,0:1:0:0:
379,246,69587,1,10,0:1:0:0:
100,130,69744,1,10,0:0:0:0:
418,38,69902,6,0,P|393:133|379:231,1,198.000007553101,12|0,0:1|0:1,0:0:0:0:
379,246,70218,1,10,0:1:0:0:
183,72,70376,1,8,0:0:0:0:
246,324,70534,6,0,P|237:263|226:211,1,105.599996777344,6|0,0:0|0:0,0:0:0:0:
18,295,70850,1,4,0:3:0:0:
18,295,70929,1,4,0:3:0:0:
18,295,71008,2,0,L|142:292,1,105.599996777344,8|8,0:0|0:1,0:0:0:0:
53,23,71323,5,8,0:0:0:0:
123,193,71481,1,8,0:1:0:0:
273,36,71639,5,10,0:0:0:0:
35,132,71797,1,8,0:1:0:0:
354,202,71955,5,10,0:0:0:0:
133,55,72113,1,8,0:1:0:0:
128,326,72271,1,10,0:0:0:0:
316,117,72429,5,10,0:1:0:0:
316,117,72508,1,8,0:1:0:0:
316,117,72587,1,8,0:0:0:0:
37,228,72744,1,10,0:1:0:0:
334,292,72902,1,8,0:0:0:0:
133,55,73060,5,10,0:1:0:0:
133,55,73139,1,8,0:1:0:0:
133,55,73218,1,8,0:0:0:0:
234,312,73376,1,10,0:1:0:0:
388,32,73534,5,8,0:0:0:0:
327,330,73692,1,8,0:1:0:0:
327,330,73771,1,8,0:1:0:0:
327,330,73850,5,8,0:0:0:0:
107,220,74008,1,8,0:1:0:0:
395,140,74165,5,10,0:0:0:0:
130,306,74323,1,10,0:1:0:0:
407,250,74481,5,10,0:0:0:0:
55,127,74639,1,8,0:1:0:0:
421,27,74797,1,10,0:0:0:0:
237,357,74955,6,0,L|248:199,1,158.399995166016,6|0,0:0|0:0,0:0:0:0:
107,220,75271,2,0,L|161:212,1,52.7999983886719,8|8,0:0|0:0,0:0:0:0:
350,178,75429,1,8,0:0:0:0:
327,131,75507,1,8,0:3:0:0:
284,101,75586,1,4,0:3:0:0:
232,96,75665,1,8,0:1:0:0:
184,117,75744,5,8,0:0:0:0:
431,339,75902,1,12,0:0:0:0:
431,339,76376,6,0,P|361:334|283:344,1,145.200004431152,12|0,0:1|0:0,0:0:0:0:
197,360,76692,2,0,P|212:311|211:260,1,96.8000029541017,10|2,0:0|0:3,0:0:0:0:
66,86,77008,2,0,L|90:179,1,96.8000029541017,10|2,0:1|0:3,0:0:0:0:
284,101,77323,1,10,0:0:0:0:
212,266,77481,6,0,P|260:269|309:263,1,96.8000029541017,2|8,0:3|0:1,0:0:0:0:
148,31,77797,2,0,L|173:124,1,96.8000029541017,2|8,0:3|0:0,0:0:0:0:
106,358,78113,2,0,P|106:309|120:263,1,96.8000029541017,2|8,0:3|0:1,0:0:0:0:
271,85,78429,2,0,P|274:143|255:190,1,96.8000029541017,2|8,0:3|0:0,0:0:0:0:
66,86,78744,1,2,0:3:0:0:
212,266,78902,6,0,P|259:260|308:263,1,96.8000029541017,10|2,0:1|0:3,0:0:0:0:
363,73,79218,2,0,P|341:30|303:0,1,96.8000029541017,10|2,0:0|0:3,0:0:0:0:
165,167,79533,1,8,0:1:0:0:
390,191,79692,1,2,0:3:0:0:
271,85,79850,2,0,L|279:194,1,96.8000029541017,8|2,0:0|0:3,0:0:0:0:
45,72,80165,6,0,P|85:46|133:37,1,96.8000029541017,10|2,0:1|0:3,0:0:0:0:
112,277,80481,2,0,L|16:267,1,96.8000029541017,10|2,0:0|0:3,0:0:0:0:
173,124,80797,1,8,0:1:0:0:
261,310,80955,5,2,0:3:0:0:
305,292,81033,1,2,0:0:0:0:
350,304,81112,1,10,0:0:0:0:
383,340,81191,1,2,0:0:0:0:
427,358,81270,1,2,0:0:0:0:
474,347,81349,1,2,0:0:0:0:
505,311,81428,6,0,L|486:164,1,145.200004431152,12|0,0:1|0:0,0:0:0:0:
418,103,81744,2,0,P|399:148|401:198,1,96.8000029541017,10|2,0:0|0:3,0:0:0:0:
241,62,82060,2,0,P|260:107|257:157,1,96.8000029541017,10|2,0:1|0:3,0:0:0:0:
348,5,82376,1,10,0:0:0:0:
173,124,82534,6,0,P|124:115|63:118,1,96.8000029541017,2|8,0:3|0:1,0:0:0:0:
209,306,82850,2,0,L|192:200,1,96.8000029541017,2|8,0:3|0:0,0:0:0:0:
348,5,83165,2,0,L|332:100,1,96.8000029541017,2|8,0:3|0:1,0:0:0:0:
298,258,83481,1,10,0:1:0:0:
298,258,83560,1,8,0:1:0:0:
298,258,83639,1,8,0:0:0:0:
256,42,83797,1,8,0:1:0:0:
385,197,83955,5,12,0:0:0:0:
173,124,84113,1,8,0:1:0:0:
173,124,84192,1,8,0:1:0:0:
173,124,84270,1,10,0:0:0:0:
276,357,84429,2,0,P|312:339|376:332,1,96.8000029541017,10|8,0:0|0:1,0:0:0:0:
367,331,84665,1,8,0:1:0:0:
367,331,84744,1,10,0:0:0:0:
142,267,84902,2,0,L|188:238,1,48.4000014770508,8|8,0:1|0:1,0:0:0:0:
363,159,85060,6,0,P|347:204|344:252,1,96.8000029541017,10|4,0:0|0:3,0:0:0:0:
344,252,85297,1,4,0:3:0:0:
344,252,85376,1,4,0:3:0:0:
50,73,85534,1,12,0:0:0:0:
50,73,86323,6,0,B|146:41|128:113|223:81,1,176,6|2,0:1|0:0,0:0:0:0:
364,121,86797,2,0,P|322:134|276:160,1,88,8|0,0:0|0:0,0:0:0:0:
275,308,87113,1,2,0:0:0:0:
352,206,87271,1,2,0:0:0:0:
392,337,87429,1,8,0:0:0:0:
226,224,87587,6,0,B|161:216|161:216|120:239|120:239|49:231,1,176,2|2,0:0|0:0,0:0:0:0:
27,102,88060,2,0,P|67:119|96:151,1,88,8|0,0:0|0:0,0:0:0:0:
44,318,88376,2,0,L|56:230,1,88,2|2,0:0|0:0,0:0:0:0:
56,230,88613,1,8,0:0:0:0:
56,230,88692,1,8,0:0:0:0:
210,136,88850,6,0,L|187:310,1,176,2|2,0:0|0:0,0:0:0:0:
291,114,89323,2,0,P|269:76|231:53,1,88,8|0,0:0|0:0,0:0:0:0:
286,225,89639,2,0,L|377:229,1,88,2|2,0:0|0:0,0:0:0:0:
445,119,89955,1,8,0:0:0:0:
490,332,90113,6,0,L|484:245,1,88,2|2,0:0|0:0,0:0:0:0:
484,245,90350,1,2,0:0:0:0:
484,245,90428,1,2,0:0:0:0:
371,52,90587,2,0,L|366:166,1,88,8|0,0:0|0:0,0:0:0:0:
353,311,90902,1,2,0:0:0:0:
455,146,91060,1,2,0:0:0:0:
490,332,91218,1,8,0:0:0:0:
373,228,91376,6,0,B|311:207|311:207|199:231,1,176,6|2,0:0|0:0,0:0:0:0:
37,259,91850,1,8,0:0:0:0:
171,314,92008,1,0,0:0:0:0:
119,155,92165,2,0,L|118:242,1,88,2|2,0:0|0:0,0:0:0:0:
221,133,92481,1,8,0:0:0:0:
92,72,92639,6,0,P|55:96|34:134,1,88,2|0,0:0|0:0,0:0:0:0:
221,133,92955,1,2,0:0:0:0:
208,317,93113,2,0,L|202:229,1,88,8|0,0:0|0:0,0:0:0:0:
189,40,93429,1,2,0:0:0:0:
232,36,93507,1,0,0:0:0:0:
273,52,93586,1,8,0:0:0:0:
303,84,93665,1,8,0:0:0:0:
315,125,93744,1,8,0:0:0:0:
118,242,93902,6,0,L|119:155,1,88,2|0,0:0|0:0,0:0:0:0:
277,212,94218,1,2,0:0:0:0:
184,339,94376,2,0,P|140:340|97:350,1,88,8|0,0:0|0:0,0:0:0:0:
204,167,94692,1,2,0:0:0:0:
265,345,94850,1,2,0:0:0:0:
361,169,95008,1,8,0:0:0:0:
418,351,95165,6,0,P|427:263|457:181,1,176,2|8,0:0|0:0,0:0:0:0:
195,254,95639,1,8,0:0:0:0:
363,31,95797,1,8,0:0:0:0:
363,31,96113,6,0,L|302:24,1,44,2|2,0:0|0:0,0:0:0:0:
176,5,96271,1,8,0:0:0:0:
275,134,96429,1,2,0:0:0:0:
93,204,96587,6,0,L|3:193,1,79.1999975830079,12|2,0:1|0:3,0:0:0:0:
189,87,96902,2,0,P|195:125|190:164,1,79.1999975830079,8|2,0:0|0:3,0:0:0:0:
260,291,97218,2,0,P|254:251|261:213,1,79.1999975830079,8|2,0:1|0:3,0:0:0:0:
400,189,97534,1,8,0:0:0:0:
339,254,97692,1,2,0:3:0:0:
357,113,97850,6,0,P|397:106|447:111,1,79.1999975830079,8|2,0:1|0:3,0:0:0:0:
421,274,98165,2,0,P|396:315|369:334,1,79.1999975830079,8|2,0:0|0:3,0:0:0:0:
261,213,98481,1,8,0:1:0:0:
205,358,98639,1,2,0:3:0:0:
205,358,98718,1,2,0:3:0:0:
205,358,98797,2,0,P|164:348|127:343,1,79.1999975830079,8|2,0:0|0:3,0:0:0:0:
86,148,99113,6,0,P|105:183|115:222,1,79.1999975830079,8|2,0:1|0:3,0:0:0:0:
114,220,99350,1,0,0:0:0:0:
114,220,99429,1,8,0:0:0:0:
1,105,99587,1,2,0:3:0:0:
184,135,99744,2,8,L|262:124,1,79.1999975830079,8|2,0:1|0:3,0:1:0:0:
339,254,100060,2,0,P|336:214|346:176,1,79.1999975830079,8|2,0:0|0:3,0:0:0:0:
433,63,100376,5,8,0:1:0:0:
415,223,100534,1,2,0:3:0:0:
347,73,100692,1,8,0:0:0:0:
492,190,100850,1,2,0:3:0:0:
339,254,101008,2,0,L|260:247,1,79.1999975830079,8|2,0:1|0:3,0:0:0:0:
98,121,101323,2,0,P|154:132|187:179,1,118.799996374512,8|0,0:0|0:0,0:0:0:0:
108,203,101639,6,0,B|134:291|77:272|106:361,1,158.399995166016,6|8,0:0|0:0,0:0:0:0:
29,242,102113,1,0,0:0:0:0:
183,320,102271,2,0,L|272:327,1,79.1999975830079,2|2,0:0|0:0,0:0:0:0:
187,179,102587,1,8,0:0:0:0:
393,190,102744,6,0,P|363:263|348:340,1,158.399995166016,6|2,0:0|0:0,0:0:0:0:
266,150,103218,1,8,0:0:0:0:
484,182,103376,1,6,0:0:0:0:
484,182,103692,2,0,L|478:134,1,39.5999987915039,2|2,0:0|0:0,0:0:0:0:
467,50,103850,1,8,0:0:0:0:
266,150,104008,1,2,0:0:0:0:
268,29,104165,5,2,0:0:0:0:
316,38,104243,1,0,0:0:0:0:
355,67,104322,1,8,0:0:0:0:
379,110,104401,1,8,0:0:0:0:
383,159,104481,2,0,L|372:212,1,39.5999987915039,8|8,0:0|0:0,0:0:0:0:
218,284,104639,1,8,0:0:0:0:
218,284,104955,6,0,L|202:235,1,39.5999987915039,8|8,0:3|0:3,0:0:0:0:
292,171,105113,2,0,L|299:214,1,39.5999987915039,4|4,0:3|0:3,0:0:0:0:
132,175,105271,2,0,L|161:144,1,39.5999987915039,8|8,0:0|0:0,0:0:0:0:
286,89,105429,5,2,0:0:0:0:
323,103,105507,1,0,0:0:0:0:
362,99,105586,1,8,0:0:0:0:
395,77,105665,1,8,0:0:0:0:
428,55,105744,1,8,0:0:0:0:
467,51,105823,1,8,0:0:0:0:
504,65,105902,6,0,L|482:232,1,158.399995166016,6|2,0:0|0:0,0:0:0:0:
398,349,106376,1,12,0:3:0:0:
374,198,106534,1,4,0:3:0:0:
227,270,106692,6,0,P|265:282|305:280,1,79.1999975830079,6|0,0:1|0:0,0:0:0:0:
261,75,107007,1,8,0:0:0:0:
275,197,107165,1,4,0:3:0:0:
163,108,107323,2,0,P|164:68|169:29,1,79.1999975830079,4|2,0:3|0:0,0:0:0:0:
95,201,107639,2,0,P|107:239|113:286,1,79.1999975830079,8|4,0:0|0:3,0:0:0:0:
0,107,107955,5,4,0:3:0:0:
152,132,108113,1,2,0:0:0:0:
25,263,108270,1,8,0:0:0:0:
152,132,108428,1,4,0:3:0:0:
202,298,108586,2,0,L|199:216,1,79.1999975830079,4|2,0:3|0:0,0:0:0:0:
126,352,108902,1,8,0:0:0:0:
296,249,109060,1,2,0:0:0:0:
296,249,109139,1,2,0:0:0:0:
296,249,109218,5,8,0:0:0:0:
126,108,109376,1,2,0:0:0:0:
353,158,109534,5,8,0:0:0:0:
124,197,109692,1,2,0:0:0:0:
394,82,109850,5,8,0:0:0:0:
255,320,110008,1,2,0:0:0:0:
126,24,110165,1,8,0:0:0:0:
121,281,110323,6,0,L|120:366,1,79.1999975830079,6|0,0:1|0:0,0:0:0:0:
214,157,110639,1,2,0:0:0:0:
214,157,110718,1,2,0:0:0:0:
214,157,110797,1,8,0:0:0:0:
43,239,110955,1,0,0:0:0:0:
264,242,111113,6,0,L|316:234,2,52.7999983886719,8|8|2,0:0|0:0|0:0,0:0:0:0:
388,283,111429,6,0,L|440:290,2,52.7999983886719,8|4|8,0:3|0:3|0:1,0:0:0:0:
504,226,111744,6,0,B|508:199|527:183|527:183|521:158|498:127|455:121|418:139|418:139|377:166|324:174|295:124|286:86|302:53|339:29,1,396.000015106202,12|0,0:1|0:0,0:0:0:0:
70,192,112850,6,0,B|123:214|170:181|170:181|176:236|231:260,1,211.199993554688,6|2,0:1|0:3,0:0:0:0:
105,65,113323,1,10,0:0:0:0:
122,278,113481,1,2,0:3:0:0:
261,45,113639,1,10,0:1:0:0:
171,182,113797,1,2,0:3:0:0:
388,215,113955,1,10,0:0:0:0:
261,45,114113,6,0,P|212:37|155:55,1,105.599996777344,2|8,0:3|0:1,0:0:0:0:
233,308,114429,1,2,0:3:0:0:
309,121,114586,1,10,0:0:0:0:
17,294,114744,6,0,L|126:277,1,105.599996777344,2|8,0:3|0:1,0:0:0:0:
308,243,115060,1,2,0:3:0:0:
83,157,115218,1,10,0:0:0:0:
233,308,115376,1,2,0:3:0:0:
325,66,115534,6,0,B|274:57|274:57|224:77,1,105.599996777344,6|2,0:0|0:3,0:0:0:0:
379,300,115850,2,0,P|396:252|384:201,1,105.599996777344,8|2,0:0|0:3,0:0:0:0:
83,157,116165,1,10,0:1:0:0:
284,150,116323,1,2,0:3:0:0:
121,277,116481,1,10,0:0:0:0:
95,52,116639,6,0,P|88:107|82:158,1,105.599996777344,2|8,0:3|0:1,0:0:0:0:
277,237,116955,1,2,0:3:0:0:
192,84,117113,1,10,0:0:0:0:
276,326,117271,2,0,P|327:309|389:300,1,105.599996777344,2|10,0:3|0:1,0:0:0:0:
109,257,117586,2,0,P|57:239|5:235,1,105.599996777344,2|8,0:3|0:0,0:0:0:0:
277,237,117902,1,2,0:3:0:0:
194,48,118060,6,0,B|334:19|334:19|356:55|388:85,1,211.199993554688,10|8,0:1|0:0,0:0:0:0:
204,185,118534,1,2,0:3:0:0:
446,106,118692,2,0,P|439:158|436:211,1,105.599996777344,10|2,0:1|0:3,0:0:0:0:
194,48,119008,1,10,0:0:0:0:
127,259,119165,6,0,P|75:267|23:260,1,105.599996777344,2|8,0:3|0:1,0:0:0:0:
111,78,119481,1,2,0:3:0:0:
223,282,119639,1,10,0:0:0:0:
323,83,119797,2,0,P|378:82|428:90,1,105.599996777344,2|8,0:3|0:1,0:0:0:0:
245,299,120113,2,0,P|301:298|352:291,1,105.599996777344,2|8,0:3|0:0,0:0:0:0:
84,172,120429,1,2,0:3:0:0:
316,197,120587,6,0,L|264:195,1,52.7999983886719,10|0,0:1|0:0,0:0:0:0:
74,262,120745,2,0,L|127:259,1,52.7999983886719,10|0,0:1|0:0,0:0:0:0:
183,129,120903,1,8,0:0:0:0:
370,326,121060,6,0,P|449:321|396:236,1,198.000007553101,6|0,0:0|0:0,0:0:0:0:
417,235,121376,1,10,0:1:0:0:
208,319,121534,1,8,0:0:0:0:
346,88,121693,6,0,B|292:104|251:69|251:69|240:120|175:130,1,198.000007553101,6|0,0:0|0:0,0:0:0:0:
86,100,122009,1,8,0:0:0:0:
94,125,122088,1,8,0:0:0:0:
95,151,122166,1,8,0:0:0:0:
87,178,122245,1,8,0:0:0:0:
73,202,122324,1,8,0:0:0:0:
52,220,122403,1,8,0:0:0:0:
26,231,122482,5,8,0:3:0:0:
60,196,122560,1,8,0:0:0:0:
107,186,122639,1,8,0:0:0:0:
153,204,122718,1,8,0:0:0:0:
183,243,122797,1,8,0:0:0:0:
212,281,122877,1,8,0:3:0:0:
258,297,122956,1,4,0:3:0:0:
305,289,123034,1,4,0:3:0:0:
341,254,123113,6,0,B|440:225|440:225|500:252|466:309,1,198.000007553101,12|0,0:1|0:0,0:0:0:0:
470,301,123429,1,8,0:0:0:0:
262,215,123587,1,2,0:3:0:0:
489,119,123745,1,10,0:1:0:0:
387,334,123903,1,2,0:3:0:0:
326,69,124061,1,10,0:0:0:0:
184,256,124219,6,0,P|176:204|193:154,1,105.599996777344,2|8,0:3|0:1,0:0:0:0:
326,69,124535,1,2,0:3:0:0:
109,16,124693,1,10,0:0:0:0:
262,215,124851,6,0,P|314:215|365:229,1,105.599996777344,2|8,0:3|0:1,0:0:0:0:
88,291,125166,1,2,0:3:0:0:
275,136,125324,1,10,0:0:0:0:
52,76,125482,1,2,0:3:0:0:
255,320,125639,6,0,L|262:210,1,105.599996777344,6|2,0:0|0:3,0:0:0:0:
267,24,125955,2,0,P|216:38|181:76,1,105.599996777344,8|2,0:0|0:3,0:0:0:0:
391,330,126271,1,8,0:1:0:0:
382,40,126429,1,10,0:1:0:0:
174,255,126586,1,10,0:0:0:0:
488,132,126744,6,0,B|459:115|416:115|416:115|382:131|382:131|343:110|299:111,1,198.000007553101,12|10,0:1|0:1,0:0:0:0:
287,113,127060,1,10,0:1:0:0:
441,250,127218,1,8,0:0:0:0:
177,38,127376,6,0,P|166:89|159:142,1,105.599996777344,6|0,0:0|0:0,0:0:0:0:
270,338,127692,1,4,0:3:0:0:
270,338,127771,1,4,0:3:0:0:
270,338,127850,2,0,P|272:284|281:214,1,105.599996777344,8|8,0:0|0:1,0:0:0:0:
453,116,128165,5,8,0:0:0:0:
247,144,128323,1,8,0:1:0:0:
453,274,128481,5,10,0:0:0:0:
314,60,128639,1,8,0:1:0:0:
485,195,128797,5,10,0:0:0:0:
192,216,128955,1,8,0:1:0:0:
379,5,129113,1,10,0:0:0:0:
366,297,129271,5,10,0:1:0:0:
366,297,129350,1,8,0:1:0:0:
366,297,129429,1,8,0:0:0:0:
225,43,129586,1,10,0:1:0:0:
249,310,129744,1,8,0:0:0:0:
409,107,129902,5,10,0:1:0:0:
409,107,129981,1,8,0:1:0:0:
409,107,130060,1,8,0:0:0:0:
262,330,130218,1,10,0:1:0:0:
145,106,130376,5,8,0:0:0:0:
365,186,130534,1,8,0:1:0:0:
365,186,130613,1,8,0:1:0:0:
365,186,130692,5,8,0:0:0:0:
149,253,130850,1,8,0:1:0:0:
194,17,131007,5,10,0:0:0:0:
259,299,131165,1,10,0:1:0:0:
64,26,131323,5,10,0:0:0:0:
9,346,131481,1,8,0:1:0:0:
64,26,131639,1,10,0:0:0:0:
365,186,131797,6,0,B|300:200|300:200|270:183|270:183|213:193,1,158.399995166016,6|0,0:0|0:0,0:0:0:0:
133,164,132113,6,0,P|117:130|115:93,1,74.8000014266968,8|8,0:0|0:0,0:0:0:0:
260,73,132271,6,0,P|272:37|295:14,1,70.4,10|10,0:0|0:0,0:0:0:0:
404,82,132429,6,0,P|437:66|474:64,1,66.0000025177003,10|10,0:1|0:1,0:0:0:0:
487,238,132587,5,8,0:0:0:0:
447,268,132665,1,8,0:0:0:0:
400,274,132744,1,4,0:3:0:0:
355,252,132823,1,8,0:1:0:0:
329,212,132902,1,8,0:0:0:0:
303,171,132981,1,8,0:0:0:0:
258,150,133060,1,8,0:0:0:0:
210,156,133139,1,8,0:0:0:0:
170,186,133218,6,0,P|105:218|37:196,1,145.200004431152,12|0,0:1|0:0,0:0:0:0:
10,107,133534,2,0,P|57:102|103:127,1,96.8000029541017,8|2,0:0|0:0,0:0:0:0:
228,333,133850,2,0,L|245:237,1,96.8000029541017,8|0,0:1|0:0,0:0:0:0:
404,82,134165,2,0,L|421:177,1,96.8000029541017,8|2,0:0|0:0,0:0:0:0:
412,256,134402,1,2,0:0:0:0:
425,264,134481,5,10,0:1:0:0:
377,265,134559,1,0,0:0:0:0:
336,240,134638,1,2,0:0:0:0:
313,198,134717,1,2,0:0:0:0:
315,150,134796,1,8,0:0:0:0:
317,102,134876,1,0,0:0:0:0:
295,60,134955,1,2,0:0:0:0:
254,36,135034,1,2,0:0:0:0:
207,33,135113,6,0,L|202:84,1,48.4000014770508,10|0,0:1|0:0,0:0:0:0:
163,182,135271,1,2,0:0:0:0:
163,182,135351,1,2,0:0:0:0:
163,182,135429,6,0,L|156:241,1,48.4000014770508,10|2,0:0|0:0,0:0:0:0:
309,346,135587,2,0,L|316:298,1,48.4000014770508,10|0,0:1|0:0,0:0:0:0:
140,307,135744,5,12,0:0:0:0:
329,198,135902,1,8,0:1:0:0:
138,48,136060,1,8,0:3:0:0:
355,202,136218,5,8,0:3:0:0:
154,143,136376,1,4,0:3:0:0:
359,88,136534,5,10,0:0:0:0:
83,216,136692,1,8,0:1:0:0:
451,145,136850,6,0,L|433:353,1,193.600005908203,12|8,0:0|0:1,0:0:0:0:
349,348,137244,1,8,0:1:0:0:
352,324,137323,1,8,0:0:0:0:
259,66,137481,5,8,0:1:0:0:
256,90,137560,1,8,0:1:0:0:
253,114,137639,1,4,0:3:0:0:
101,346,137797,5,8,0:0:0:0:
60,320,137876,1,8,0:0:0:0:
40,277,137955,1,8,0:0:0:0:
47,230,138034,1,8,0:0:0:0:
78,194,138113,1,8,0:0:0:0:
124,181,138192,1,8,0:0:0:0:
170,195,138271,6,0,P|204:206|234:204,1,64.5333353027344,12|0,0:1|0:0,0:0:0:0:
337,44,138481,6,0,P|382:46|422:65,1,88.0000033569337,2|8,0:0|0:0,0:0:0:0:
443,242,138692,6,0,P|446:285|434:328,1,88.0000033569337,2|0,0:0|0:0,0:0:0:0:
232,204,138902,6,0,P|229:161|241:114,1,88.0000033569337,10|0,0:1|0:0,0:0:0:0:
424,150,139112,6,0,P|469:152|509:171,1,88.0000033569337,2|8,0:0|0:0,0:0:0:0:
310,344,139323,6,0,L|209:338,1,88.0000033569337,2|0,0:0|0:0,0:0:0:0:
133,107,139534,6,0,L|239:117,1,105.599996777344,10|10,0:1|0:1,0:0:0:0:
319,122,139771,1,2,0:0:0:0:
319,122,139850,2,0,L|315:59,1,52.7999983886719,10|2,0:0|0:0,0:0:0:0:
146,0,140008,1,2,0:0:0:0:
169,194,140165,5,8,0:1:0:0:
204,219,140243,1,0,0:0:0:0:
246,229,140322,1,2,0:0:0:0:
289,222,140401,1,2,0:0:0:0:
326,198,140480,1,8,0:0:0:0:
350,161,140559,1,0,0:0:0:0:
358,118,140639,2,0,L|419:127,1,52.7999983886719,2|2,0:0|0:0,0:0:0:0:
491,259,140797,5,10,0:1:0:0:
429,251,140875,1,0,0:0:0:0:
368,244,140954,1,8,0:0:0:0:
307,236,141033,1,8,0:0:0:0:
246,229,141112,1,8,0:0:0:0:
185,222,141191,1,8,0:0:0:0:
124,214,141271,6,0,B|139:103,1,105.599996777344,6|0,0:0|0:0,0:0:0:0:
109,319,141587,1,8,0:1:0:0:
37,114,141744,1,8,0:0:0:0:
241,344,141902,6,0,B|273:341|308:330|308:330|332:341|332:341|371:332|408:327,1,158.399995166016,12|0,0:1|0:0,0:0:0:0:
476,272,142218,1,8,0:1:0:0:
459,251,142297,1,8,0:1:0:0:
445,222,142376,1,8,0:0:0:0:
439,185,142455,1,8,0:0:0:0:
446,144,142533,1,8,0:0:0:0:
471,104,142612,1,8,0:0:0:0:
512,69,142692,5,8,0:3:0:0:
481,115,142770,1,8,0:3:0:0:
429,136,142849,1,8,0:3:0:0:
374,122,142928,1,8,0:3:0:0:
339,73,143007,5,4,0:3:0:0:
303,24,143087,1,4,0:3:0:0:
243,9,143166,1,8,0:1:0:0:
188,30,143245,1,8,0:1:0:0:
155,92,143323,6,2,B|15:71|15:71|63:112,1,198.000007553101,12|2,0:1|0:3,0:1:0:0:
57,107,143639,1,8,0:0:0:0:
278,295,143797,2,2,B|293:247|293:247|271:185,1,105.599996777344,2|8,0:3|0:1,0:1:0:0:
84,246,144113,1,2,0:3:0:0:
250,98,144271,1,8,0:0:0:0:
270,315,144429,1,2,0:3:0:0:
350,128,144587,6,0,P|354:83|326:26,1,105.599996777344,8|2,0:1|0:3,0:0:0:0:
210,248,144902,1,8,0:0:0:0:
432,276,145060,1,2,0:3:0:0:
198,170,145218,2,2,B|161:161|161:161|130:178|130:178|88:162|46:175,1,158.399995166016,8|0,0:1|0:0,0:1:0:0:
34,183,145534,2,0,L|19:72,1,105.599996777344,8|2,0:0|0:3,0:0:0:0:
116,18,145771,1,2,0:0:0:0:
115,18,145850,6,0,P|164:2|220:18,1,105.599996777344,6|2,0:0|0:3,0:0:0:0:
440,129,146165,2,0,P|390:144|334:128,1,105.599996777344,8|2,0:0|0:3,0:0:0:0:
168,83,146481,2,0,L|161:193,1,105.599996777344,8|2,0:1|0:3,0:0:0:0:
355,341,146797,2,0,L|348:235,1,105.599996777344,8|2,0:0|0:3,0:0:0:0:
77,293,147113,5,8,0:1:0:0:
264,204,147271,1,2,0:3:0:0:
56,174,147429,1,8,0:0:0:0:
207,371,147587,6,2,L|194:259,1,105.599996777344,2|8,0:3|0:1,0:1:0:0:
194,266,147823,1,0,0:0:0:0:
194,266,147902,1,2,0:1:0:0:
293,75,148060,1,8,0:0:0:0:
388,273,148218,2,0,L|318:279,1,52.7999983886719,10|8,0:1|0:1,0:1:0:0:
66,292,148376,5,12,0:0:0:0:
289,189,148534,1,8,0:1:0:0:
56,174,148692,5,10,0:0:0:0:
286,282,148850,1,10,0:1:0:0:
53,72,149008,5,8,0:0:0:0:
158,342,149165,1,10,0:1:0:0:
158,342,149244,1,8,0:1:0:0:
158,342,149323,1,8,0:0:0:0:
313,99,149481,1,10,0:1:0:0:
251,365,149639,5,8,0:0:0:0:
137,124,149797,1,10,0:1:0:0:
137,124,149876,1,8,0:1:0:0:
137,124,149955,5,8,0:0:0:0:
440,159,150113,2,0,L|377:149,1,52.7999983886719,10|8,0:1|0:1,0:0:0:0:
117,209,150271,5,8,0:0:0:0:
371,28,150429,1,10,0:1:0:0:
83,34,150587,5,8,0:0:0:0:
440,159,150744,1,10,0:1:0:0:
91,302,150902,5,12,0:0:0:0:
91,302,150981,1,0,0:0:0:0:
91,302,151060,2,0,L|80:117,1,176,8|8,0:1|0:1,0:0:0:0:
170,28,151534,6,0,P|180:61|182:89,1,58.6666666666667,8|8,0:0|0:0,0:0:0:0:
254,171,151744,6,0,P|257:141|266:114,1,58.6666666666667,8|8,0:1|0:0,0:0:0:0:
347,47,151955,6,0,P|350:76|359:103,1,58.6666666666667,8|8,0:0|0:1,0:0:0:0:
512,154,152165,6,0,P|482:157|453:165,1,58.6666666666667,4|8,0:3|0:3,0:0:0:0:
374,230,152376,6,0,P|404:233|433:241,1,58.6666666666667,8|8,0:3|0:3,0:0:0:0:
479,315,152587,6,0,P|449:318|420:326,1,58.6666666666667,4|8,0:3|0:1,0:0:0:0:
274,343,152797,6,0,P|154:277|287:246,1,352,6|0,0:0|0:0,0:0:0:0:
114,114,158481,6,0,P|157:109|201:107,1,88,2|0,0:0|0:0,0:0:0:0:
297,146,158955,1,0,0:0:0:0:
279,9,159113,2,0,L|285:61,2,44,2|0|2,0:0|0:0|0:0,0:0:0:0:
377,82,159587,2,0,L|371:30,1,44,2|0,0:0|0:0,0:0:0:0:
467,78,159902,2,0,L|473:130,2,44,2|2|2,0:0|0:0|0:0,0:0:0:0:
400,178,160376,2,0,L|394:230,1,44,2|0,0:0|0:0,0:0:0:0:
483,348,160692,1,2,0:0:0:0:
473,259,160850,1,2,0:0:0:0:
324,340,161008,5,6,0:0:0:0:
274,336,161086,1,0,0:0:0:0:
225,333,161165,1,8,0:0:0:0:
175,329,161244,1,8,0:0:0:0:
126,326,161323,2,0,L|78:320,1,39.5999987915039,8|8,0:0|0:0,0:0:0:0:
284,142,161481,1,8,0:0:0:0:
284,142,161797,6,0,L|292:221,1,79.1999975830079,8|0,0:1|0:0,0:0:0:0:
166,38,162113,1,8,0:0:0:0:
171,53,162191,1,8,0:0:0:0:
174,68,162271,5,8,0:0:0:0:
215,35,162349,1,8,0:0:0:0:
266,20,162428,1,8,0:3:0:0:
318,26,162507,1,4,0:3:0:0:
364,52,162586,1,8,0:0:0:0:
396,93,162665,1,8,0:0:0:0:
410,144,162744,6,0,L|400:272,1,118.799996374512,6|0,0:0|0:0,0:0:0:0:
400,283,163060,1,8,0:1:0:0:
203,145,163218,1,8,0:3:0:0:
205,184,163296,1,8,0:3:0:0:
208,223,163375,1,4,0:3:0:0:
211,263,163454,1,4,0:3:0:0:
214,302,163534,6,0,L|120:283,1,88,6|2,0:1|0:0,0:0:0:0:
203,145,163850,2,0,L|301:125,1,88,8|4,0:0|0:3,0:0:0:0:
289,127,164087,1,4,0:3:0:0:
289,127,164165,1,4,0:3:0:0:
162,36,164323,1,2,0:0:0:0:
116,191,164481,1,8,0:0:0:0:
257,56,164639,5,4,0:3:0:0:
257,56,164718,1,4,0:3:0:0:
257,56,164797,2,0,P|301:49|350:69,1,88,4|2,0:3|0:0,0:0:0:0:
202,176,165113,2,0,L|101:193,1,88,8|4,0:0|0:3,0:0:0:0:
115,190,165350,1,4,0:3:0:0:
115,190,165429,1,4,0:3:0:0:
317,219,165587,2,0,L|287:185,1,44,2|2,0:0|0:0,0:0:0:0:
183,91,165744,1,8,0:0:0:0:
222,296,165902,2,0,L|239:249,1,44,2|2,0:0|0:0,0:0:0:0:
341,62,166060,5,12,0:0:0:0:
115,190,166218,1,2,0:0:0:0:
406,171,166376,5,8,0:0:0:0:
152,16,166534,1,2,0:0:0:0:
370,45,166692,5,8,0:0:0:0:
70,117,166850,1,2,0:0:0:0:
317,219,167008,1,8,0:0:0:0:
70,117,167165,6,0,L|80:293,1,176,6|2,0:1|0:0,0:0:0:0:
79,292,167560,1,2,0:0:0:0:
79,292,167639,1,8,0:0:0:0:
202,176,167797,1,2,0:0:0:0:
352,343,167955,5,8,0:0:0:0:
300,55,168113,1,8,0:0:0:0:
120,211,168271,6,0,L|66:202,1,44,8|2,0:0|0:0,0:0:0:0:
346,251,168429,2,0,L|400:242,1,44,10|2,0:0|0:0,0:0:0:0:
194,55,168587,6,0,L|203:153,1,99.0000037765504,10|0,0:1|0:0,0:0:0:0:
239,230,168902,6,0,P|271:206|287:170,1,79.1999975830079,2|0,0:0|0:0,0:0:0:0:
371,150,169218,6,0,P|395:152|427:155,1,52.8,2|0,0:0|0:0,0:0:0:0:
509,184,169534,5,2,0:0:0:0:
508,197,169612,1,2,0:0:0:0:
507,210,169691,1,2,0:0:0:0:
506,223,169770,1,2,0:0:0:0:
506,235,169850,6,0,B|467:243|467:243|447:284|447:284|394:273|394:273|361:320|294:324|230:278|248:193|289:169,1,396.000015106202,2|2,0:0|0:0,0:0:0:0:
340,85,170955,6,0,B|282:48|221:89|221:89|210:107|210:107|157:142|91:97,1,264.000010070801,6|0,0:1|0:0,0:0:0:0:
155,27,171744,1,8,0:1:0:0:
155,27,171902,1,10,0:1:0:0:
36,161,172060,1,10,0:0:0:0:
229,225,172218,6,2,P|145:207|78:259,1,176,6|10,0:0|0:1,0:0:0:0:
78,259,172613,1,8,0:1:0:0:
78,259,172692,1,10,0:0:0:0:
185,115,172850,5,8,0:0:0:0:
185,115,172929,1,8,0:0:0:0:
185,115,173008,1,8,0:0:0:0:
168,306,173165,1,8,0:3:0:0:
267,139,173323,5,4,0:3:0:0:
304,305,173481,1,8,0:1:0:0:
361,199,173639,6,0,B|405:253|431:332|381:378|322:375|296:336|304:286,1,264.000010070801,12|8,0:1|0:1,0:0:0:0:
267,139,174429,1,10,0:0:0:0:
510,198,174587,1,10,0:0:0:0:
304,305,174744,6,0,L|211:293,1,88,6|0,0:0|0:0,0:0:0:0:
58,301,175060,1,8,0:0:0:0:
61,279,175138,1,8,0:0:0:0:
64,257,175218,6,0,L|57:193,1,58.6666666666667,8|8,0:0|0:0,0:0:0:0:
157,80,175429,6,0,L|150:138,1,58.6666666666667,8|8,0:0|0:3,0:0:0:0:
259,223,175639,6,0,P|288:222|316:214,1,58.6666666666667,8|4,0:3|0:3,0:0:0:0:
408,160,175850,6,0,P|437:160|465:168,2,58.6666666666667,4|8|0,0:3|0:1|0:0,0:0:0:0:
414,333,176165,6,0,P|418:284|424:231,1,96.8000029541017,12|0,0:0|0:0,0:0:0:0:
318,65,176481,5,8,0:0:0:0:
174,226,176639,1,8,0:0:0:0:
216,22,176797,5,8,0:0:0:0:
286,281,176955,1,8,0:0:0:0:
447,81,177113,1,8,0:0:0:0:
185,115,177271,6,0,L|80:126,1,96.8000029541017,6|0,0:0|0:0,0:0:0:0:
330,203,177587,1,2,0:0:0:0:
330,203,177665,1,2,0:0:0:0:
330,203,177744,2,0,P|333:148|338:102,1,96.8000029541017,12|2,0:0|0:0,0:0:0:0:
206,305,178060,5,12,0:0:0:0:
416,230,178218,1,2,0:0:0:0:
229,208,178376,5,8,0:0:0:0:
422,268,178534,1,4,0:3:0:0:
325,58,178692,5,8,0:0:0:0:
283,33,178770,1,8,0:3:0:0:
236,31,178850,1,4,0:3:0:0:
193,52,178929,1,4,0:3:0:0:
166,92,179008,2,0,L|117:96,1,48.4000014770508,8|0,0:1|0:0,0:0:0:0:
35,218,179165,5,8,0:0:0:0:
84,216,179243,1,8,0:3:0:0:
132,213,179322,1,4,0:3:0:0:
180,210,179401,1,4,0:3:0:0:
229,208,179481,2,0,L|224:268,1,48.4000014770508,8|4,0:1|0:3,0:0:0:0:
355,332,179639,2,0,L|351:283,1,48.4000014770508,8|8,0:3|0:3,0:0:0:0:
295,130,179797,2,0,L|299:82,1,48.4000014770508,8|4,0:1|0:3,0:0:0:0:
429,224,179955,5,8,0:0:0:0:
205,111,180113,1,8,0:1:0:0:
448,67,180271,5,8,0:0:0:0:
229,208,180429,1,8,0:1:0:0:
342,19,180587,6,0,L|337:67,1,48.4000014770508,8|8,0:3|0:0,0:0:0:0:
205,111,180744,2,0,L|200:62,1,48.4000014770508,8|8,0:0|0:0,0:0:0:0:
421,45,180902,6,0,L|416:93,1,48.4000014770508,8|8,0:0|0:0,0:0:0:0:
128,159,181060,2,0,L|123:110,1,48.4000014770508,8|8,0:0|0:0,0:0:0:0:
101,77,181534,6,0,B|107:126|107:126|103:143|103:143|111:159|111:159|117:211,1,132.000005035401,6|2,0:1|0:3,0:0:0:0:
251,42,181850,1,10,0:1:0:0:
17,154,182008,1,2,0:3:0:0:
276,213,182166,1,10,0:0:0:0:
106,311,182324,6,0,L|116:205,1,105.599996777344,2|8,0:3|0:1,0:0:0:0:
355,233,182640,1,2,0:3:0:0:
196,357,182798,1,10,0:0:0:0:
331,145,182956,6,0,P|383:148|434:179,1,105.599996777344,2|8,0:3|0:1,0:0:0:0:
193,241,183271,1,2,0:3:0:0:
342,57,183429,1,10,0:0:0:0:
294,298,183587,1,2,0:3:0:0:
147,56,183745,6,0,P|97:56|31:75,1,105.599996777344,6|2,0:0|0:3,0:0:0:0:
331,145,184061,2,0,P|383:143|435:131,1,105.599996777344,8|2,0:0|0:3,0:0:0:0:
110,168,184377,1,8,0:1:0:0:
376,307,184535,1,10,0:1:0:0:
304,30,184692,1,10,0:0:0:0:
94,269,184850,6,0,B|204:237|170:327|278:305,1,198.000007553101,12|10,0:1|0:1,0:0:0:0:
292,297,185165,1,10,0:1:0:0:
172,79,185323,1,8,0:0:0:0:
385,226,185481,6,0,L|497:212,1,105.599996777344,6|0,0:0|0:0,0:0:0:0:
189,346,185797,1,4,0:3:0:0:
189,346,185876,1,4,0:3:0:0:
189,346,185955,2,0,P|186:291|206:243,1,105.599996777344,8|8,0:0|0:1,0:0:0:0:
197,61,186271,5,8,0:0:0:0:
217,251,186429,1,8,0:1:0:0:
95,109,186587,5,10,0:0:0:0:
324,152,186745,1,8,0:1:0:0:
108,10,186903,5,10,0:0:0:0:
66,268,187061,1,8,0:1:0:0:
197,61,187219,1,10,0:0:0:0:
323,335,187377,5,10,0:1:0:0:
323,335,187456,1,8,0:1:0:0:
323,335,187535,1,8,0:0:0:0:
197,61,187692,1,10,0:1:0:0:
436,161,187850,1,8,0:0:0:0:
150,228,188008,5,10,0:1:0:0:
150,228,188087,1,8,0:1:0:0:
150,228,188166,1,8,0:0:0:0:
311,47,188324,1,10,0:1:0:0:
403,287,188482,5,8,0:0:0:0:
197,61,188640,1,8,0:1:0:0:
197,61,188719,1,8,0:1:0:0:
197,61,188798,5,8,0:0:0:0:
269,333,188956,1,8,0:1:0:0:
311,47,189113,5,10,0:0:0:0:
273,362,189271,1,10,0:1:0:0:
406,32,189429,5,10,0:0:0:0:
112,334,189587,1,8,0:1:0:0:
422,303,189744,5,10,0:0:0:0:
74,64,189902,2,0,L|88:186,1,105.599996777344,12|0,0:1|0:0,0:0:0:0:
241,331,190218,5,8,0:0:0:0:
291,319,190296,1,8,0:0:0:0:
321,277,190375,1,8,0:0:0:0:
315,226,190454,1,8,0:0:0:0:
277,192,190535,1,8,0:3:0:0:
225,192,190613,1,4,0:3:0:0:
187,227,190691,5,12,0:0:0:0:
494,281,190850,1,8,0:0:0:0:
494,281,191323,5,6,0:1:0:0:
298,86,191481,1,0,0:0:0:0:
481,98,191639,5,8,0:0:0:0:
249,270,191797,1,8,0:1:0:0:
488,201,191955,5,8,0:0:0:0:
198,121,192113,1,10,0:1:0:0:
465,0,192271,1,10,0:0:0:0:
315,359,192429,6,0,L|183:345,1,132.000005035401,6|0,0:0|0:0,0:0:0:0:
404,61,192744,1,10,0:1:0:0:
467,308,192902,1,10,0:0:0:0:
137,273,193060,1,10,0:1:0:0:
137,273,193139,1,8,0:1:0:0:
137,273,193218,2,0,L|-9:258,1,132.000005035401,8|10,0:0|0:1,0:0:0:0:
429,80,193534,2,0,B|451:142|451:142|431:215,1,132.000005035401,10|10,0:0|0:1,0:0:0:0:
61,92,193850,5,12,0:1:0:0:
289,236,194008,1,8,0:1:0:0:
66,315,194165,5,8,0:0:0:0:
303,125,194323,1,8,0:1:0:0:
18,233,194481,5,8,0:0:0:0:
374,330,194639,1,10,0:1:0:0:
197,9,194797,1,10,0:0:0:0:
122,371,194955,6,0,L|106:232,1,132.000005035401,6|0,0:1|0:0,0:0:0:0:
380,6,195271,2,0,L|394:143,1,132.000005035401,10|8,0:1|0:0,0:0:0:0:
118,79,195587,1,10,0:1:0:0:
342,222,195744,1,8,0:0:0:0:
390,235,195822,1,4,0:3:0:0:
438,223,195901,1,10,0:1:0:0:
475,191,195980,1,8,0:1:0:0:
493,145,196060,2,0,L|478:13,1,132.000005035401,10|8,0:0|0:1,0:0:0:0:
118,79,196376,5,8,0:0:0:0:
394,137,196534,1,8,0:1:0:0:
394,137,196613,1,8,0:1:0:0:
394,137,196692,1,8,0:0:0:0:
154,253,196850,1,8,0:1:0:0:
493,143,197008,5,8,0:0:0:0:
493,143,197087,1,8,0:0:0:0:
493,143,197165,1,8,0:1:0:0:
19,76,197323,1,10,0:0:0:0:
143,352,197481,6,0,B|195:351|224:318|224:318|294:369|294:369|339:353|383:360,1,264.000010070801,10|8,0:1|0:1,0:0:0:0:
379,359,197876,1,8,0:1:0:0:
379,359,197955,1,8,0:0:0:0:
298,25,198113,1,8,0:1:0:0:
62,340,198271,5,8,0:0:0:0:
481,212,198429,1,8,0:0:0:0:
19,76,198587,1,8,0:0:0:0:
313,193,198744,6,0,B|365:215|405:178|405:178|389:261|389:261|384:290|417:329|462:305|468:274|468:274|483:185|483:185|490:135|450:95|398:81|348:124|348:124|290:99|249:150|249:150|204:199|101:194|65:102|35:8|158:-77|265:16|186:101|137:110|137:110|101:113|60:141|63:197|83:226|83:226|114:272|117:328|83:368|34:363|34:363|32:324|73:282|139:289|180:330|180:330|220:369|280:343|280:343|313:363|313:363|336:357|375:371|375:371|323:339|313:280|313:280|276:278|251:250|251:250|228:239|187:246|187:246|219:253|239:291,1,2189.88005346387,6|0,0:1|0:0,0:0:0:0:
