osu file format v14

[General]
AudioFilename: audio.mp3
AudioLeadIn: 0
PreviewTime: 54399
Countdown: 0
SampleSet: Soft
StackLeniency: 0.7
Mode: 0
LetterboxInBreaks: 0
WidescreenStoryboard: 0

[Editor]
Bookmarks: 64635,116406,124292,182235,182406,182577,182749,182920,183092,183263,183435,183606,183777,183949,184120,184292,184463,184635,184806,184977,185149,185320,185492,185663,185835,186006,186177,186349,186520,186692,186863,187035,187206,187377,187549,187720,201092
DistanceSpacing: 0.1
BeatDivisor: 6
GridSize: 16
TimelineZoom: 1.9

[Metadata]
Title:Egao no Kimi e
TitleUnicode:エガオノキミヘ
Artist:Mimori Suzuko
ArtistUnicode:三森すずこ
Creator:pnky
Version:Promise
Source:結城友奈は勇者である -鷲尾須美の章-
Tags:Yuki Yuuki Yuna Yuuna wa Yuusha de Aru is a Hero Washio Sumi no Shou YuYuYu Female Vocal Japanese Jpop J-pop Pop 中村彼方 蔦屋好位置 野間康介 Nakamura kanata Tsutaya Koichi Noma Kosuke kousuke Anime Opening
BeatmapID:3423721
BeatmapSetID:1675951

[Difficulty]
HPDrainRate:6
CircleSize:4
OverallDifficulty:8.7
ApproachRate:9.2
SliderMultiplier:1.7
SliderTickRate:1

[Events]
//Background and Video events
0,0,"yuusha.png",0,0
//Break Periods
2,182142,186858
//Storyboard Layer 0 (Background)
//Storyboard Layer 1 (Fail)
//Storyboard Layer 2 (Pass)
//Storyboard Layer 3 (Foreground)
//Storyboard Layer 4 (Overlay)
//Storyboard Sound Samples

[TimingPoints]
-4572,342.857142857143,4,2,1,60,1,0
742,-166.666666666667,4,2,1,40,0,0
13256,-125,4,2,1,40,0,0
21399,-125,4,2,1,5,0,0
21484,-125,4,2,1,50,0,0
32456,-111.111111111111,4,2,1,50,0,0
54399,-90.9090909090908,4,2,1,60,0,1
74970,-111.111111111111,4,2,1,50,0,0
76342,-111.111111111111,4,2,1,50,0,0
87313,-111.111111111111,4,2,1,50,0,0
109256,-90.9090909090909,4,2,1,60,0,1
131199,-90.9090909090908,4,2,1,60,0,0
144742,-90.9090909090908,4,2,1,60,0,0
157256,-111.111111111111,4,2,1,50,0,0
181942,-111.111111111111,4,2,1,40,0,0
187427,-166.666666666666,4,2,1,40,0,0
192913,-166.666666666666,4,2,1,50,0,0
194284,-111.111111111111,4,2,1,50,0,0
202513,-90.9090909090908,4,2,1,60,0,0
205256,-90.9090909090908,4,2,1,60,0,1
214856,-90.9090909090908,4,2,1,50,0,0
215370,-111.111111111111,4,2,1,50,0,0

[Colours]
Combo1 : 160,230,150
Combo2 : 250,180,180
Combo3 : 120,200,230
Combo4 : 255,230,130

[HitObjects]
247,282,913,6,0,B|303:251|357:282|339:301|387:328|454:304,1,203.999993774414,2|2,0:0|0:0,0:0:0:0:
439,308,2285,2,0,P|464:248|401:120,1,203.999993774414,2|2,0:0|0:0,0:0:0:0:
411,127,3656,6,0,B|353:137|353:137|274:109|274:109|208:125,1,203.999993774414,2|0,0:0|0:0,0:0:0:0:
272,221,4856,1,2,0:0:0:0:
270,208,4942,1,2,0:0:0:0:
268,195,5028,1,2,0:0:0:0:
153,364,5713,1,2,0:0:0:0:
229,335,6056,1,2,0:0:0:0:
91,267,6399,6,0,B|109:117|109:117|168:84,1,203.999993774414,2|2,0:0|0:0,0:0:0:0:
155,90,7770,2,0,B|221:139|221:139|360:110,1,203.999993774414,2|2,0:0|0:0,0:0:0:0:
341,113,8799,1,0,0:0:0:0:
341,113,8970,1,0,0:0:0:0:
373,43,9142,5,2,0:0:0:0:
404,167,9485,1,2,0:0:0:0:
281,198,9828,1,2,0:0:0:0:
250,74,10170,1,2,0:0:0:0:
354,235,10513,6,0,B|305:214|246:223|197:262|246:302|197:341|139:350|91:331,1,305.999990661621,2|2,0:0|0:0,0:0:0:0:
34,276,11713,1,2,0:0:0:0:
34,276,11799,1,2,0:0:0:0:
34,276,11885,5,2,0:0:0:0:
354,235,13256,6,0,L|340:164,1,68,2|0,0:0|0:0,0:0:0:0:
316,313,13599,2,0,P|356:324|392:317,1,68,2|0,0:0|0:0,0:0:0:0:
214,211,13942,2,0,L|185:362,1,136,2|2,2:0|0:0,0:0:0:0:
188,344,14456,1,2,0:0:0:0:
66,234,14628,6,0,P|110:227|142:237,1,68,2|0,0:0|0:0,0:0:0:0:
17,302,14970,1,2,0:0:0:0:
17,302,15142,1,0,0:0:0:0:
171,168,15313,2,0,P|105:150|39:163,1,136,2|2,2:0|0:0,0:0:0:0:
39,163,15828,1,2,0:0:0:0:
183,21,15999,6,0,L|191:92,1,68,2|2,0:0|0:0,0:0:0:0:
340,183,16342,1,2,0:0:0:0:
340,183,16513,1,0,0:0:0:0:
234,326,16685,2,0,P|267:270|231:183,1,136,2|2,2:0|0:0,0:0:0:0:
424,225,17199,1,2,0:0:0:0:
424,225,17285,1,2,0:0:0:0:
424,225,17370,6,0,P|390:282|406:347,1,136,2|2,0:0|0:0,0:0:0:0:
406,347,17885,1,2,0:0:0:0:
472,162,18056,2,0,P|442:148|404:148,1,68,2|0,2:0|0:0,0:0:0:0:
277,182,18399,2,0,P|307:196|345:196,1,68,2|2,0:0|0:0,0:0:0:0:
222,43,18742,5,2,0:0:0:0:
256,192,18828,12,0,21399,0:0:0:0:
135,124,21485,6,0,P|154:165|154:203,1,68,2|0,1:2|0:0,0:0:0:0:
50,245,21828,2,0,P|54:211|70:181,1,68,2|0,1:2|0:0,0:0:0:0:
215,244,22170,1,2,1:2:0:0:
127,265,22342,1,2,0:0:0:0:
232,155,22513,2,0,L|313:174,1,68,2|2,1:2|0:0,0:0:0:0:
400,314,22856,6,0,P|361:275|387:184,1,136,2|2,1:2|1:2,0:0:0:0:
370,199,23370,1,0,0:0:0:0:
478,87,23542,2,0,L|467:162,1,68,2|2,1:2|0:0,0:0:0:0:
360,46,23885,2,0,P|396:28|430:28,1,68,2|2,1:2|0:0,0:0:0:0:
311,115,24228,6,0,P|277:112|247:95,1,68,2|0,1:2|0:0,0:0:0:0:
197,22,24570,1,2,1:2:0:0:
197,22,24742,1,2,0:0:0:0:
90,82,24913,2,0,P|101:149|103:230,1,136,2|2,1:2|1:2,0:0:0:0:
55,293,25428,1,2,0:0:0:0:
185,216,25599,6,0,B|246:229|246:229|269:248|269:248|330:260,1,136,2|2,1:2|1:2,0:0:0:0:
311,256,26113,1,0,0:0:0:0:
446,322,26285,2,0,B|385:335|385:335|362:354|362:354|301:366,1,136,2|2,1:2|1:2,0:0:0:0:
319,362,26799,1,2,0:0:0:0:
402,211,26970,6,0,P|439:219|491:227,1,68,2|0,1:2|0:0,0:0:0:0:
348,130,27313,2,0,P|385:121|437:114,1,68,2|2,1:2|0:0,0:0:0:0:
311,256,27656,2,0,P|273:247|222:240,1,68,2|0,1:2|0:0,0:0:0:0:
137,312,27999,1,2,1:2:0:0:
213,267,28170,1,2,0:0:0:0:
73,136,28342,6,0,B|46:187|46:187|76:280,1,136,2|2,1:2|1:2,0:0:0:0:
70,261,28856,1,2,0:0:0:0:
190,141,29028,1,2,1:2:0:0:
190,141,29199,1,0,0:0:0:0:
59,69,29370,2,0,L|74:141,1,68,2|2,1:2|0:0,0:0:0:0:
208,52,29713,6,0,P|244:36|279:28,1,68,2|0,1:2|0:0,0:0:0:0:
377,139,30056,2,0,P|344:130|313:116,1,68,2|2,1:2|0:0,0:0:0:0:
477,41,30399,1,2,1:2:0:0:
377,139,30570,1,2,0:0:0:0:
477,231,30742,1,2,1:2:0:0:
257,302,30913,1,10,2:1:0:0:
338,365,31085,5,2,0:0:0:0:
338,365,31256,2,0,L|326:215,2,136,2|2|2,0:0|0:0|0:0,0:0:0:0:
194,215,32113,1,8,2:2:0:0:
377,139,32285,1,0,3:2:0:0:
194,215,32456,6,0,L|76:195,1,114.749996498108,6|0,3:2|0:0,0:0:0:0:
175,300,32799,2,0,L|261:285,1,76.4999976654053,10|0,2:2|0:0,0:0:0:0:
36,286,33142,1,0,1:2:0:0:
95,357,33313,1,0,1:2:0:0:
194,215,33485,2,0,P|192:167|176:131,1,76.4999976654053,10|0,2:2|0:0,0:0:0:0:
361,91,33828,6,0,P|304:110|271:167,1,114.749996498108,2|0,3:2|0:0,0:0:0:0:
380,243,34170,2,0,P|372:205|350:161,1,76.4999976654053,10|0,2:2|0:0,0:0:0:0:
293,312,34513,1,0,1:2:0:0:
380,243,34685,1,0,1:2:0:0:
291,384,34856,2,0,L|210:369,1,76.4999976654053,10|0,2:2|0:0,0:0:0:0:
55,333,35199,5,2,3:2:0:0:
204,271,35370,1,0,0:0:0:0:
105,235,35542,1,10,2:2:0:0:
167,384,35713,1,0,0:0:0:0:
87,230,35885,2,0,L|94:149,1,76.4999976654053,0|0,1:2|1:2,0:0:0:0:
213,18,36228,1,10,2:2:0:0:
70,80,36399,1,0,0:0:0:0:
70,80,36485,1,0,0:0:0:0:
70,80,36570,5,2,3:2:0:0:
176,147,36742,1,0,3:2:0:0:
13,251,36913,2,0,L|109:223,1,76.4999976654053,10|0,2:2|0:0,0:0:0:0:
250,301,37256,1,0,1:2:0:0:
179,151,37428,1,0,1:2:0:0:
352,220,37599,1,10,2:2:0:0:
308,128,37770,1,0,0:0:0:0:
250,301,37942,6,0,B|260:367|260:367|319:377,1,114.749996498108,2|0,3:2|0:0,0:0:0:0:
438,308,38285,2,0,L|360:322,1,76.4999976654053,10|0,2:2|0:0,0:0:0:0:
505,370,38628,1,0,1:2:0:0:
505,370,38799,1,0,1:2:0:0:
414,228,38970,2,0,L|432:142,1,76.4999976654053,10|0,2:2|0:0,0:0:0:0:
263,216,39313,6,0,L|278:290,1,76.4999976654053,2|0,3:2|0:0,0:0:0:0:
324,133,39656,1,10,2:2:0:0:
187,273,39828,1,0,0:0:0:0:
323,358,39999,1,8,1:3:0:0:
323,358,40085,1,8,1:3:0:0:
323,358,40170,1,4,1:3:0:0:
205,148,40342,1,10,2:2:0:0:
69,380,40513,6,0,B|42:346|42:346|51:247,1,114.749996498108,6|0,3:2|0:0,0:0:0:0:
48,274,40856,1,2,3:2:0:0:
205,148,41028,1,2,2:2:0:0:
86,64,41199,1,2,3:2:0:0:
169,303,41370,1,2,3:2:0:0:
356,186,41542,1,2,3:2:0:0:
205,148,41713,1,10,0:0:0:0:
322,335,41885,6,0,B|371:348|407:320|389:298|429:275|475:287,1,152.999995330811,14|8,0:0|0:0,0:0:0:0:
512,357,42399,1,8,0:0:0:0:
356,186,42570,1,0,3:2:0:0:
357,166,42656,1,0,3:2:0:0:
359,146,42742,2,0,L|348:52,1,76.4999976654053,8|0,2:2|3:2,0:0:0:0:
210,147,43085,1,8,2:2:0:0:
120,92,43256,1,0,3:2:0:0:
19,191,43428,6,0,L|35:352,1,152.999995330811,6|2,3:2|0:0,0:0:0:0:
34,343,43942,1,0,3:2:0:0:
199,288,44113,2,0,B|220:247|220:247|87:263,1,152.999995330811,0|8,1:2|2:2,0:0:0:0:
242,102,44799,6,0,L|405:129,1,152.999995330811,0|2,3:2|0:0,0:0:0:0:
392,127,45313,1,0,3:2:0:0:
295,290,45485,2,0,B|328:267|364:251|364:251|335:226|316:193,1,152.999995330811,0|10,1:2|2:2,0:0:0:0:
238,228,45999,1,2,0:0:0:0:
110,267,46170,6,0,P|59:221|75:127,1,152.999995330811,2|2,3:2|0:0,0:0:0:0:
63,141,46685,1,2,3:2:0:0:
195,36,46856,2,0,B|246:8|246:8|369:37,1,152.999995330811,0|10,1:2|2:2,0:0:0:0:
238,228,47542,5,0,3:2:0:0:
257,83,47713,2,0,B|267:142|267:142|245:170|245:170|237:233,1,152.999995330811,0|0,3:2|3:2,0:0:0:0:
236,246,48142,1,0,3:2:0:0:
234,264,48228,1,0,3:2:0:0:
400,381,48399,1,8,2:2:0:0:
139,376,48570,1,8,0:0:0:0:
319,205,48742,1,8,0:0:0:0:
108,115,48913,6,0,L|125:257,1,114.749996498108,2|0,3:2|0:0,0:0:0:0:
21,109,49256,2,0,P|38:60|65:37,1,76.4999976654053,10|0,2:2|1:0,0:0:0:0:
184,123,49599,2,0,L|94:113,1,76.4999976654053,0|0,1:2|0:0,0:0:0:0:
234,264,49942,1,10,2:2:0:0:
234,264,50113,1,0,0:0:0:0:
317,207,50285,6,0,B|406:196|406:196|350:172,1,114.749996498108,2|0,3:2|0:0,0:0:0:0:
342,57,50628,2,0,P|329:92|332:140,1,76.4999976654053,10|0,2:2|1:0,0:0:0:0:
452,263,50970,1,0,1:2:0:0:
420,119,51142,1,8,0:0:0:0:
439,336,51313,2,0,P|438:297|451:262,1,76.4999976654053,10|0,2:2|0:0,0:0:0:0:
327,368,51656,6,0,B|288:359|288:359|244:370|244:370|197:356,1,114.749996498108,2|0,3:2|0:0,0:0:0:0:
233,214,51999,2,0,P|240:260|243:299,1,76.4999976654053,10|0,2:2|1:0,0:0:0:0:
90,368,52342,2,0,P|93:329|99:292,1,76.4999976654053,0|0,1:2|0:0,0:0:0:0:
233,214,52685,1,10,2:2:0:0:
99,292,52856,1,0,0:0:0:0:
8,81,53028,5,10,0:0:0:0:
314,159,53199,1,10,0:0:0:0:
314,159,53542,6,0,L|447:135,1,114.749996498108,2|0,0:0|0:0,0:0:0:0:
131,68,53885,1,10,2:2:0:0:
137,105,53970,1,8,2:2:0:0:
144,143,54056,1,8,2:2:0:0:
151,180,54142,1,8,2:2:0:0:
157,218,54228,1,8,2:3:0:0:
164,256,54313,1,8,2:3:0:0:
135,330,54399,6,0,B|191:347|236:319|217:297|261:260|322:277,1,187.000005706787,14|10,3:1|2:2,0:0:0:0:
367,342,54913,1,2,0:0:0:0:
480,170,55085,2,0,L|454:55,1,93.5000028533936,2|2,1:2|0:0,0:0:0:0:
288,175,55428,1,10,2:2:0:0:
413,253,55599,1,2,0:0:0:0:
259,58,55770,6,0,B|204:69|204:69|177:99|177:99|109:112,1,140.25000428009,0|0,3:2|0:0,0:0:0:0:
254,257,56113,2,0,P|287:203|286:163,1,93.5000028533936,10|2,2:2|0:0,0:0:0:0:
53,281,56456,1,0,1:2:0:0:
198,182,56628,1,0,3:2:0:0:
17,41,56799,2,0,L|36:142,1,93.5000028533936,8|2,2:2|0:0,0:0:0:0:
96,356,57142,6,0,P|138:287|60:189,1,187.000005706787,2|10,3:1|2:2,0:0:0:0:
92,200,57656,1,2,0:0:0:0:
211,348,57828,1,2,1:2:0:0:
53,281,57999,1,2,0:0:0:0:
249,139,58170,2,0,L|349:144,1,93.5000028533936,10|2,2:2|0:0,0:0:0:0:
150,22,58513,5,2,3:2:0:0:
298,223,58685,1,2,0:0:0:0:
150,22,58856,2,0,L|165:122,1,93.5000028533936,10|0,2:2|0:0,0:0:0:0:
53,281,59199,2,0,P|74:225|112:185,1,93.5000028533936,2|0,1:2|3:0,0:0:0:0:
168,284,59456,1,0,3:0:0:0:
168,284,59542,1,10,2:2:0:0:
249,139,59713,1,2,0:0:0:0:
364,364,59885,6,0,B|282:377|293:316|213:337,1,140.25000428009,2|0,3:1|0:0,0:0:0:0:
349,282,60228,2,0,P|403:290|436:320,1,93.5000028533936,10|2,2:2|0:0,0:0:0:0:
326,193,60570,1,0,1:2:0:0:
231,333,60742,1,0,0:0:0:0:
418,201,60913,2,0,L|391:82,1,93.5000028533936,10|2,2:2|0:0,0:0:0:0:
202,226,61256,6,0,P|275:232|336:175,1,140.25000428009,2|0,3:2|0:0,0:0:0:0:
249,139,61599,1,10,2:2:0:0:
108,299,61770,1,2,0:0:0:0:
231,333,61942,1,0,1:2:0:0:
99,196,62113,1,0,0:0:0:0:
0,384,62285,2,0,P|7:334|13:264,1,93.5000028533936,10|2,2:2|0:0,0:0:0:0:
87,104,62628,6,0,B|94:151|100:196|100:196|138:171|169:155,1,140.25000428009,2|0,3:1|0:0,0:0:0:0:
265,77,62970,2,0,P|213:75|157:87,1,93.5000028533936,10|2,2:2|0:0,0:0:0:0:
350,210,63313,1,0,1:2:0:0:
425,84,63485,1,2,0:0:0:0:
234,205,63656,2,0,L|255:305,1,93.5000028533936,10|2,2:2|0:0,0:0:0:0:
462,384,63999,5,8,3:2:0:0:
191,342,64170,1,8,3:2:0:0:
350,210,64342,1,8,2:2:0:0:
322,382,64513,1,8,0:0:0:0:
178,124,64685,5,0,3:2:0:0:
350,210,64856,1,8,1:3:0:0:
346,228,64942,1,8,1:3:0:0:
343,246,65028,1,10,3:2:0:0:
78,312,65199,1,10,1:3:0:0:
81,330,65285,1,8,1:3:0:0:
84,348,65370,6,0,P|62:287|156:192,1,187.000005706787,6|10,3:1|2:2,0:0:0:0:
202,220,65885,1,2,0:0:0:0:
14,95,66056,1,0,1:2:0:0:
146,282,66228,1,0,0:0:0:0:
288,187,66399,2,0,P|240:214|196:221,1,93.5000028533936,10|0,2:2|0:0,0:0:0:0:
311,73,66742,6,0,P|369:104|405:193,1,140.25000428009,2|0,3:2|0:0,0:0:0:0:
457,306,67085,2,0,P|463:241|477:197,1,93.5000028533936,8|2,2:2|0:0,0:0:0:0:
347,332,67428,1,0,1:2:0:0:
512,384,67599,1,0,3:2:0:0:
274,364,67770,2,0,P|226:355|152:351,1,93.5000028533936,10|0,2:2|0:0,0:0:0:0:
1,174,68113,5,2,3:1:0:0:
146,282,68285,1,0,0:0:0:0:
278,97,68456,2,0,P|326:88|400:84,1,93.5000028533936,10|0,2:1|0:0,0:0:0:0:
113,7,68799,5,2,1:1:0:0:
235,207,68970,1,0,0:0:0:0:
41,264,69142,1,10,2:1:0:0:
175,96,69313,1,0,0:0:0:0:
332,281,69485,6,0,B|318:338|320:377|320:377|330:351|342:336,1,140.25000428009,2|0,3:1|3:2,0:0:0:0:
394,217,69828,2,0,P|381:163|373:107,1,93.5000028533936,8|0,2:2|3:2,0:0:0:0:
512,0,70170,1,2,1:2:0:0:
297,179,70342,1,2,3:2:0:0:
297,179,70428,1,0,3:2:0:0:
297,179,70513,1,10,3:2:0:0:
315,59,70685,1,2,3:2:0:0:
486,203,70856,6,0,P|433:207|385:220,1,93.5000028533936,6|0,3:1|0:0,0:0:0:0:
177,286,71199,2,0,P|222:296|269:299,1,93.5000028533936,8|0,2:2|0:0,0:0:0:0:
84,175,71542,1,2,1:2:0:0:
135,362,71713,1,2,0:0:0:0:
182,141,71885,1,10,2:2:0:0:
64,305,72056,1,2,0:0:0:0:
111,79,72228,6,0,P|164:50|209:48,1,93.5000028533936,2|0,3:1|0:0,0:0:0:0:
323,184,72570,1,8,2:2:0:0:
248,374,72742,2,0,B|212:309|264:290|232:226,1,140.25000428009,2|0,0:0|0:0,0:0:0:0:
159,269,73085,1,2,0:0:0:0:
345,329,73256,2,0,P|396:311|456:300,1,93.5000028533936,10|2,2:2|0:0,0:0:0:0:
489,225,73599,5,0,3:2:0:0:
457,384,73770,1,0,3:2:0:0:
313,212,73942,1,8,2:2:0:0:
506,138,74113,1,0,3:2:0:0:
228,69,74285,5,0,1:2:0:0:
281,278,74456,1,8,0:0:0:0:
40,374,74628,1,8,2:2:0:0:
92,166,74799,1,8,0:0:0:0:
489,225,76170,6,0,P|472:233|451:250,1,38.2499988327027,2|2,0:0|0:0,0:0:0:0:
374,301,76342,6,0,P|334:295|289:293,1,76.4999976654053,6|0,0:0|0:0,0:0:0:0:
170,379,76685,2,0,P|208:367|250:350,1,76.4999976654053,2|0,0:0|0:0,0:0:0:0:
109,276,77028,1,2,2:0:0:0:
109,276,77199,1,0,0:0:0:0:
196,135,77370,2,0,L|185:222,1,76.4999976654053,10|2,0:0|0:0,0:0:0:0:
96,105,77713,6,0,P|127:61|206:36,1,114.749996498108,2|2,0:0|0:0,0:0:0:0:
270,153,78056,2,0,P|237:142|186:134,1,76.4999976654053,2|0,0:0|0:0,0:0:0:0:
322,232,78399,2,0,P|359:225|396:213,1,76.4999976654053,2|0,2:0|0:0,0:0:0:0:
249,295,78742,2,0,P|216:284|165:276,1,76.4999976654053,10|2,0:0|0:0,0:0:0:0:
345,380,79085,6,0,P|382:373|419:361,1,76.4999976654053,2|0,0:0|0:0,0:0:0:0:
249,295,79428,1,10,0:0:0:0:
249,295,79599,1,0,0:0:0:0:
110,372,79770,2,0,B|46:382|46:382|59:284,1,152.999995330811,2|2,2:0|0:0,0:0:0:0:
150,123,80285,2,0,L|155:175,1,38.2499988327027,10|2,0:0|0:0,0:0:0:0:
27,96,80456,6,0,B|66:105|101:89|88:70|121:42|166:55,1,152.999995330811,2|2,0:0|0:0,0:0:0:0:
229,113,80970,1,0,0:0:0:0:
304,129,81142,2,0,P|256:117|215:112,1,76.4999976654053,2|10,3:2|2:2,0:0:0:0:
76,267,81485,2,0,P|124:255|165:250,1,76.4999976654053,2|2,3:2|0:0,0:0:0:0:
169,254,81742,1,2,0:0:0:0:
187,259,81828,5,2,3:2:0:0:
156,329,81999,1,0,0:0:0:0:
255,216,82170,2,0,P|303:225|342:238,1,76.4999976654053,2|0,0:0|0:0,0:0:0:0:
377,384,82513,2,0,P|369:321|454:264,1,152.999995330811,2|10,2:0|0:0,0:0:0:0:
512,119,83028,1,2,0:0:0:0:
512,119,83113,1,2,0:0:0:0:
512,119,83199,6,0,P|473:144|389:120,1,114.749996498108,2|2,0:0|0:0,0:0:0:0:
309,125,83542,2,0,P|317:88|340:57,1,76.4999976654053,2|0,0:0|0:0,0:0:0:0:
512,119,83885,1,2,3:2:0:0:
351,200,84056,1,0,0:0:0:0:
470,44,84228,1,10,0:0:0:0:
309,125,84399,1,2,0:0:0:0:
468,227,84570,6,0,P|462:274|460:313,1,76.4999976654053,2|0,1:2|0:0,0:0:0:0:
512,384,84913,1,2,0:0:0:0:
512,384,85085,1,0,0:0:0:0:
362,290,85256,2,0,P|319:295|274:306,2,76.4999976654053,2|0|10,2:0|0:0|0:0,0:0:0:0:
208,188,85770,1,2,0:0:0:0:
208,188,85856,1,2,0:0:0:0:
208,188,85942,6,0,P|233:192|257:201,1,38.2499988327027,2|0,3:2|3:2,0:0:0:0:
151,135,86113,2,0,P|171:120|194:109,1,38.2499988327027,0|0,3:2|3:2,0:0:0:0:
73,136,86285,2,0,P|77:111|86:87,1,38.2499988327027,2|0,3:2|3:2,0:0:0:0:
19,193,86456,2,0,P|4:172|-6:149,1,38.2499988327027,0|0,3:2|3:2,0:0:0:0:
142,40,86628,5,10,2:0:0:0:
94,263,86799,1,10,0:0:0:0:
94,263,87142,5,4,3:2:0:0:
142,40,87485,1,0,1:2:0:0:
206,109,87656,2,0,P|247:99|294:93,1,76.4999976654053,10|0,2:2|0:0,0:0:0:0:
333,199,87999,1,0,1:2:0:0:
333,199,88170,2,0,P|299:193|254:185,1,76.4999976654053,0|10,1:2|2:2,0:0:0:0:
414,72,88513,6,0,B|444:63|444:63|412:195,1,152.999995330811,2|0,0:0|0:0,0:0:0:0:
307,289,89028,2,0,P|341:278|387:274,1,76.4999976654053,10|0,2:2|0:0,0:0:0:0:
450,339,89370,1,0,1:2:0:0:
450,339,89542,1,0,1:2:0:0:
269,380,89713,1,10,2:2:0:0:
269,380,89885,1,0,0:0:0:0:
189,308,90056,6,0,L|201:226,1,76.4999976654053,2|0,3:2|0:0,0:0:0:0:
211,159,90399,1,10,2:2:0:0:
211,159,90570,1,0,0:0:0:0:
66,250,90742,1,0,1:2:0:0:
66,250,90913,2,0,L|54:168,1,76.4999976654053,0|10,1:2|2:2,0:0:0:0:
164,79,91256,1,0,0:0:0:0:
164,79,91342,1,0,0:0:0:0:
164,79,91428,5,2,3:2:0:0:
55,46,91599,1,0,3:2:0:0:
211,159,91770,2,0,L|286:142,1,76.4999976654053,10|0,2:2|1:2,0:0:0:0:
368,92,92028,1,0,1:2:0:0:
368,92,92113,2,0,P|359:141|354:187,1,76.4999976654053,0|0,1:2|1:2,0:0:0:0:
434,283,92456,2,0,P|429:249|420:204,1,76.4999976654053,10|0,2:2|0:0,0:0:0:0:
272,320,92799,5,2,3:2:0:0:
379,359,92970,1,0,0:0:0:0:
267,304,93142,2,0,P|232:312|192:326,1,76.4999976654053,10|0,2:2|0:0,0:0:0:0:
42,384,93485,2,0,P|86:344|140:256,1,152.999995330811,0|10,1:2|2:2,0:0:0:0:
136,265,93999,1,0,0:0:0:0:
76,157,94170,5,2,3:2:0:0:
76,157,94342,1,0,0:0:0:0:
208,234,94513,2,0,P|247:222|284:214,1,76.4999976654053,10|0,2:2|0:0,0:0:0:0:
185,89,94856,2,0,P|103:63|25:47,1,152.999995330811,0|10,1:2|2:2,0:0:0:0:
37,49,95370,1,0,0:0:0:0:
136,265,95542,5,10,3:2:0:0:
214,157,95713,2,0,P|209:196|207:245,1,76.4999976654053,0|0,3:2|1:2,0:0:0:0:
26,65,96056,2,0,P|34:130|37:224,1,152.999995330811,14|0,3:2|3:2,0:0:0:0:
8,288,96570,1,0,1:2:0:0:
230,358,96742,6,0,B|279:355|279:355|309:324|309:324|370:330,1,152.999995330811,2|8,3:2|0:0,0:0:0:0:
425,382,97256,1,8,0:0:0:0:
243,280,97428,1,0,3:2:0:0:
244,263,97513,1,0,3:2:0:0:
246,246,97599,1,0,3:2:0:0:
356,168,97770,1,0,3:2:0:0:
488,143,97942,1,8,3:2:0:0:
482,114,98028,1,0,3:2:0:0:
475,86,98113,1,0,3:2:0:0:
468,59,98199,1,0,3:2:0:0:
461,31,98285,6,0,P|418:83|336:77,1,152.999995330811,6|2,3:2|0:0,0:0:0:0:
338,78,98799,1,2,3:2:0:0:
187,0,98970,2,0,P|193:76|198:156,1,152.999995330811,0|8,1:2|2:2,0:0:0:0:
31,276,99656,6,0,B|56:250|71:224|71:224|112:236|162:238,1,152.999995330811,0|2,3:2|0:0,0:0:0:0:
157,238,100170,1,0,3:2:0:0:
11,42,100342,2,0,P|2:125|0:207,1,152.999995330811,0|10,1:2|2:2,0:0:0:0:
36,279,100856,1,2,0:0:0:0:
279,262,101028,6,0,P|232:287|156:236,1,152.999995330811,2|2,3:2|0:0,0:0:0:0:
156,236,101542,1,2,3:2:0:0:
337,149,101713,2,0,P|344:218|358:300,1,152.999995330811,0|10,1:2|2:2,0:0:0:0:
399,62,102399,5,0,3:2:0:0:
202,107,102570,2,0,B|272:159|272:159|348:147,1,152.999995330811,0|0,3:2|3:2,0:0:0:0:
356,145,102999,1,0,3:2:0:0:
374,143,103085,1,0,3:2:0:0:
209,13,103256,1,8,2:2:0:0:
266,184,103428,1,8,0:0:0:0:
318,1,103599,1,8,0:0:0:0:
194,195,103770,6,0,B|187:155|179:121|179:121|177:141|172:168,1,114.749996498108,2|0,3:2|0:0,0:0:0:0:
243,256,104113,1,10,2:2:0:0:
243,256,104285,1,0,0:0:0:0:
120,217,104456,2,0,P|127:250|135:292,1,76.4999976654053,0|0,1:2|1:0,0:0:0:0:
284,164,104799,1,10,2:2:0:0:
284,164,104970,1,0,0:0:0:0:
195,46,105142,6,0,B|150:41|120:70|134:83|97:106|54:99,1,152.999995330811,2|10,3:2|2:2,0:0:0:0:
58,99,105656,1,0,1:0:0:0:
13,208,105828,2,0,P|21:251|26:286,1,76.4999976654053,0|8,1:2|0:0,0:0:0:0:
122,382,106170,2,0,P|127:344|134:306,1,76.4999976654053,10|0,2:2|0:0,0:0:0:0:
312,220,106513,6,0,P|266:261|274:323,1,114.749996498108,2|0,3:2|0:0,0:0:0:0:
341,374,106856,2,0,P|342:336|349:299,1,76.4999976654053,10|0,2:2|0:0,0:0:0:0:
501,269,107199,2,0,P|466:286|431:300,1,76.4999976654053,0|0,1:2|0:0,0:0:0:0:
312,220,107542,1,10,2:2:0:0:
432,300,107713,1,0,0:0:0:0:
512,115,107885,5,10,0:0:0:0:
238,158,108056,1,10,0:0:0:0:
238,158,108399,6,0,P|253:143|272:134,1,38.2499988327027,0|0,3:2|0:0,0:0:0:0:
167,178,108570,1,0,3:2:0:0:
132,163,108656,1,0,3:2:0:0:
108,134,108742,1,0,3:2:0:0:
99,97,108828,1,0,3:2:0:0:
107,60,108913,1,0,3:2:0:0:
132,31,108999,1,0,3:2:0:0:
166,16,109085,1,0,3:3:0:0:
204,17,109170,1,0,3:3:0:0:
280,47,109256,6,0,B|327:33|375:57|351:89|401:109|451:92,1,187.000005706787,6|10,3:1|2:2,0:0:0:0:
504,15,109770,1,2,0:0:0:0:
293,127,109942,2,0,P|304:185|310:244,1,93.5000028533936,2|2,1:2|0:0,0:0:0:0:
252,379,110285,1,10,2:2:0:0:
372,263,110456,1,2,0:0:0:0:
142,163,110628,6,0,P|131:221|125:280,1,93.5000028533936,2|0,3:2|0:0,0:0:0:0:
341,355,110970,1,10,2:2:0:0:
221,199,111142,1,2,0:0:0:0:
426,336,111313,2,0,B|475:310|475:310|465:208,1,140.25000428009,2|0,1:2|3:2,0:0:0:0:
363,129,111656,2,0,L|351:233,1,93.5000028533936,8|2,2:2|0:0,0:0:0:0:
138,44,111999,6,0,B|201:35|201:35|249:76|249:76|332:70,1,187.000005706787,2|10,3:1|2:2,0:0:0:0:
363,129,112513,1,2,0:0:0:0:
121,243,112685,1,2,1:2:0:0:
352,221,112856,1,2,0:0:0:0:
109,150,113028,2,0,P|118:201|121:250,1,93.5000028533936,10|2,2:2|0:0,0:0:0:0:
21,371,113370,5,2,3:2:0:0:
204,279,113542,1,2,0:0:0:0:
21,371,113713,2,0,P|60:337|101:310,1,93.5000028533936,10|0,2:2|0:0,0:0:0:0:
290,314,114056,2,0,P|241:296|197:274,1,93.5000028533936,2|0,1:2|3:0,0:0:0:0:
352,221,114313,1,0,3:0:0:0:
352,221,114399,1,8,2:2:0:0:
429,375,114570,1,2,0:0:0:0:
258,160,114742,6,0,P|313:115|393:116,1,140.25000428009,2|0,3:1|0:0,0:0:0:0:
352,221,115085,1,10,2:2:0:0:
103,168,115256,1,2,0:0:0:0:
196,316,115428,1,0,1:2:0:0:
249,67,115599,1,0,0:0:0:0:
202,330,115770,2,0,P|153:316|105:306,1,93.5000028533936,10|2,2:2|0:0,0:0:0:0:
330,383,116113,6,0,P|379:369|427:359,1,93.5000028533936,2|2,3:2|0:0,0:0:0:0:
310,237,116456,1,10,2:2:0:0:
253,384,116628,1,2,0:0:0:0:
443,371,116799,1,0,1:2:0:0:
258,301,116970,1,0,0:0:0:0:
443,371,117142,1,10,2:2:0:0:
226,224,117313,1,2,3:2:0:0:
226,224,117399,1,0,3:2:0:0:
226,224,117485,6,0,P|179:231|131:243,1,93.5000028533936,2|0,3:1|0:0,0:0:0:0:
98,74,117828,2,0,P|127:111|161:146,1,93.5000028533936,10|2,2:2|0:0,0:0:0:0:
310,237,118170,1,0,1:2:0:0:
181,343,118342,1,2,0:0:0:0:
394,269,118513,2,0,P|411:224|425:177,1,93.5000028533936,10|2,2:2|3:2,0:0:0:0:
382,90,118770,1,0,3:2:0:0:
382,90,118856,5,8,3:2:0:0:
134,242,119028,1,8,3:2:0:0:
325,195,119199,1,8,2:2:0:0:
180,102,119370,1,8,0:0:0:0:
270,299,119542,5,0,3:2:0:0:
271,317,119628,1,0,0:0:0:0:
272,335,119713,1,0,3:2:0:0:
66,174,119885,1,10,3:2:0:0:
281,33,120056,1,2,3:2:0:0:
280,51,120142,1,0,3:2:0:0:
278,68,120228,6,0,B|230:93|182:83|192:52|136:41|85:69,1,187.000005706787,6|10,3:1|2:2,0:0:0:0:
64,138,120742,1,2,0:0:0:0:
269,248,120913,1,0,1:2:0:0:
140,136,121085,1,0,0:0:0:0:
385,189,121256,2,0,L|489:160,1,93.5000028533936,10|2,2:2|0:0,0:0:0:0:
278,68,121599,5,2,3:2:0:0:
193,201,121770,1,2,0:0:0:0:
371,366,121942,2,0,P|361:313|350:261,1,93.5000028533936,8|2,2:2|0:0,0:0:0:0:
104,145,122285,2,0,P|94:190|85:236,1,93.5000028533936,0|0,1:2|3:2,0:0:0:0:
375,109,122628,2,0,P|366:63|356:17,1,93.5000028533936,10|0,2:2|0:0,0:0:0:0:
193,201,122970,5,2,3:1:0:0:
352,274,123142,1,0,0:0:0:0:
102,360,123313,2,0,P|57:354|1:344,1,93.5000028533936,10|0,2:1|1:0,0:0:0:0:
194,180,123656,5,2,1:1:0:0:
278,384,123828,1,0,0:0:0:0:
90,280,123999,1,10,2:1:0:0:
304,172,124170,1,0,0:0:0:0:
48,60,124342,6,0,B|112:81|112:81|183:44,1,140.25000428009,2|0,3:1|3:2,0:0:0:0:
340,25,124685,2,0,L|237:-3,1,93.5000028533936,8|0,2:2|3:2,0:0:0:0:
113,153,125028,1,2,1:2:0:0:
273,86,125199,1,2,3:2:0:0:
273,86,125285,1,0,3:2:0:0:
273,86,125370,1,10,3:2:0:0:
104,0,125542,1,2,3:2:0:0:
246,220,125713,6,0,L|228:321,1,93.5000028533936,6|0,3:1|0:0,0:0:0:0:
402,118,126056,2,0,L|385:25,1,93.5000028533936,8|0,2:2|0:0,0:0:0:0:
246,220,126399,1,2,1:2:0:0:
459,205,126570,1,2,0:0:0:0:
258,111,126742,1,10,2:2:0:0:
389,293,126913,1,2,0:0:0:0:
162,299,127085,6,0,L|61:314,1,93.5000028533936,2|0,3:1|0:0,0:0:0:0:
0,382,127428,1,8,2:2:0:0:
151,197,127599,1,2,0:0:0:0:
69,312,127770,1,2,1:2:0:0:
203,383,127942,1,2,0:0:0:0:
34,208,128113,2,0,P|45:260|56:318,1,93.5000028533936,10|2,2:2|0:0,0:0:0:0:
250,116,128456,5,0,3:2:0:0:
105,57,128628,1,0,3:2:0:0:
238,266,128799,1,8,2:2:0:0:
383,207,128970,1,0,3:2:0:0:
208,19,129142,5,0,1:2:0:0:
107,271,129313,1,8,0:0:0:0:
351,368,129485,1,8,2:2:0:0:
250,116,129656,1,8,0:0:0:0:
472,136,129828,5,8,2:2:0:0:
307,62,129999,2,0,L|346:119,1,46.7500014266968,8|0,0:0|0:0,0:0:0:0:
426,245,130170,1,0,1:2:0:0:
421,23,130342,1,8,3:2:0:0:
421,23,130428,1,0,3:2:0:0:
421,23,130513,5,0,3:2:0:0:
250,116,130685,1,0,3:2:0:0:
430,291,130856,1,8,3:2:0:0:
428,268,130942,1,0,3:2:0:0:
426,245,131028,1,0,3:2:0:0:
424,222,131113,1,0,3:2:0:0:
422,198,131199,6,0,B|384:185|384:185|328:203,1,93.5000028533936,6|0,3:1|0:0,0:0:0:0:
242,292,131542,1,10,2:2:0:0:
343,367,131713,1,0,3:2:0:0:
343,367,131799,1,0,3:2:0:0:
343,367,131885,5,2,1:1:0:0:
253,208,132056,1,2,1:1:0:0:
153,280,132228,1,10,2:1:0:0:
233,374,132399,1,2,1:1:0:0:
233,374,132485,1,0,1:2:0:0:
233,374,132570,5,0,1:2:0:0:
253,208,132742,1,0,3:2:0:0:
479,261,132913,1,10,2:2:0:0:
391,202,133085,2,0,L|379:145,1,46.7500014266968,0|0,3:2|3:2,0:0:0:0:
405,278,133256,1,0,3:2:0:0:
278,42,133428,1,0,1:2:0:0:
435,75,133599,1,10,2:1:0:0:
278,42,133770,2,0,L|225:55,1,46.7500014266968,2|0,1:1|1:2,0:0:0:0:
473,149,133942,5,0,3:2:0:0:
473,149,134113,1,0,0:0:0:0:
223,188,134285,2,0,P|182:180|126:172,1,93.5000028533936,10|0,2:2|1:2,0:0:0:0:
75,118,134542,1,0,1:2:0:0:
75,118,134628,1,0,1:0:0:0:
5,284,134799,2,0,P|49:268|79:232,1,93.5000028533936,2|10,1:1|2:2,0:0:0:0:
184,384,135142,1,2,1:1:0:0:
184,384,135228,1,0,1:2:0:0:
184,384,135313,5,0,1:2:0:0:
305,210,135485,2,0,P|296:256|312:304,1,93.5000028533936,2|10,1:1|2:2,0:0:0:0:
383,111,135828,1,2,1:1:0:0:
361,92,135913,1,0,1:2:0:0:
335,83,135999,1,0,1:0:0:0:
187,164,136170,1,0,3:2:0:0:
271,43,136342,1,10,2:2:0:0:
390,195,136513,2,0,P|386:221|385:245,1,46.7500014266968,0|0,3:2|3:2,0:0:0:0:
413,380,136685,6,0,P|409:307|390:195,1,187.000005706787,0|10,3:2|2:2,0:0:0:0:
293,307,137199,1,0,1:2:0:0:
293,307,137285,1,0,1:2:0:0:
293,307,137370,2,0,B|258:296|258:296|197:293,2,93.5000028533936,2|2|10,1:2|1:2|2:2,0:0:0:0:
86,200,137885,6,0,L|103:294,1,93.5000028533936,2|0,1:1|1:2,0:0:0:0:
272,207,138228,2,0,L|286:110,1,93.5000028533936,2|10,1:1|2:2,0:0:0:0:
59,71,138570,2,0,L|46:123,1,46.7500014266968,2|0,1:1|1:2,0:0:0:0:
173,180,138742,1,0,1:2:0:0:
285,114,138913,1,0,3:2:0:0:
195,50,139085,2,0,P|170:45|140:37,1,46.7500014266968,10|0,2:2|0:0,0:0:0:0:
273,23,139256,2,0,P|298:28|328:36,1,46.7500014266968,0|0,3:0|0:0,0:0:0:0:
453,194,139428,5,0,3:2:0:0:
365,106,139599,1,0,0:0:0:0:
404,262,139770,2,0,L|389:365,1,93.5000028533936,10|0,2:2|3:2,0:0:0:0:
462,384,140028,1,0,3:2:0:0:
462,384,140113,1,0,1:2:0:0:
332,206,140285,1,0,1:2:0:0:
390,354,140456,1,10,2:2:0:0:
487,272,140628,1,0,1:2:0:0:
241,301,140799,5,10,3:1:0:0:
453,194,140970,1,0,3:2:0:0:
201,63,141142,1,10,2:1:0:0:
347,249,141313,1,0,3:2:0:0:
347,249,141399,1,0,3:2:0:0:
347,249,141485,5,10,1:1:0:0:
453,106,141656,1,0,3:2:0:0:
204,142,141828,1,10,2:1:0:0:
310,0,141999,1,0,3:2:0:0:
347,249,142170,6,0,L|336:351,1,93.5000028533936,0|0,3:2|0:0,0:0:0:0:
260,382,142513,1,10,2:1:0:0:
148,240,142685,2,0,P|202:240|250:257,1,93.5000028533936,2|0,0:1|1:2,0:0:0:0:
90,370,143028,2,0,P|52:383|-8:381,1,93.5000028533936,2|10,3:1|2:2,0:0:0:0:
14,113,143370,6,0,P|26:184|30:299,1,187.000005706787,6|0,2:2|0:0,0:0:0:0:
30,298,143885,1,10,2:2:0:0:
164,54,144056,2,0,P|152:125|148:240,1,187.000005706787,6|0,2:2|0:0,0:0:0:0:
148,239,144570,1,10,2:2:0:0:
267,102,144742,6,0,B|339:119|339:119|370:152|370:152|439:170,1,187.000005706787,6|0,2:2|3:2,0:0:0:0:
283,192,145256,5,8,0:0:0:0:
421,36,145428,1,0,3:2:0:0:
477,236,145599,5,8,0:0:0:0:
267,102,145770,1,0,3:2:0:0:
361,300,145942,1,8,0:0:0:0:
512,112,146113,1,0,3:2:0:0:
283,192,146285,5,8,0:0:0:0:
443,302,146456,1,0,3:2:0:0:
210,376,146628,1,8,0:0:0:0:
398,225,146799,1,0,3:2:0:0:
158,142,146970,5,8,0:0:0:0:
291,341,147142,1,0,3:2:0:0:
93,384,147313,1,8,0:0:0:0:
199,224,147485,1,0,3:2:0:0:
20,171,147656,6,0,P|101:153|173:138,1,140.25000428009,8|0,0:0|0:0,0:0:0:0:
224,39,147999,2,0,P|189:27|152:19,1,46.7500014266968,8|0,0:0|0:0,0:0:0:0:
72,73,148170,1,0,3:2:0:0:
199,224,148342,5,8,0:0:0:0:
258,128,148513,1,0,3:2:0:0:
353,188,148685,1,8,0:0:0:0:
294,283,148856,1,0,3:2:0:0:
435,78,149028,6,0,P|383:91|327:107,1,93.5000028533936,10|0,0:1|3:2,0:0:0:0:
108,200,149370,2,0,P|160:213|216:229,1,93.5000028533936,10|0,0:1|3:2,0:0:0:0:
392,320,149713,1,10,0:1:0:0:
392,320,149828,2,0,L|383:251,1,62.3333352355958,0|0,3:2|3:2,0:0:0:0:
247,66,150056,1,10,0:1:0:0:
247,66,150170,2,0,L|259:139,1,62.3333352355958,0|0,3:2|3:2,0:0:0:0:
294,283,150399,6,0,P|339:270|384:259,1,93.5000028533936,0|0,3:2|0:0,0:0:0:0:
198,223,150742,2,0,P|186:268|173:313,1,93.5000028533936,10|0,2:2|3:2,0:0:0:0:
290,179,151085,2,0,P|256:146|224:112,1,93.5000028533936,0|0,1:2|0:0,0:0:0:0:
222,18,151428,1,10,2:2:0:0:
108,200,151599,1,0,3:2:0:0:
108,200,151942,5,0,3:2:0:0:
249,100,152113,1,10,2:2:0:0:
72,24,152285,1,0,3:2:0:0:
163,136,152456,1,0,1:2:0:0:
104,246,152628,1,0,1:2:0:0:
106,223,152713,1,0,1:2:0:0:
108,200,152799,1,10,2:2:0:0:
34,294,152970,1,0,3:2:0:0:
295,204,153142,6,0,B|349:192|379:232|379:232|408:270|463:260,1,187.000005706787,0|10,3:2|2:2,0:0:0:0:
459,261,153656,1,0,3:2:0:0:
260,347,153828,2,0,P|307:292|325:262,2,93.5000028533936,0|0|10,1:2|0:0|2:2,0:0:0:0:
260,347,154342,1,0,3:2:0:0:
442,184,154513,5,0,3:2:0:0:
427,172,154856,1,0,3:2:0:0:
410,163,155199,1,0,3:2:0:0:
393,157,155542,1,0,3:2:0:0:
306,248,155713,5,0,0:0:0:0:
306,248,155799,1,0,0:0:0:0:
306,248,155885,5,0,3:2:0:0:
200,334,156056,1,0,3:2:0:0:
282,384,156228,1,10,2:2:0:0:
109,327,156399,1,0,3:2:0:0:
109,327,156485,1,0,3:2:0:0:
109,327,156570,6,0,P|117:293|134:268,1,46.7500014266968,0|0,3:2|3:2,0:0:0:0:
92,207,156742,2,0,P|121:188|151:182,1,46.7500014266968,0|0,3:2|3:2,0:0:0:0:
183,106,156913,2,0,P|217:114|242:131,1,46.7500014266968,0|0,3:2|3:2,0:0:0:0:
334,106,157085,2,0,P|352:135|358:165,1,46.7500014266968,0|0,3:2|3:2,0:0:0:0:
434,241,157256,6,0,B|428:279|400:286|383:311|382:343,1,114.749996498108,6|0,3:2|0:0,0:0:0:0:
461,346,157599,1,10,2:2:0:0:
461,346,157770,1,0,0:0:0:0:
316,225,157942,2,0,P|278:231|228:243,1,76.4999976654053,2|0,1:2|0:0,0:0:0:0:
267,384,158285,2,0,P|280:348|295:298,1,76.4999976654053,10|2,2:2|0:0,0:0:0:0:
153,259,158628,5,2,3:2:0:0:
153,259,158799,2,0,P|177:288|212:326,1,76.4999976654053,2|10,0:0|2:2,0:0:0:0:
90,145,159142,2,0,P|72:219|60:305,1,152.999995330811,2|2,0:0|0:0,0:0:0:0:
153,259,159656,1,10,2:2:0:0:
17,113,159828,1,0,3:2:0:0:
17,113,159999,6,0,P|55:73|93:63,1,76.4999976654053,0|0,3:2|0:0,0:0:0:0:
159,2,160342,2,0,P|212:14|240:42,1,76.4999976654053,10|0,2:2|0:0,0:0:0:0:
348,225,160685,2,0,P|294:212|266:184,1,76.4999976654053,2|2,1:2|0:0,0:0:0:0:
180,157,161028,2,0,P|163:105|174:66,1,76.4999976654053,10|2,2:2|3:2,0:0:0:0:
352,72,161370,6,0,P|353:109|339:144,1,76.4999976654053,2|2,3:2|1:2,0:0:0:0:
278,199,161713,1,8,2:2:0:0:
436,130,161885,1,2,3:2:0:0:
436,130,162056,1,2,1:2:0:0:
272,94,162228,1,2,1:2:0:0:
377,230,162399,1,10,2:2:0:0:
272,94,162570,1,0,3:2:0:0:
468,215,162742,6,0,L|438:381,2,152.999995330811,2|10|2,3:2|2:2|1:2,0:0:0:0:
370,313,163599,1,0,0:0:0:0:
370,313,163770,2,0,P|336:322|291:329,1,76.4999976654053,10|2,2:2|0:0,0:0:0:0:
204,218,164113,5,2,3:2:0:0:
204,218,164285,2,0,P|241:223|278:233,1,76.4999976654053,2|10,0:0|2:2,0:0:0:0:
115,328,164628,2,0,P|119:255|130:155,1,152.999995330811,2|2,0:0|0:0,0:0:0:0:
204,218,165142,1,10,2:2:0:0:
54,96,165313,1,0,3:2:0:0:
54,96,165399,1,0,3:2:0:0:
54,96,165485,6,0,P|94:78|134:70,1,76.4999976654053,0|0,3:2|0:0,0:0:0:0:
265,147,165828,2,0,P|227:138|193:121,1,76.4999976654053,10|0,2:2|0:0,0:0:0:0:
428,77,166170,2,0,P|423:120|410:159,1,76.4999976654053,0|0,1:2|3:2,0:0:0:0:
278,233,166513,2,0,P|304:205|335:183,1,76.4999976654053,10|0,2:2|3:2,0:0:0:0:
477,261,166856,6,0,P|439:252|405:235,1,76.4999976654053,0|0,3:2|0:0,0:0:0:0:
335,183,167199,1,10,2:2:0:0:
268,325,167370,1,0,3:2:0:0:
268,325,167456,1,0,3:2:0:0:
268,325,167542,1,0,1:2:0:0:
121,249,167713,1,0,1:2:0:0:
278,233,167885,1,10,2:2:0:0:
178,374,168056,1,2,2:2:0:0:
47,222,168228,6,0,L|83:128,1,76.4999976654053,2|0,3:2|0:0,0:0:0:0:
235,159,168570,2,0,L|135:174,1,76.4999976654053,10|0,2:2|0:0,0:0:0:0:
85,27,168913,2,0,L|148:105,1,76.4999976654053,2|0,1:2|0:0,0:0:0:0:
159,171,169256,1,10,2:2:0:0:
289,94,169428,1,2,0:0:0:0:
212,258,169599,5,2,3:2:0:0:
212,258,169770,2,0,P|220:305|224:342,1,76.4999976654053,2|10,0:0|2:2,0:0:0:0:
318,175,170113,2,0,P|310:222|306:259,1,76.4999976654053,2|2,0:0|1:2,0:0:0:0:
350,361,170456,1,2,0:0:0:0:
496,286,170628,2,0,P|491:248|484:210,1,76.4999976654053,10|0,2:2|3:2,0:0:0:0:
289,94,170970,6,0,P|273:183|266:253,1,152.999995330811,0|10,3:2|2:2,0:0:0:0:
266,245,171485,1,0,0:0:0:0:
135,147,171656,2,0,P|167:132|210:126,1,76.4999976654053,0|0,1:2|0:0,0:0:0:0:
184,286,171999,2,0,P|155:265|128:231,1,76.4999976654053,10|0,2:2|0:0,0:0:0:0:
38,46,172342,6,0,P|53:135|60:205,1,152.999995330811,0|10,3:2|2:2,0:0:0:0:
28,283,172856,1,0,3:2:0:0:
28,283,173028,1,0,1:2:0:0:
135,147,173199,1,0,1:2:0:0:
208,309,173370,1,10,2:2:0:0:
28,283,173542,1,2,0:0:0:0:
241,198,173713,6,0,L|348:183,1,76.4999976654053,2|0,3:2|0:0,0:0:0:0:
357,364,174056,2,0,L|250:349,1,76.4999976654053,10|0,2:2|0:0,0:0:0:0:
432,256,174399,1,2,1:2:0:0:
432,256,174570,1,0,0:0:0:0:
327,97,174742,2,0,P|334:140|338:186,1,76.4999976654053,10|2,2:2|0:0,0:0:0:0:
179,92,175085,5,2,3:2:0:0:
179,92,175256,2,0,P|212:64|250:37,1,76.4999976654053,2|8,0:0|2:2,0:0:0:0:
83,150,175599,2,0,P|75:107|72:61,1,76.4999976654053,2|0,0:0|1:2,0:0:0:0:
111,7,175942,1,2,0:0:0:0:
164,174,176113,2,0,P|160:212|153:249,1,76.4999976654053,10|0,2:2|3:2,0:0:0:0:
14,332,176456,6,0,P|55:310|127:322,1,114.749996498108,0|0,3:2|0:0,0:0:0:0:
183,384,176799,2,0,L|259:361,1,76.4999976654053,10|0,2:2|0:0,0:0:0:0:
367,201,177142,1,0,1:2:0:0:
216,293,177313,1,0,0:0:0:0:
339,325,177485,1,10,2:2:0:0:
247,174,177656,1,0,0:0:0:0:
350,338,177828,6,0,L|425:347,1,76.4999976654053,0|0,3:2|3:2,0:0:0:0:
444,351,178085,1,0,3:2:0:0:
462,355,178170,1,10,2:2:0:0:
367,201,178342,2,0,L|405:189,2,38.2499988327027,0|0|0,3:2|3:2|1:2,0:0:0:0:
497,252,178685,1,0,3:2:0:0:
497,252,178770,1,0,3:2:0:0:
497,252,178856,1,10,2:2:0:0:
350,338,179028,1,0,3:2:0:0:
501,142,179199,5,12,3:2:0:0:
208,146,179370,1,0,3:2:0:0:
410,278,179542,1,0,3:2:0:0:
303,24,179713,5,8,3:2:0:0:
171,293,179885,1,0,3:2:0:0:
342,121,180056,1,0,3:2:0:0:
72,43,180228,5,8,3:2:0:0:
267,325,180399,2,0,P|275:248|286:190,1,114.749996498108,8|0,3:2|0:0,0:0:0:0:
208,146,180742,2,0,P|215:184|220:207,2,38.2499988327027,2|2|2,1:2|1:2|1:2,0:0:0:0:
54,261,181256,5,2,0:0:0:0:
132,178,181428,1,2,0:0:0:0:
25,101,181599,5,2,0:0:0:0:
46,173,181770,1,2,0:0:0:0:
142,259,181942,5,2,2:2:0:0:
142,259,187428,6,0,B|233:291|299:234|258:191|330:128|411:157,1,305.999990661621,2|0,2:0|0:0,0:0:0:0:
499,296,188799,6,0,P|423:298|374:242,1,152.999995330811,2|0,2:0|0:0,0:0:0:0:
458,86,189485,2,0,P|488:152|453:224,1,152.999995330811,2|0,2:0|0:0,0:0:0:0:
374,244,190170,5,2,2:0:0:0:
330,334,190513,1,0,0:0:0:0:
237,292,190856,2,0,B|187:296|187:296|145:330|145:330|85:322,1,152.999995330811,2|0,2:0|0:0,0:0:0:0:
44,266,191542,5,2,2:0:0:0:
82,171,191885,1,2,2:0:0:0:
176,209,192228,1,2,2:0:0:0:
138,304,192570,1,2,2:0:0:0:
271,169,192913,5,2,2:0:0:0:
176,209,193085,1,2,2:0:0:0:
279,177,193256,5,2,2:0:0:0:
176,173,193428,1,2,2:0:0:0:
283,188,193599,5,2,2:0:0:0:
191,141,193770,1,2,2:0:0:0:
282,200,193942,5,10,2:2:0:0:
383,339,194285,6,0,B|414:365|459:375|501:332|493:287|458:261|417:262|417:262|347:262|308:157|411:95|480:152|474:211,1,458.999985992432,2|0,3:1|0:0,0:0:0:0:
270,345,195656,5,8,0:0:0:0:
273,363,195828,1,0,3:2:0:0:
70,283,197028,6,0,B|65:224|92:226|96:174|96:174|170:77|274:184|159:277|96:174|96:174|90:102|16:82,1,458.999985992432,2|0,3:1|0:0,0:0:0:0:
207,286,198399,5,8,0:0:0:0:
225,282,198570,2,0,P|271:221|270:127,1,152.999995330811,0|0,3:2|1:2,0:0:0:0:
224,89,199085,1,8,0:0:0:0:
224,89,199256,1,0,3:2:0:0:
357,127,199428,2,0,P|398:118|439:107,1,76.4999976654053,8|0,0:0|0:0,0:0:0:0:
451,194,199770,6,0,P|436:256|432:296,1,76.4999976654053,0|0,3:2|0:0,0:0:0:0:
512,384,200113,2,0,P|505:346|495:309,1,76.4999976654053,10|0,2:2|0:0,0:0:0:0:
345,346,200456,2,0,P|407:361|447:365,1,76.4999976654053,0|0,1:2|0:0,0:0:0:0:
295,259,200799,2,0,P|257:265|220:275,1,76.4999976654053,10|0,2:2|0:0,0:0:0:0:
102,374,201142,5,0,3:2:0:0:
156,218,201313,1,0,3:2:0:0:
102,374,201485,2,0,P|98:350|91:324,3,38.2499988327027,10|0|0|0,3:2|3:2|3:2|3:2,0:0:0:0:
156,218,201828,2,0,P|151:236|148:255,3,38.2499988327027,0|0|0|0,3:2|3:2|3:2|3:2,0:0:0:0:
243,138,202170,1,10,3:2:0:0:
240,119,202256,1,0,3:2:0:0:
237,100,202342,1,0,3:2:0:0:
233,81,202428,1,0,3:2:0:0:
228,62,202513,5,12,3:2:0:0:
157,222,202685,1,0,3:2:0:0:
397,172,202856,1,0,3:2:0:0:
145,119,203028,1,8,3:2:0:0:
283,260,203199,5,0,3:2:0:0:
395,22,203370,1,0,3:2:0:0:
157,222,203542,1,8,3:2:0:0:
423,303,203713,1,0,3:2:0:0:
317,155,203885,5,12,3:2:0:0:
252,367,204056,1,0,3:2:0:0:
145,119,204228,1,0,3:2:0:0:
366,227,204399,1,8,3:2:0:0:
170,317,204570,5,0,3:2:0:0:
258,64,204742,1,0,3:2:0:0:
66,288,204913,1,8,2:2:0:0:
68,264,204999,1,8,2:2:0:0:
71,241,205085,1,8,2:2:0:0:
73,218,205170,1,8,2:2:0:0:
76,195,205256,6,0,B|131:171|179:204|161:222|195:251|261:240,1,187.000005706787,6|10,3:1|2:2,0:0:0:0:
246,241,205770,1,2,0:0:0:0:
388,127,205942,1,0,1:2:0:0:
260,114,206113,1,0,0:0:0:0:
374,256,206285,2,0,L|361:353,1,93.5000028533936,10|2,2:2|0:0,0:0:0:0:
488,213,206628,6,0,P|437:144|351:128,1,140.25000428009,2|0,3:2|0:0,0:0:0:0:
373,26,206970,2,0,P|326:45|286:91,1,93.5000028533936,8|2,2:2|0:0,0:0:0:0:
246,241,207313,1,0,1:2:0:0:
387,126,207485,1,0,3:2:0:0:
167,210,207656,2,0,L|64:187,1,93.5000028533936,10|0,2:2|0:0,0:0:0:0:
308,157,207999,5,2,3:1:0:0:
167,42,208170,1,0,0:0:0:0:
387,126,208342,2,0,L|490:103,1,93.5000028533936,10|0,2:1|0:0,0:0:0:0:
246,241,208685,5,2,1:1:0:0:
336,32,208856,1,0,0:0:0:0:
416,272,209028,1,10,2:1:0:0:
256,80,209199,1,0,0:0:0:0:
319,338,209370,6,0,L|221:320,1,93.5000028533936,2|0,3:1|3:2,0:0:0:0:
481,186,209713,2,0,L|514:279,1,93.5000028533936,8|0,2:2|3:2,0:0:0:0:
308,157,210056,1,2,1:2:0:0:
403,353,210228,1,2,3:2:0:0:
403,353,210313,1,0,3:2:0:0:
403,353,210399,1,10,3:2:0:0:
512,274,210570,1,2,3:2:0:0:
319,338,210742,6,0,L|221:320,1,93.5000028533936,6|0,3:1|0:0,0:0:0:0:
174,156,211085,2,0,P|215:184|237:225,1,93.5000028533936,8|0,2:2|0:0,0:0:0:0:
134,358,211428,1,2,1:2:0:0:
28,199,211599,1,2,0:0:0:0:
227,321,211770,1,10,2:2:0:0:
88,122,211942,1,2,0:0:0:0:
17,355,212113,6,0,P|34:299|76:266,1,93.5000028533936,2|0,3:1|0:0,0:0:0:0:
235,221,212456,1,8,2:2:0:0:
28,199,212628,1,2,0:0:0:0:
227,321,212799,1,2,1:2:0:0:
76,270,212970,1,2,0:0:0:0:
213,108,213142,2,0,L|233:221,1,93.5000028533936,10|2,2:2|0:0,0:0:0:0:
115,46,213485,5,0,3:2:0:0:
319,65,213656,1,0,3:2:0:0:
153,276,213828,1,8,2:2:0:0:
213,108,213999,1,0,3:2:0:0:
414,296,214170,5,0,1:2:0:0:
169,367,214342,1,8,0:0:0:0:
288,137,214513,1,8,2:2:0:0:
359,382,214685,1,8,0:0:0:0:
101,179,215370,5,0,3:2:0:0:
213,108,215542,1,8,0:0:0:0:
101,179,215713,1,0,3:2:0:0:
181,28,215885,1,8,0:0:0:0:
30,124,216056,2,0,P|51:110|72:97,1,38.2499988327027,8|8,2:2|2:2,0:0:0:0:
194,194,216228,6,0,P|179:238|166:289,1,76.4999976654053,10|0,0:0|0:0,0:0:0:0:
313,384,216570,1,2,3:2:0:0:
252,278,216742,1,0,0:0:0:0:
167,384,216913,1,2,2:0:0:0:
167,384,217085,1,0,0:0:0:0:
347,293,217256,2,0,P|336:256|324:220,1,76.4999976654053,10|2,0:0|0:0,0:0:0:0:
405,368,217599,6,0,P|442:377|479:384,1,76.4999976654053,2|0,0:0|0:0,0:0:0:0:
512,228,217942,2,0,P|485:255|460:284,1,76.4999976654053,2|0,3:2|0:0,0:0:0:0:
341,126,218285,2,0,P|425:143|511:154,1,152.999995330811,2|10,2:0|0:0,0:0:0:0:
295,43,218799,1,2,0:0:0:0:
295,43,218970,6,0,P|263:80|244:119,1,76.4999976654053,2|0,0:0|0:0,0:0:0:0:
236,226,219313,1,2,3:2:0:0:
341,126,219485,1,0,0:0:0:0:
236,226,219656,2,0,P|192:219|147:212,1,76.4999976654053,2|0,2:0|0:0,0:0:0:0:
100,335,219999,2,0,P|144:328|189:321,1,76.4999976654053,10|2,0:0|0:0,0:0:0:0:
79,148,220342,6,0,P|63:189|46:232,1,76.4999976654053,2|0,0:0|0:0,0:0:0:0:
22,306,220685,1,2,3:2:0:0:
160,214,220856,1,0,0:0:0:0:
160,214,220942,1,2,0:0:0:0:
160,214,221028,1,2,2:0:0:0:
79,148,221199,1,0,0:0:0:0:
284,285,221370,2,0,P|255:250|227:214,1,76.4999976654053,10|2,0:0|0:0,0:0:0:0:
133,366,221713,6,0,P|175:353|219:341,1,76.4999976654053,2|0,0:0|0:0,0:0:0:0:
347,384,222056,1,2,3:2:0:0:
206,344,222228,1,0,0:0:0:0:
397,315,222399,2,0,P|405:271|414:226,1,76.4999976654053,2|0,2:0|0:0,0:0:0:0:
468,167,222742,1,10,0:0:0:0:
324,72,222913,1,2,0:0:0:0:
324,72,222999,1,2,0:0:0:0:
324,72,223085,6,0,P|282:78|240:103,1,76.4999976654053,2|0,0:0|0:0,0:0:0:0:
135,156,223428,2,0,P|169:172|207:177,1,76.4999976654053,2|0,3:2|0:0,0:0:0:0:
43,56,223770,2,0,P|52:122|57:195,1,114.749996498108,2|2,2:0|0:0,0:0:0:0:
2,310,224113,2,0,P|5:267|11:224,1,76.4999976654053,10|2,0:0|0:0,0:0:0:0:
175,293,224456,2,0,P|180:330|183:369,1,76.4999976654053,2|0,0:0|0:0,0:0:0:0:
96,249,224799,1,2,3:2:0:0:
223,215,224970,1,0,0:0:0:0:
148,94,225142,2,0,P|142:131|139:170,1,76.4999976654053,2|0,2:0|0:0,0:0:0:0:
307,70,225485,2,0,P|272:53|237:39,1,76.4999976654053,10|2,0:0|0:0,0:0:0:0:
223,215,225828,5,2,0:0:0:0:
360,168,225999,1,0,0:0:0:0:
332,310,226170,1,2,0:0:0:0:
223,215,226342,1,0,0:0:0:0:
434,238,226513,5,10,3:2:0:0:
209,317,226685,1,0,3:2:0:0:
253,85,226856,5,8,3:2:0:0:
332,310,227028,1,10,3:2:0:0:
256,192,227113,12,0,229942,0:0:0:0:
