osu file format v14

[General]
AudioFilename: audio.mp3
AudioLeadIn: 0
PreviewTime: 54399
Countdown: 0
SampleSet: Soft
StackLeniency: 0.7
Mode: 0
LetterboxInBreaks: 0
WidescreenStoryboard: 1

[Editor]
Bookmarks: 64635,116406,124292,201092
DistanceSpacing: 0.1
BeatDivisor: 6
GridSize: 32
TimelineZoom: 1

[Metadata]
Title:Egao no Kimi e
TitleUnicode:エガオノキミヘ
Artist:Mimori Suzuko
ArtistUnicode:三森すずこ
Creator:pnky
Version:Insane
Source:結城友奈は勇者である -鷲尾須美の章-
Tags:Yuki Yuuki Yuna Yuuna wa Yuusha de Aru is a Hero Washio Sumi no Shou YuYuYu Female Vocal Japanese Jpop J-pop Pop 中村彼方 蔦屋好位置 野間康介 Nakamura kanata Tsutaya Koichi Noma Kosuke kousuke Anime Opening
BeatmapID:3423720
BeatmapSetID:1675951

[Difficulty]
HPDrainRate:5
CircleSize:3.8
OverallDifficulty:8
ApproachRate:8.8
SliderMultiplier:1.5
SliderTickRate:1

[Events]
//Background and Video events
0,0,"yuusha.png",0,0
//Break Periods
2,182142,186799
//Storyboard Layer 0 (Background)
//Storyboard Layer 1 (Fail)
//Storyboard Layer 2 (Pass)
//Storyboard Layer 3 (Foreground)
//Storyboard Layer 4 (Overlay)
//Storyboard Sound Samples

[TimingPoints]
-4572,342.857142857143,4,2,1,60,1,0
742,-166.666666666667,4,2,1,40,0,0
13256,-125,4,2,1,40,0,0
21399,-125,4,2,1,5,0,0
21484,-125,4,2,1,50,0,0
32456,-111.111111111111,4,2,1,50,0,0
54399,-90.9090909090908,4,2,1,60,0,1
74970,-111.111111111111,4,2,1,50,0,0
76342,-111.111111111111,4,2,1,50,0,0
87313,-111.111111111111,4,2,1,50,0,0
109256,-90.9090909090909,4,2,1,60,0,1
131199,-90.9090909090908,4,2,1,60,0,0
144742,-90.9090909090908,4,2,1,60,0,0
157256,-111.111111111111,4,2,1,50,0,0
181942,-111.111111111111,4,2,1,40,0,0
187427,-166.666666666666,4,2,1,40,0,0
192913,-166.666666666666,4,2,1,50,0,0
194284,-111.111111111111,4,2,1,50,0,0
202513,-90.9090909090908,4,2,1,60,0,0
205256,-90.9090909090908,4,2,1,60,0,1
214856,-90.9090909090908,4,2,1,50,0,0
215370,-111.111111111111,4,2,1,50,0,0

[Colours]
Combo1 : 160,230,150
Combo2 : 250,180,180
Combo3 : 120,200,230
Combo4 : 255,230,130

[HitObjects]
159,79,913,6,0,P|166:154|173:267,1,179.999994506836,2|2,0:0|0:0,0:0:0:0:
172,258,2285,2,0,B|219:241|255:249|255:249|254:283|274:321|316:321,1,179.999994506836,2|2,0:0|0:0,0:0:0:0:
305,320,3656,6,0,P|370:308|397:192,1,179.999994506836,2|0,0:0|0:0,0:0:0:0:
500,146,4856,1,2,0:0:0:0:
498,157,4942,1,2,0:0:0:0:
496,168,5028,1,2,0:0:0:0:
327,66,5713,5,2,0:0:0:0:
327,66,6056,1,2,0:0:0:0:
262,128,6399,6,0,B|194:118|194:118|168:88|168:88|93:78,1,179.999994506836,2|2,0:0|0:0,0:0:0:0:
97,78,7770,2,0,P|45:149|62:243,1,179.999994506836,2|2,0:0|0:0,0:0:0:0:
57,235,8799,1,0,0:0:0:0:
57,235,8970,1,0,0:0:0:0:
16,320,9142,5,2,0:0:0:0:
176,240,9485,1,2,0:0:0:0:
336,320,9828,1,2,0:0:0:0:
496,240,10170,1,2,0:0:0:0:
438,70,10513,6,0,B|386:55|346:108|346:108|316:143|274:138|259:135|259:135|234:100|242:52|274:26,1,314.999990386963,2|2,0:0|0:0,0:0:0:0:
267,31,11799,1,2,0:0:0:0:
267,31,11885,1,2,0:0:0:0:
106,157,13256,6,0,L|113:244,1,60,2|0,0:0|0:0,0:0:0:0:
16,299,13599,2,0,L|20:239,1,60,2|0,0:0|0:0,0:0:0:0:
126,342,13942,2,0,B|176:336|176:336|204:350|204:350|260:346,1,120,2|2,2:0|0:0,0:0:0:0:
252,208,14456,1,2,0:0:0:0:
252,208,14628,6,0,P|233:236|225:267,1,60,2|0,0:0|0:0,0:0:0:0:
335,187,14970,2,0,P|320:156|297:134,1,60,2|0,0:0|0:0,0:0:0:0:
318,269,15313,2,0,P|355:269|418:213,1,120,2|2,2:0|0:0,0:0:0:0:
403,128,15828,1,2,0:0:0:0:
497,42,15999,6,0,L|488:108,1,60,2|2,0:0|0:0,0:0:0:0:
416,217,16342,1,2,0:0:0:0:
502,193,16513,1,0,0:0:0:0:
382,115,16685,2,0,B|321:110|321:110|243:106,1,120,2|2,2:0|0:0,0:0:0:0:
159,212,17199,1,2,0:0:0:0:
159,212,17370,6,0,P|165:168|171:143,1,60,2|2,0:0|0:0,0:0:0:0:
254,291,17713,2,0,P|248:247|242:222,1,60,2|2,0:0|0:0,0:0:0:0:
99,343,18056,2,0,B|101:313|108:284|108:284|85:257|68:227,1,120,2|2,2:0|0:0,0:0:0:0:
19,308,18570,1,2,0:0:0:0:
192,356,18742,5,2,0:0:0:0:
256,192,18828,12,0,21399,0:0:0:0:
382,142,21485,6,0,P|376:179|373:211,1,60,2|0,1:2|0:0,0:0:0:0:
453,94,21828,2,0,P|423:70|397:51,1,60,2|0,1:2|0:0,0:0:0:0:
465,177,22170,1,2,1:2:0:0:
465,177,22342,1,2,0:0:0:0:
358,131,22513,2,0,P|322:144|292:157,1,60,2|2,1:2|0:0,0:0:0:0:
211,256,22856,6,0,P|226:195|186:139,1,120,2|2,1:2|1:2,0:0:0:0:
198,147,23370,1,0,0:0:0:0:
88,209,23542,2,0,P|120:214|150:209,1,60,2|2,1:2|0:0,0:0:0:0:
130,75,23885,2,0,L|116:143,1,60,2|2,1:2|0:0,0:0:0:0:
0,208,24228,6,0,L|25:330,1,120,2|2,1:2|1:2,0:0:0:0:
103,369,24742,1,2,0:0:0:0:
103,369,24913,2,0,P|134:375|169:377,1,60,2|2,1:2|0:0,0:0:0:0:
254,291,25256,2,0,P|224:293|194:299,1,60,2|2,1:2|0:0,0:0:0:0:
336,379,25599,6,0,L|353:237,1,120,2|2,1:2|1:2,0:0:0:0:
350,259,26113,1,0,0:0:0:0:
486,305,26285,2,0,L|469:163,1,120,2|2,1:2|1:2,0:0:0:0:
471,185,26799,1,2,0:0:0:0:
366,113,26970,6,0,P|334:109|300:114,1,60,2|0,1:2|0:0,0:0:0:0:
458,96,27313,2,0,P|445:66|424:39,1,60,2|2,1:2|0:0,0:0:0:0:
337,195,27656,1,2,1:2:0:0:
337,195,27828,1,0,0:0:0:0:
189,175,27999,2,0,P|221:179|255:174,1,60,2|2,1:2|0:0,0:0:0:0:
131,106,28342,6,0,P|111:131|98:163,2,60,2|2|2,1:2|0:0|1:2,0:0:0:0:
189,175,28856,1,2,0:0:0:0:
97,266,29028,2,0,B|146:260|146:260|171:271|171:271|217:265,1,120,2|2,1:2|1:2,0:0:0:0:
337,195,29542,1,2,0:0:0:0:
294,331,29713,6,0,P|297:297|304:270,1,60,2|0,1:2|0:0,0:0:0:0:
395,379,30056,2,0,P|392:345|385:318,1,60,2|2,1:2|0:0,0:0:0:0:
213,265,30399,1,2,1:2:0:0:
338,193,30570,2,0,L|414:199,1,60,2|2,0:0|1:2,0:0:0:0:
303,271,30913,1,10,2:1:0:0:
235,148,31085,5,2,0:0:0:0:
235,148,31256,2,0,L|96:167,2,120,2|2|2,0:0|0:0|0:0,0:0:0:0:
338,193,32113,1,8,2:2:0:0:
415,65,32285,1,0,3:2:0:0:
314,77,32456,6,0,L|198:51,1,101.249996910095,6|0,3:2|0:0,0:0:0:0:
142,11,32799,2,0,L|69:21,1,67.4999979400635,10|0,2:2|0:0,0:0:0:0:
0,173,33142,1,0,1:2:0:0:
7,72,33313,1,0,1:2:0:0:
96,214,33485,2,0,L|162:204,1,67.4999979400635,10|0,2:2|0:0,0:0:0:0:
100,322,33828,6,0,L|-24:305,1,101.249996910095,2|0,3:2|0:0,0:0:0:0:
86,227,34170,2,0,L|152:217,1,67.4999979400635,10|0,2:2|0:0,0:0:0:0:
272,329,34513,1,0,1:2:0:0:
171,384,34685,1,0,1:2:0:0:
247,238,34856,2,0,L|320:249,1,67.4999979400635,10|0,2:2|0:0,0:0:0:0:
464,384,35199,6,0,P|410:367|393:276,1,134.999995880127,2|10,3:2|2:2,0:0:0:0:
456,225,35713,1,0,0:0:0:0:
365,114,35885,2,0,P|371:156|374:188,1,67.4999979400635,0|0,1:2|1:2,0:0:0:0:
502,57,36228,2,0,P|497:90|493:123,1,67.4999979400635,10|0,2:2|0:0,0:0:0:0:
504,156,36485,1,0,0:0:0:0:
504,156,36570,5,2,3:2:0:0:
365,114,36742,1,0,3:2:0:0:
276,217,36913,2,0,P|313:205|353:200,1,67.4999979400635,10|0,2:2|0:0,0:0:0:0:
210,94,37256,2,0,L|196:176,1,67.4999979400635,0|0,1:2|1:2,0:0:0:0:
365,114,37599,1,10,2:2:0:0:
365,114,37770,1,0,0:0:0:0:
195,76,37942,6,0,L|171:215,1,134.999995880127,2|10,3:2|2:2,0:0:0:0:
172,209,38456,1,0,0:0:0:0:
92,296,38628,2,0,P|69:266|59:233,1,67.4999979400635,0|0,1:2|1:2,0:0:0:0:
0,155,38970,2,0,P|14:120|38:94,1,67.4999979400635,10|0,2:2|0:0,0:0:0:0:
92,14,39313,6,0,P|129:9|163:16,1,67.4999979400635,2|0,3:2|0:0,0:0:0:0:
236,147,39656,1,10,2:2:0:0:
123,95,39828,1,0,0:0:0:0:
303,21,39999,1,0,1:2:0:0:
300,37,40085,1,0,1:2:0:0:
297,54,40170,1,0,1:2:0:0:
294,70,40256,1,0,1:2:0:0:
292,87,40342,1,10,2:2:0:0:
496,99,40513,6,0,P|451:62|366:77,1,134.999995880127,6|2,3:2|3:2,0:0:0:0:
236,147,41028,1,2,2:2:0:0:
197,20,41199,1,2,3:2:0:0:
378,68,41370,1,2,3:2:0:0:
293,214,41542,1,2,3:2:0:0:
292,87,41713,1,10,0:0:0:0:
448,188,41885,6,0,P|431:265|418:331,1,134.999995880127,14|8,0:0|0:0,0:0:0:0:
507,372,42399,1,8,0:0:0:0:
339,301,42570,1,0,3:2:0:0:
339,301,42656,1,0,3:2:0:0:
339,301,42742,2,0,P|295:307|246:318,1,67.4999979400635,8|0,2:2|3:2,0:0:0:0:
212,365,42999,1,0,3:2:0:0:
212,365,43085,2,0,P|190:358|166:353,1,33.7499989700318,8|0,2:2|3:2,0:0:0:0:
124,298,43256,2,0,P|102:301|77:306,1,33.7499989700318,0|0,3:2|3:2,0:0:0:0:
0,384,43428,6,0,L|14:235,1,134.999995880127,6|2,3:2|0:0,0:0:0:0:
12,249,43942,1,0,3:2:0:0:
130,169,44113,2,0,B|88:198|88:198|56:153|-5:161,1,134.999995880127,0|8,1:2|2:2,0:0:0:0:
118,34,44799,6,0,L|131:189,1,134.999995880127,0|2,3:2|0:0,0:0:0:0:
129,168,45313,1,0,3:2:0:0:
247,231,45485,2,0,P|296:208|322:130,1,134.999995880127,0|10,1:2|2:2,0:0:0:0:
451,26,46170,6,0,L|427:181,1,134.999995880127,2|2,3:2|0:0,0:0:0:0:
430,159,46685,1,2,3:2:0:0:
511,288,46856,2,0,P|469:257|375:251,1,134.999995880127,0|10,1:2|2:2,0:0:0:0:
322,295,47370,1,2,0:0:0:0:
209,219,47542,5,0,3:2:0:0:
209,219,47713,2,0,B|220:167|220:167|244:143|244:143|254:83,1,134.999995880127,0|0,3:2|3:2,0:0:0:0:
241,63,48142,1,0,3:2:0:0:
241,63,48228,1,0,3:2:0:0:
298,211,48399,1,8,2:2:0:0:
160,101,48570,1,8,0:0:0:0:
323,20,48742,1,8,0:0:0:0:
209,219,48913,6,0,L|99:201,1,101.249996910095,2|0,3:2|0:0,0:0:0:0:
40,252,49256,1,10,2:2:0:0:
134,377,49428,1,0,1:0:0:0:
134,377,49599,2,0,L|208:363,1,67.4999979400635,0|0,1:2|0:0,0:0:0:0:
277,298,49942,1,10,2:2:0:0:
277,298,50113,1,0,0:0:0:0:
387,374,50285,6,0,L|363:211,1,134.999995880127,2|10,3:2|2:2,0:0:0:0:
367,240,50799,1,0,1:0:0:0:
464,137,50970,2,0,P|425:159|392:163,1,67.4999979400635,0|8,1:2|0:0,0:0:0:0:
284,111,51313,1,10,2:2:0:0:
367,240,51485,1,0,0:0:0:0:
277,298,51656,6,0,L|208:287,1,67.4999979400635,2|0,3:2|0:0,0:0:0:0:
125,328,51999,2,0,P|115:289|122:251,1,67.4999979400635,10|0,2:2|1:0,0:0:0:0:
227,137,52342,2,0,P|237:176|230:214,1,67.4999979400635,0|0,1:2|0:0,0:0:0:0:
75,167,52685,2,0,L|144:178,1,67.4999979400635,10|0,2:2|0:0,0:0:0:0:
277,298,53028,5,10,0:0:0:0:
75,167,53199,1,10,0:0:0:0:
75,167,53542,6,0,L|99:21,1,134.999995880127,2|10,0:0|2:2,0:0:0:0:
126,18,53970,1,8,2:2:0:0:
126,18,54056,2,0,P|151:22|167:28,1,33.7499989700318,8|8,2:2|2:2,0:0:0:0:
242,35,54228,2,0,P|251:58|253:75,1,33.7499989700318,8|8,2:3|2:3,0:0:0:0:
323,157,54399,6,0,L|299:327,1,165.000005035401,14|10,3:1|2:2,0:0:0:0:
393,384,54913,1,2,0:0:0:0:
476,270,55085,2,0,P|430:243|390:241,1,82.5000025177003,2|2,1:2|0:0,0:0:0:0:
299,320,55428,1,10,2:2:0:0:
401,239,55599,1,2,0:0:0:0:
299,320,55770,6,0,B|263:324|236:297|236:297|125:323,1,165.000005035401,0|10,3:2|2:2,0:0:0:0:
63,380,56285,1,2,0:0:0:0:
0,223,56456,2,0,L|96:238,1,82.5000025177003,0|0,1:2|3:2,0:0:0:0:
114,74,56799,2,0,L|53:149,1,82.5000025177003,8|2,2:2|0:0,0:0:0:0:
294,237,57142,6,0,L|236:65,2,165.000005035401,2|10|2,3:1|2:2|1:2,0:0:0:0:
167,153,57999,1,2,0:0:0:0:
309,17,58170,2,0,P|355:21|393:31,1,82.5000025177003,10|2,2:2|0:0,0:0:0:0:
491,119,58513,5,2,3:2:0:0:
491,119,58685,1,2,0:0:0:0:
381,258,58856,2,0,L|398:165,1,82.5000025177003,10|0,2:2|0:0,0:0:0:0:
512,368,59199,2,0,L|495:275,1,82.5000025177003,2|0,1:2|3:0,0:0:0:0:
364,384,59542,1,10,2:2:0:0:
497,286,59713,1,2,0:0:0:0:
364,384,59885,6,0,L|231:367,1,123.75000377655,2|0,3:1|0:0,0:0:0:0:
174,289,60228,2,0,L|77:310,1,82.5000025177003,10|2,2:2|0:0,0:0:0:0:
0,384,60570,1,0,1:2:0:0:
0,384,60742,1,0,0:0:0:0:
41,234,60913,2,0,L|24:144,1,82.5000025177003,10|2,2:2|0:0,0:0:0:0:
127,46,61256,6,0,P|198:30|266:90,1,165.000005035401,2|10,3:2|2:2,0:0:0:0:
362,99,61770,1,2,0:0:0:0:
227,198,61942,2,0,P|264:177|316:175,1,82.5000025177003,0|0,1:2|0:0,0:0:0:0:
367,314,62285,2,0,P|328:299|299:270,1,82.5000025177003,10|2,2:2|0:0,0:0:0:0:
490,223,62628,6,0,L|456:385,1,165.000005035401,2|10,3:1|2:2,0:0:0:0:
456,384,63142,1,2,0:0:0:0:
299,270,63313,2,0,L|207:290,1,82.5000025177003,0|2,1:2|0:0,0:0:0:0:
131,363,63656,2,0,L|39:342,1,82.5000025177003,10|2,2:2|0:0,0:0:0:0:
154,215,63999,5,8,3:2:0:0:
215,372,64170,1,8,3:2:0:0:
78,255,64342,1,8,2:2:0:0:
235,194,64513,1,8,0:0:0:0:
131,363,64685,5,0,3:2:0:0:
299,270,64856,1,0,3:2:0:0:
299,270,64942,1,0,3:2:0:0:
299,270,65028,2,0,L|398:288,1,82.5000025177003,10|2,3:2|3:2,0:0:0:0:
425,355,65285,1,0,3:2:0:0:
425,355,65370,6,0,B|505:342|505:342|505:317|518:287,1,123.75000377655,6|0,3:1|0:0,0:0:0:0:
512,201,65713,2,0,L|413:219,1,82.5000025177003,10|2,2:2|0:0,0:0:0:0:
299,270,66056,1,0,1:2:0:0:
425,355,66228,1,0,0:0:0:0:
299,270,66399,2,0,L|312:173,1,82.5000025177003,10|0,2:2|0:0,0:0:0:0:
293,66,66742,6,0,P|219:98|190:204,1,165.000005035401,2|8,3:2|2:2,0:0:0:0:
216,292,67256,1,2,0:0:0:0:
309,188,67428,1,0,1:2:0:0:
139,246,67599,1,0,3:2:0:0:
246,374,67770,2,0,L|344:353,1,82.5000025177003,10|0,2:2|0:0,0:0:0:0:
139,246,68113,6,0,P|119:294|108:341,1,82.5000025177003,2|0,3:1|0:0,0:0:0:0:
326,182,68456,2,0,P|314:142|298:104,1,82.5000025177003,10|0,2:1|0:0,0:0:0:0:
227,201,68799,5,2,1:1:0:0:
387,264,68970,1,0,0:0:0:0:
190,115,69142,2,0,P|150:126|112:142,1,82.5000025177003,10|0,2:1|0:0,0:0:0:0:
417,181,69485,6,0,P|393:97|358:18,1,165.000005035401,2|8,3:1|2:2,0:0:0:0:
362,25,69999,1,0,3:2:0:0:
227,201,70170,2,0,P|278:198|331:177,1,82.5000025177003,2|2,1:2|3:2,0:0:0:0:
112,142,70513,1,10,3:2:0:0:
171,272,70685,1,2,3:2:0:0:
252,108,70856,6,0,P|215:90|166:84,1,82.5000025177003,6|0,3:1|0:0,0:0:0:0:
77,226,71199,2,0,L|89:308,1,82.5000025177003,8|0,2:2|0:0,0:0:0:0:
24,152,71542,1,2,1:2:0:0:
24,152,71713,1,2,0:0:0:0:
258,301,71885,2,0,L|246:382,1,82.5000025177003,10|2,2:2|0:0,0:0:0:0:
345,177,72228,6,0,P|420:154|486:212,1,165.000005035401,2|8,3:1|2:2,0:0:0:0:
402,244,72742,1,2,0:0:0:0:
250,202,72913,2,0,P|250:159|272:110,1,82.5000025177003,0|2,1:2|0:0,0:0:0:0:
345,177,73256,1,10,2:2:0:0:
168,243,73428,1,2,0:0:0:0:
263,122,73599,5,0,3:2:0:0:
329,299,73770,1,0,3:2:0:0:
171,148,73942,1,8,2:2:0:0:
345,177,74113,1,0,3:2:0:0:
168,243,74285,5,0,1:2:0:0:
192,63,74456,1,8,0:0:0:0:
46,215,74628,1,8,2:2:0:0:
250,202,74799,1,8,0:0:0:0:
39,309,76170,6,0,P|46:334|48:356,1,33.7499989700318,2|2,0:0|0:0,0:0:0:0:
121,384,76342,6,0,P|148:364|197:356,1,67.4999979400635,6|0,0:0|0:0,0:0:0:0:
250,283,76685,2,0,P|283:287|323:316,1,67.4999979400635,2|0,0:0|0:0,0:0:0:0:
434,384,77028,2,0,P|440:333|509:253,1,134.999995880127,2|10,2:0|0:0,0:0:0:0:
487,266,77542,1,2,0:0:0:0:
392,180,77713,6,0,L|315:168,1,67.4999979400635,2|0,0:0|0:0,0:0:0:0:
445,88,78056,2,0,L|522:100,1,67.4999979400635,2|0,0:0|0:0,0:0:0:0:
354,71,78399,2,0,P|369:34|392:13,1,67.4999979400635,2|0,2:0|0:0,0:0:0:0:
483,197,78742,2,0,P|468:234|445:255,1,67.4999979400635,10|2,0:0|0:0,0:0:0:0:
346,326,79085,6,0,L|207:304,1,134.999995880127,2|10,0:0|0:0,0:0:0:0:
98,384,79599,1,0,0:0:0:0:
98,384,79770,2,0,P|103:350|124:307,1,67.4999979400635,2|0,2:0|0:0,0:0:0:0:
104,218,80113,2,0,P|131:197|176:181,1,67.4999979400635,2|10,0:0|0:0,0:0:0:0:
237,116,80370,1,2,0:0:0:0:
237,116,80456,6,0,P|271:120|313:141,1,67.4999979400635,2|0,0:0|0:0,0:0:0:0:
151,47,80799,2,0,P|119:59|86:64,1,67.4999979400635,2|0,0:0|0:0,0:0:0:0:
1,0,81142,1,2,3:2:0:0:
151,47,81313,1,10,2:2:0:0:
20,122,81485,1,2,3:2:0:0:
104,218,81656,1,2,0:0:0:0:
237,116,81828,6,0,P|309:118|383:131,1,134.999995880127,2|2,3:2|0:0,0:0:0:0:
443,199,82342,1,0,0:0:0:0:
343,313,82513,2,0,P|351:267|357:234,1,67.4999979400635,2|0,2:0|0:0,0:0:0:0:
371,128,82856,1,10,0:0:0:0:
442,298,83028,1,2,0:0:0:0:
442,298,83113,1,2,0:0:0:0:
442,298,83199,6,0,P|447:331|453:364,1,67.4999979400635,2|0,0:0|0:0,0:0:0:0:
248,380,83542,2,0,P|253:346|259:313,1,67.4999979400635,2|0,0:0|0:0,0:0:0:0:
154,384,83885,2,0,P|165:317|177:251,1,134.999995880127,2|10,3:2|0:0,0:0:0:0:
177,251,84399,1,2,0:0:0:0:
78,145,84570,6,0,P|84:188|86:222,1,67.4999979400635,2|0,1:2|0:0,0:0:0:0:
28,296,84913,1,2,0:0:0:0:
28,296,85085,1,0,0:0:0:0:
177,251,85256,2,0,L|268:239,2,67.4999979400635,2|0|10,2:0|0:0|0:0,0:0:0:0:
263,154,85770,1,2,0:0:0:0:
263,154,85856,1,2,0:0:0:0:
263,154,85942,6,0,P|258:131|250:116,1,33.7499989700318,2|0,3:2|3:2,0:0:0:0:
325,209,86113,2,0,P|337:189|342:172,1,33.7499989700318,0|0,3:2|3:2,0:0:0:0:
329,291,86285,2,0,P|352:286|367:278,3,33.7499989700318,2|0|0|0,3:2|3:2|3:2|3:2,0:0:0:0:
388,262,86628,1,10,2:0:0:0:
253,121,86799,1,10,0:0:0:0:
253,121,87142,6,0,B|200:129|200:129|171:153|171:153|124:163,1,134.999995880127,4|0,3:2|1:2,0:0:0:0:
113,11,87656,2,0,L|136:83,1,67.4999979400635,10|0,2:2|0:0,0:0:0:0:
22,169,87999,1,0,1:2:0:0:
22,169,88342,1,10,2:2:0:0:
36,73,88513,1,0,0:0:0:0:
107,226,88685,6,0,L|127:161,1,67.4999979400635,2|0,3:2|0:0,0:0:0:0:
37,277,89028,2,0,P|66:305|111:312,1,67.4999979400635,10|0,2:2|0:0,0:0:0:0:
171,284,89370,1,0,1:2:0:0:
343,382,89713,2,0,L|334:301,1,67.4999979400635,10|0,2:2|0:0,0:0:0:0:
488,234,90056,5,2,3:2:0:0:
423,331,90228,1,0,0:0:0:0:
279,245,90399,2,0,L|286:177,1,67.4999979400635,10|0,2:2|0:0,0:0:0:0:
435,87,90742,1,0,1:2:0:0:
435,87,90913,2,0,L|442:154,2,67.4999979400635,0|10|0,1:2|2:2|0:0,0:0:0:0:
305,23,91428,6,0,P|242:27|193:91,1,134.999995880127,2|10,3:2|2:2,0:0:0:0:
124,186,91942,1,0,1:2:0:0:
125,169,92028,1,0,1:2:0:0:
127,152,92113,2,0,P|104:117|99:77,1,67.4999979400635,0|0,1:2|1:2,0:0:0:0:
183,258,92456,2,0,P|206:223|211:183,1,67.4999979400635,10|0,2:2|0:0,0:0:0:0:
71,297,92799,5,2,3:2:0:0:
71,297,92970,1,0,0:0:0:0:
182,365,93142,2,0,L|265:348,1,67.4999979400635,10|0,2:2|0:0,0:0:0:0:
316,276,93485,2,0,L|382:289,2,67.4999979400635,0|0|10,1:2|1:2|2:2,0:0:0:0:
248,351,93999,1,0,0:0:0:0:
376,201,94170,6,0,L|442:214,1,67.4999979400635,2|0,3:2|0:0,0:0:0:0:
313,115,94513,2,0,L|268:165,1,67.4999979400635,10|0,2:2|0:0,0:0:0:0:
417,100,94856,1,0,1:2:0:0:
417,100,95028,2,0,L|395:35,1,67.4999979400635,0|10,1:2|2:2,0:0:0:0:
376,201,95370,1,0,0:0:0:0:
233,248,95542,6,0,P|186:199|195:126,1,134.999995880127,10|0,3:2|1:2,0:0:0:0:
69,89,96056,2,0,B|106:95|138:77|123:63|168:39|214:52,1,134.999995880127,14|0,3:2|3:2,0:0:0:0:
193,48,96570,1,0,1:2:0:0:
85,179,96742,6,0,B|92:237|92:237|107:261|107:261|111:320,1,134.999995880127,8|8,3:2|0:0,0:0:0:0:
38,381,97256,1,8,0:0:0:0:
196,314,97428,1,0,3:2:0:0:
196,314,97513,1,0,3:2:0:0:
196,314,97599,2,0,L|289:323,1,67.4999979400635,0|0,3:2|3:2,0:0:0:0:
334,366,97856,1,0,3:2:0:0:
334,366,97942,2,0,L|384:354,1,33.7499989700318,0|0,3:2|3:2,0:0:0:0:
450,346,98113,2,0,L|476:302,1,33.7499989700318,0|0,3:2|3:2,0:0:0:0:
484,199,98285,6,0,B|439:189|401:221|401:221|338:211,1,134.999995880127,6|2,3:2|0:0,0:0:0:0:
355,213,98799,1,2,3:2:0:0:
241,105,98970,2,0,P|276:148|239:239,1,134.999995880127,0|8,1:2|2:2,0:0:0:0:
72,151,99656,6,0,B|112:140|144:148|135:165|170:179|203:170,1,134.999995880127,0|2,3:2|0:0,0:0:0:0:
201,170,100170,1,0,3:2:0:0:
130,337,100342,2,0,B|92:319|92:319|103:211,1,134.999995880127,0|10,1:2|2:2,0:0:0:0:
180,270,101028,6,0,B|241:279|241:279|263:296|263:296|318:304,1,134.999995880127,2|2,3:2|0:0,0:0:0:0:
308,302,101542,1,2,3:2:0:0:
453,298,101713,2,0,B|431:316|401:306|401:306|362:394,1,134.999995880127,0|10,1:2|2:2,0:0:0:0:
512,231,102399,6,0,P|493:158|429:143,1,134.999995880127,0|0,3:2|0:0,0:0:0:0:
356,196,102913,1,0,3:2:0:0:
372,199,102999,1,0,3:2:0:0:
388,202,103085,1,0,3:2:0:0:
309,109,103256,1,8,2:2:0:0:
265,231,103428,1,8,0:0:0:0:
394,66,103599,1,8,0:0:0:0:
227,147,103770,6,0,P|186:137|122:140,1,101.249996910095,2|0,3:2|0:0,0:0:0:0:
64,88,104113,2,0,P|34:118|11:161,1,67.4999979400635,10|0,2:2|0:0,0:0:0:0:
144,46,104456,1,0,1:2:0:0:
144,46,104628,1,0,1:0:0:0:
78,208,104799,2,0,P|89:248|114:290,1,67.4999979400635,10|0,2:2|0:0,0:0:0:0:
254,271,105142,6,0,P|202:288|163:373,1,134.999995880127,2|10,3:2|2:2,0:0:0:0:
163,354,105656,1,0,1:0:0:0:
302,381,105828,2,0,L|384:369,1,67.4999979400635,0|8,1:2|0:0,0:0:0:0:
425,289,106170,2,0,P|390:271|343:277,1,67.4999979400635,10|0,2:2|0:0,0:0:0:0:
499,362,106513,6,0,L|514:212,1,134.999995880127,2|10,3:2|2:2,0:0:0:0:
452,145,107028,1,0,0:0:0:0:
313,209,107199,2,0,P|354:201|391:195,1,67.4999979400635,0|0,1:2|0:0,0:0:0:0:
234,109,107542,2,0,P|267:114|300:121,1,67.4999979400635,10|0,2:2|0:0,0:0:0:0:
153,246,107885,5,10,0:0:0:0:
373,292,108056,1,10,0:0:0:0:
373,292,108399,2,0,P|304:303|236:317,1,134.999995880127,0|0,3:2|3:2,0:0:0:0:
172,366,108828,1,0,3:2:0:0:
172,366,108913,2,0,P|150:360|127:355,1,33.7499989700318,0|0,3:2|3:2,0:0:0:0:
54,354,109085,2,0,P|48:331|41:309,1,33.7499989700318,0|0,3:3|3:3,0:0:0:0:
0,210,109256,6,0,P|32:152|141:138,1,165.000005035401,6|10,3:1|2:2,0:0:0:0:
198,229,109770,1,2,0:0:0:0:
259,69,109942,2,0,P|222:111|211:141,1,82.5000025177003,2|2,1:2|0:0,0:0:0:0:
335,225,110285,2,0,P|317:171|296:147,1,82.5000025177003,10|2,2:2|0:0,0:0:0:0:
260,313,110628,6,0,B|377:326|377:326|423:278,1,165.000005035401,2|10,3:2|2:2,0:0:0:0:
463,376,111142,1,2,0:0:0:0:
512,235,111313,2,0,L|487:134,1,82.5000025177003,2|0,1:2|3:2,0:0:0:0:
467,75,111570,1,0,3:2:0:0:
467,75,111656,1,8,2:2:0:0:
335,225,111828,1,2,0:0:0:0:
235,123,111999,6,0,L|420:143,1,165.000005035401,2|10,3:1|2:2,0:0:0:0:
399,140,112513,1,2,0:0:0:0:
265,27,112685,2,0,L|170:41,1,82.5000025177003,2|2,1:2|0:0,0:0:0:0:
99,130,113028,1,10,2:2:0:0:
99,130,113199,1,2,0:0:0:0:
220,245,113370,5,2,3:2:0:0:
235,123,113542,1,2,0:0:0:0:
119,244,113713,2,0,L|131:344,1,82.5000025177003,10|0,2:2|0:0,0:0:0:0:
309,295,114056,2,0,L|318:213,1,82.5000025177003,2|0,1:2|3:0,0:0:0:0:
226,356,114399,1,8,2:2:0:0:
318,213,114570,1,2,0:0:0:0:
393,337,114742,6,0,B|447:347|447:347|497:279,1,123.75000377655,2|0,3:1|0:0,0:0:0:0:
487,200,115085,2,0,P|440:213|408:250,1,82.5000025177003,10|2,2:2|0:0,0:0:0:0:
380,69,115428,2,0,P|367:116|383:162,1,82.5000025177003,0|0,1:2|0:0,0:0:0:0:
458,110,115770,1,10,2:2:0:0:
306,19,115942,1,2,0:0:0:0:
306,19,116113,6,0,L|216:47,1,82.5000025177003,2|2,3:2|0:0,0:0:0:0:
270,203,116456,2,0,L|290:111,1,82.5000025177003,10|2,2:2|0:0,0:0:0:0:
126,86,116799,2,0,L|195:149,1,82.5000025177003,0|0,1:2|0:0,0:0:0:0:
270,203,117142,1,10,2:2:0:0:
124,273,117313,1,2,3:2:0:0:
274,321,117485,6,0,B|212:313|212:313|181:281|181:281|118:272,1,165.000005035401,2|10,3:1|2:2,0:0:0:0:
46,336,117999,1,2,0:0:0:0:
109,191,118170,2,0,L|126:287,1,82.5000025177003,0|2,1:2|0:0,0:0:0:0:
14,121,118513,2,0,L|-3:217,1,82.5000025177003,10|2,2:2|3:2,0:0:0:0:
136,60,118856,5,8,3:2:0:0:
14,121,119028,1,8,3:2:0:0:
109,191,119199,1,8,2:2:0:0:
140,41,119370,1,8,0:0:0:0:
0,202,119542,5,0,3:2:0:0:
0,202,119628,1,0,0:0:0:0:
0,202,119713,1,0,3:2:0:0:
193,172,119885,2,0,L|298:182,1,82.5000025177003,10|2,3:2|3:2,0:0:0:0:
331,245,120142,1,0,3:2:0:0:
331,245,120228,6,0,P|361:170|327:113,1,123.75000377655,6|0,3:1|0:0,0:0:0:0:
297,67,120570,2,0,L|192:77,1,82.5000025177003,10|2,2:2|0:0,0:0:0:0:
367,3,120913,1,0,1:2:0:0:
297,67,121085,1,0,0:0:0:0:
445,166,121256,2,0,P|432:113|400:76,1,82.5000025177003,10|2,2:2|0:0,0:0:0:0:
275,179,121599,6,0,L|302:362,1,165.000005035401,2|8,3:2|2:2,0:0:0:0:
209,384,122113,1,2,0:0:0:0:
77,294,122285,2,0,P|125:293|171:308,1,82.5000025177003,0|0,1:2|3:2,0:0:0:0:
275,179,122628,2,0,P|233:180|194:171,1,82.5000025177003,10|0,2:2|0:0,0:0:0:0:
206,20,122970,6,0,P|228:54|239:94,1,82.5000025177003,2|0,3:1|0:0,0:0:0:0:
101,158,123313,2,0,P|119:121|148:91,1,82.5000025177003,10|0,2:1|1:0,0:0:0:0:
275,179,123656,1,2,1:1:0:0:
193,170,123828,1,0,0:0:0:0:
380,100,123999,2,0,P|421:98|460:107,1,82.5000025177003,10|0,2:1|0:0,0:0:0:0:
487,276,124342,6,0,B|433:296|433:296|412:171,1,165.000005035401,2|8,3:1|2:2,0:0:0:0:
415,190,124856,1,0,3:2:0:0:
335,334,125028,2,0,L|235:318,1,82.5000025177003,2|2,1:2|3:2,0:0:0:0:
145,384,125370,1,10,3:2:0:0:
145,384,125542,1,2,3:2:0:0:
100,248,125713,6,0,L|181:234,1,82.5000025177003,6|0,3:1|0:0,0:0:0:0:
67,158,126056,2,0,P|20:193|2:226,1,82.5000025177003,8|0,2:2|0:0,0:0:0:0:
132,89,126399,2,0,P|78:65|40:66,1,82.5000025177003,2|2,1:2|0:0,0:0:0:0:
100,248,126742,1,10,2:2:0:0:
201,151,126913,1,2,0:0:0:0:
314,295,127085,6,0,B|360:306|402:286|386:268|436:238|490:267,1,165.000005035401,2|8,3:1|2:2,0:0:0:0:
454,341,127599,1,2,0:0:0:0:
454,341,127770,1,2,1:2:0:0:
334,214,127942,1,2,0:0:0:0:
506,162,128113,2,0,P|451:139|417:142,1,82.5000025177003,10|2,2:2|0:0,0:0:0:0:
245,235,128456,5,0,3:2:0:0:
341,123,128628,1,0,3:2:0:0:
160,33,128799,1,8,2:2:0:0:
256,145,128970,1,0,3:2:0:0:
400,58,129142,5,0,1:2:0:0:
165,122,129313,1,8,0:0:0:0:
334,214,129485,2,0,L|315:299,1,82.5000025177003,8|8,2:2|0:0,0:0:0:0:
219,384,129828,5,8,2:2:0:0:
387,346,129999,1,8,0:0:0:0:
244,234,130170,1,0,1:2:0:0:
310,384,130342,1,8,3:2:0:0:
310,384,130428,1,0,3:2:0:0:
310,384,130513,1,0,3:2:0:0:
228,307,130685,1,0,3:2:0:0:
387,346,130856,1,8,3:2:0:0:
310,384,131028,1,0,3:2:0:0:
108,304,131199,6,0,B|105:275|120:248|143:234|143:234|146:197|122:164|89:155,1,165.000005035401,6|10,3:1|2:2,0:0:0:0:
20,234,131713,1,0,3:2:0:0:
23,213,131799,1,0,3:2:0:0:
27,193,131885,1,2,1:1:0:0:
108,304,132056,1,2,1:1:0:0:
19,374,132228,1,10,2:1:0:0:
189,300,132399,6,0,P|233:291|278:291,1,82.5000025177003,2|0,1:1|1:2,0:0:0:0:
329,370,132742,1,0,3:2:0:0:
329,370,132913,1,10,2:2:0:0:
407,226,133085,2,0,B|411:294|411:294|432:324|432:324|435:386,1,165.000005035401,0|0,3:2|1:2,0:0:0:0:
499,216,133599,2,0,P|477:164|434:142,1,82.5000025177003,10|2,2:1|1:1,0:0:0:0:
317,250,133942,2,0,B|319:189|319:189|340:159|340:159|344:91,2,165.000005035401,0|10|0,3:2|2:2|1:0,0:0:0:0:
317,250,134799,1,2,1:1:0:0:
258,129,134970,1,10,2:2:0:0:
190,267,135142,6,0,L|210:362,1,82.5000025177003,2|0,1:1|1:2,0:0:0:0:
92,194,135485,2,0,L|72:289,1,82.5000025177003,2|10,1:1|2:2,0:0:0:0:
258,129,135828,2,0,L|278:224,1,82.5000025177003,2|0,1:1|1:0,0:0:0:0:
153,106,136170,1,0,3:2:0:0:
274,209,136342,1,10,2:2:0:0:
371,138,136513,1,0,3:2:0:0:
371,138,136599,1,0,3:2:0:0:
371,138,136685,6,0,L|390:34,1,82.5000025177003,0|0,3:2|0:0,0:0:0:0:
446,193,137028,2,0,P|408:226|370:231,1,82.5000025177003,10|0,2:2|1:2,0:0:0:0:
199,154,137370,2,0,P|237:121|275:116,1,82.5000025177003,2|2,1:2|1:2,0:0:0:0:
274,209,137713,1,10,2:2:0:0:
155,305,137885,6,0,B|60:288|60:288|-4:342,2,165.000005035401,2|2|2,1:1|1:1|1:1,0:0:0:0:
232,368,138742,2,0,L|320:352,2,82.5000025177003,0|0|10,1:2|3:2|2:2,0:0:0:0:
129,210,139256,1,0,3:0:0:0:
129,210,139342,1,0,3:2:0:0:
129,210,139428,6,0,L|147:86,1,123.75000377655,0|0,3:2|0:0,0:0:0:0:
220,49,139770,2,0,P|261:38|303:51,1,82.5000025177003,10|0,2:2|3:2,0:0:0:0:
315,183,140113,2,0,P|279:162|259:126,1,82.5000025177003,0|0,1:2|1:2,0:0:0:0:
393,82,140456,1,10,2:2:0:0:
393,82,140628,1,0,1:2:0:0:
450,224,140799,5,10,3:1:0:0:
504,61,140970,1,0,3:2:0:0:
444,241,141142,2,0,P|404:251|365:240,1,82.5000025177003,10|0,2:1|3:2,0:0:0:0:
315,183,141399,1,0,3:2:0:0:
315,183,141485,5,10,1:1:0:0:
228,337,141656,1,0,3:2:0:0:
346,261,141828,1,10,2:1:0:0:
214,207,141999,1,0,3:2:0:0:
334,357,142170,6,0,B|375:368|424:343|403:325|449:302|495:319,1,165.000005035401,0|10,3:2|2:1,0:0:0:0:
372,186,142685,2,0,P|345:239|349:277,1,82.5000025177003,2|0,0:1|1:2,0:0:0:0:
473,191,143028,2,0,P|468:150|446:116,1,82.5000025177003,2|10,3:1|2:2,0:0:0:0:
328,24,143370,6,0,B|261:30|261:30|228:53|228:53|153:60,1,165.000005035401,6|0,2:2|0:0,0:0:0:0:
170,58,143885,1,10,2:2:0:0:
82,207,144056,2,0,B|123:127|123:127|82:97|90:48,1,165.000005035401,6|0,2:2|0:0,0:0:0:0:
88,63,144570,1,10,2:2:0:0:
192,215,144742,6,0,L|206:382,1,165.000005035401,6|0,2:2|3:2,0:0:0:0:
279,253,145256,1,8,0:0:0:0:
118,363,145428,1,0,3:2:0:0:
324,339,145599,6,0,L|409:347,1,82.5000025177003,8|0,0:0|3:2,0:0:0:0:
337,149,145942,2,0,L|252:157,1,82.5000025177003,8|0,0:0|3:2,0:0:0:0:
453,62,146285,5,8,0:0:0:0:
367,225,146456,1,0,3:2:0:0:
283,49,146628,2,0,L|198:57,1,82.5000025177003,8|0,0:0|3:2,0:0:0:0:
81,161,146970,5,8,0:0:0:0:
200,56,147142,1,0,3:2:0:0:
31,12,147313,1,8,0:0:0:0:
167,132,147485,1,0,3:2:0:0:
23,237,147656,6,0,P|58:238|107:249,1,82.5000025177003,8|0,0:0|3:2,0:0:0:0:
238,319,147999,2,0,P|196:329|156:330,1,82.5000025177003,8|0,0:0|3:2,0:0:0:0:
299,211,148342,5,8,0:0:0:0:
353,353,148513,1,0,3:2:0:0:
416,179,148685,2,0,L|391:82,1,82.5000025177003,8|0,0:0|3:2,0:0:0:0:
218,200,149028,6,0,P|265:213|322:202,1,82.5000025177003,10|0,0:1|3:2,0:0:0:0:
480,268,149370,2,0,P|439:265|399:278,1,82.5000025177003,10|0,0:1|3:2,0:0:0:0:
270,119,149713,2,0,P|275:84|282:49,2,55.0000016784668,10|0|0,0:1|3:2|3:2,0:0:0:0:
218,200,150056,1,10,0:1:0:0:
190,195,150170,1,0,3:2:0:0:
162,190,150285,1,0,3:2:0:0:
136,186,150399,6,0,P|96:207|69:326,1,165.000005035401,0|10,3:2|2:2,0:0:0:0:
65,315,150913,1,0,3:2:0:0:
235,289,151085,2,0,L|145:275,2,82.5000025177003,0|0|10,1:2|0:0|2:2,0:0:0:0:
334,372,151599,6,0,L|505:342,1,165.000005035401,0|0,3:2|3:2,0:0:0:0:
411,199,152113,2,0,P|380:238|376:285,1,82.5000025177003,10|0,2:2|3:2,0:0:0:0:
459,269,152456,1,0,1:2:0:0:
363,132,152628,2,0,P|308:196|293:282,1,165.000005035401,0|0,1:2|3:2,0:0:0:0:
223,345,153142,6,0,P|156:333|124:285,1,123.75000377655,0|0,3:2|0:0,0:0:0:0:
45,308,153485,2,0,P|44:274|81:220,1,82.5000025177003,10|0,2:2|3:2,0:0:0:0:
149,178,153828,1,0,1:2:0:0:
46,68,153999,2,0,L|68:252,1,165.000005035401,0|0,0:0|3:2,0:0:0:0:
65,231,154513,5,0,3:2:0:0:
67,214,154856,1,0,3:2:0:0:
69,197,155199,1,0,3:2:0:0:
71,180,155542,1,0,3:2:0:0:
168,70,155713,5,0,0:0:0:0:
168,70,155799,1,0,0:0:0:0:
168,70,155885,2,0,P|211:57|266:57,2,82.5000025177003,0|0|10,3:2|3:2|2:2,0:0:0:0:
251,179,156399,1,0,3:2:0:0:
251,179,156485,1,0,3:2:0:0:
251,179,156570,6,0,P|237:150|216:125,1,41.2500012588501,0|0,3:2|3:2,0:0:0:0:
312,119,156742,2,0,P|323:88|324:56,1,41.2500012588501,0|0,3:2|3:2,0:0:0:0:
397,119,156913,2,0,P|425:105|450:84,3,41.2500012588501,0|0|0|0,3:2|3:2|3:2|3:2,0:0:0:0:
459,180,157256,6,0,P|446:227|456:335,2,134.999995880127,6|10|2,3:2|2:2|1:2,0:0:0:0:
459,180,158113,1,0,0:0:0:0:
358,248,158285,2,0,P|327:238|293:232,1,67.4999979400635,10|2,2:2|0:0,0:0:0:0:
233,348,158628,5,2,3:2:0:0:
233,348,158799,2,0,P|266:342|298:331,1,67.4999979400635,2|10,0:0|2:2,0:0:0:0:
147,230,159142,2,0,L|127:383,1,134.999995880127,2|2,0:0|0:0,0:0:0:0:
61,265,159656,1,10,2:2:0:0:
224,194,159828,1,0,3:2:0:0:
224,194,159999,6,0,P|218:151|199:113,1,67.4999979400635,0|0,3:2|0:0,0:0:0:0:
62,126,160342,2,0,P|102:142|144:144,1,67.4999979400635,10|0,2:2|0:0,0:0:0:0:
202,19,160685,2,0,P|167:45|144:81,1,67.4999979400635,2|2,1:2|0:0,0:0:0:0:
224,194,161028,1,10,2:2:0:0:
125,145,161199,1,2,3:2:0:0:
291,65,161370,6,0,L|445:75,1,134.999995880127,2|8,3:2|2:2,0:0:0:0:
502,7,161885,1,2,3:2:0:0:
421,159,162056,2,0,L|431:236,1,67.4999979400635,2|2,1:2|1:2,0:0:0:0:
282,131,162399,2,0,L|290:64,1,67.4999979400635,10|0,2:2|3:2,0:0:0:0:
445,168,162742,6,0,L|465:326,2,134.999995880127,2|10|2,3:2|2:2|1:2,0:0:0:0:
326,235,163599,1,0,0:0:0:0:
326,235,163770,2,0,L|318:302,1,67.4999979400635,10|2,2:2|0:0,0:0:0:0:
237,363,164113,5,2,3:2:0:0:
237,363,164285,2,0,P|200:367|168:356,1,67.4999979400635,2|10,0:0|2:2,0:0:0:0:
127,289,164628,1,2,0:0:0:0:
127,289,164799,2,0,B|135:234|135:234|156:211|156:211|165:150,1,134.999995880127,2|10,1:2|2:2,0:0:0:0:
80,172,165313,1,0,3:2:0:0:
214,274,165485,6,0,L|317:257,1,101.249996910095,0|0,3:2|0:0,0:0:0:0:
382,306,165828,2,0,P|397:261|392:228,1,67.4999979400635,10|0,2:2|0:0,0:0:0:0:
239,153,166170,1,0,1:2:0:0:
313,257,166342,1,0,3:2:0:0:
371,115,166513,2,0,P|340:98|304:93,1,67.4999979400635,10|0,2:2|3:2,0:0:0:0:
121,195,166856,6,0,P|171:199|244:141,1,134.999995880127,0|10,3:2|2:2,0:0:0:0:
308,92,167370,1,0,3:2:0:0:
145,43,167542,2,0,L|159:114,1,67.4999979400635,0|0,1:2|1:2,0:0:0:0:
33,205,167885,2,0,L|46:139,1,67.4999979400635,10|2,2:2|2:2,0:0:0:0:
163,251,168228,6,0,B|109:264|109:264|85:290|85:290|33:302,1,134.999995880127,2|10,3:2|2:2,0:0:0:0:
42,299,168742,1,0,0:0:0:0:
167,346,168913,2,0,L|245:357,1,67.4999979400635,2|0,1:2|0:0,0:0:0:0:
327,269,169256,1,10,2:2:0:0:
327,269,169428,1,2,0:0:0:0:
346,372,169599,5,2,3:2:0:0:
249,222,169770,1,2,0:0:0:0:
327,269,169942,2,0,L|407:254,1,67.4999979400635,10|2,2:2|0:0,0:0:0:0:
249,222,170285,5,2,1:2:0:0:
346,72,170456,1,2,0:0:0:0:
268,119,170628,2,0,L|188:104,1,67.4999979400635,10|0,2:2|3:2,0:0:0:0:
105,13,170970,6,0,L|116:88,1,67.4999979400635,0|0,3:2|0:0,0:0:0:0:
12,148,171313,2,0,L|22:81,1,67.4999979400635,10|0,2:2|0:0,0:0:0:0:
113,200,171656,2,0,P|78:254|11:271,1,134.999995880127,0|10,1:2|2:2,0:0:0:0:
12,271,172170,1,0,0:0:0:0:
132,354,172342,6,0,L|202:337,1,67.4999979400635,0|0,3:2|0:0,0:0:0:0:
265,263,172685,2,0,L|331:279,1,67.4999979400635,10|0,2:2|3:2,0:0:0:0:
401,351,173028,1,0,1:2:0:0:
401,351,173199,1,0,1:2:0:0:
472,244,173370,2,0,L|456:157,1,67.4999979400635,10|2,2:2|0:0,0:0:0:0:
289,130,173713,6,0,B|360:136|360:136|414:88,2,134.999995880127,2|10|2,3:2|2:2|1:2,0:0:0:0:
212,55,174570,1,0,0:0:0:0:
212,55,174742,2,0,P|189:86|179:121,1,67.4999979400635,10|2,2:2|0:0,0:0:0:0:
104,180,175085,5,2,3:2:0:0:
104,180,175256,2,0,B|103:204|110:226|123:244|123:244|136:263|142:286|141:307,1,134.999995880127,2|2,0:0|0:0,0:0:0:0:
8,342,175770,2,0,P|34:311|64:295,1,67.4999979400635,0|2,1:2|0:0,0:0:0:0:
188,187,176113,2,0,P|216:204|237:231,1,67.4999979400635,10|0,2:2|3:2,0:0:0:0:
285,369,176456,6,0,P|291:321|362:265,1,134.999995880127,0|10,3:2|2:2,0:0:0:0:
353,266,176970,1,0,0:0:0:0:
500,379,177142,1,0,1:2:0:0:
424,228,177313,1,0,0:0:0:0:
369,353,177485,1,10,2:2:0:0:
501,248,177656,1,0,0:0:0:0:
355,179,177828,6,0,L|268:204,1,67.4999979400635,0|0,3:2|3:2,0:0:0:0:
353,266,178170,1,10,2:2:0:0:
206,188,178342,2,0,L|222:134,2,33.7499989700318,0|0|0,3:2|3:2|1:2,0:0:0:0:
264,307,178685,1,0,3:2:0:0:
259,290,178770,1,0,3:2:0:0:
254,274,178856,1,10,2:2:0:0:
190,371,179028,1,0,3:2:0:0:
100,206,179199,5,12,3:2:0:0:
264,307,179370,1,0,3:2:0:0:
114,304,179542,1,0,3:2:0:0:
215,155,179713,1,8,3:2:0:0:
46,79,179885,5,0,3:2:0:0:
100,206,180056,1,0,3:2:0:0:
224,72,180228,1,8,3:2:0:0:
224,72,180399,6,0,B|276:58|316:101|316:101|366:95,1,134.999995880127,8|2,3:2|1:2,0:0:0:0:
382,68,180828,1,2,1:2:0:0:
382,68,180913,1,2,1:2:0:0:
471,220,181256,5,2,0:0:0:0:
352,181,181428,1,2,0:0:0:0:
426,282,181599,1,2,0:0:0:0:
352,258,181770,1,2,0:0:0:0:
426,157,181942,5,2,2:2:0:0:
426,157,187428,6,0,B|399:117|347:105|307:126|307:126|280:167|228:178|187:157,1,269.999991760254,2|0,2:0|0:0,0:0:0:0:
187,157,188799,6,0,L|204:299,1,134.999995880127,2|0,2:0|0:0,0:0:0:0:
152,354,189485,2,0,P|109:364|43:298,1,134.999995880127,2|0,2:0|0:0,0:0:0:0:
90,241,190170,5,2,2:0:0:0:
187,157,190513,1,0,0:0:0:0:
49,53,190856,2,0,B|91:74|91:74|105:167,1,134.999995880127,2|0,2:0|0:0,0:0:0:0:
234,221,191542,5,2,2:0:0:0:
187,157,191885,1,2,2:0:0:0:
251,111,192228,1,2,2:0:0:0:
297,174,192570,1,2,2:0:0:0:
217,331,192913,6,0,L|226:380,1,44.999998626709,2|2,2:0|2:0,0:0:0:0:
305,288,193256,2,0,L|301:338,1,44.999998626709,2|2,2:0|2:0,0:0:0:0:
386,329,193599,2,0,L|395:378,1,44.999998626709,2|2,2:0|2:0,0:0:0:0:
474,286,193942,1,10,2:2:0:0:
297,174,194285,6,0,B|314:138|361:118|405:143|405:143|472:184|570:109|513:-10|414:-1|383:56,1,404.999987640381,2|0,3:1|0:0,0:0:0:0:
366,210,195656,5,8,0:0:0:0:
366,210,195828,1,0,3:2:0:0:
87,376,197028,6,0,B|90:326|134:289|187:295|217:327|217:327|171:280|180:200|243:161|302:174,1,404.999987640381,2|0,3:1|0:0,0:0:0:0:
112,227,198399,5,8,0:0:0:0:
112,227,198570,2,0,B|38:212|38:212|25:147,1,134.999995880127,0|0,3:2|1:2,0:0:0:0:
172,118,199085,2,0,P|136:137|109:140,1,67.4999979400635,8|0,0:0|3:2,0:0:0:0:
175,19,199428,2,0,P|208:24|237:41,1,67.4999979400635,8|0,0:0|0:0,0:0:0:0:
315,152,199770,6,0,L|439:136,1,101.249996910095,0|0,3:2|0:0,0:0:0:0:
469,202,200113,2,0,P|463:254|444:283,1,67.4999979400635,10|0,2:2|0:0,0:0:0:0:
398,350,200456,2,0,L|327:340,1,67.4999979400635,0|0,1:2|0:0,0:0:0:0:
235,246,200799,2,0,L|305:236,1,67.4999979400635,10|0,2:2|0:0,0:0:0:0:
123,347,201142,6,0,L|146:240,1,101.249996910095,0|0,3:2|3:2,0:0:0:0:
186,175,201485,2,0,L|223:168,3,33.7499989700318,10|0|0|0,3:2|3:2|3:2|3:2,0:0:0:0:
279,108,201828,2,0,L|312:114,3,33.7499989700318,0|0|0|0,3:2|3:2|3:2|3:2,0:0:0:0:
392,196,202170,1,10,3:2:0:0:
408,193,202256,1,0,3:2:0:0:
425,191,202342,1,0,3:2:0:0:
442,188,202428,1,0,3:2:0:0:
458,186,202513,5,12,3:2:0:0:
353,272,202685,1,0,3:2:0:0:
405,108,202856,1,0,3:2:0:0:
504,257,203028,5,8,3:2:0:0:
353,357,203199,2,0,L|268:339,1,82.5000025177003,0|0,3:2|3:2,0:0:0:0:
392,196,203542,5,8,3:2:0:0:
451,331,203713,1,0,3:2:0:0:
446,351,203799,1,0,0:0:0:0:
442,371,203885,5,12,3:2:0:0:
353,272,204056,1,0,3:2:0:0:
479,176,204228,1,0,3:2:0:0:
289,98,204399,1,8,3:2:0:0:
392,196,204570,5,0,3:2:0:0:
466,36,204742,1,0,3:2:0:0:
300,183,204913,1,8,2:2:0:0:
278,178,204999,1,8,2:2:0:0:
258,174,205085,1,8,2:2:0:0:
237,172,205170,1,8,2:2:0:0:
216,167,205256,6,0,P|145:207|143:311,1,165.000005035401,6|10,3:1|2:2,0:0:0:0:
192,362,205770,1,2,0:0:0:0:
51,305,205942,2,0,L|137:282,1,82.5000025177003,0|0,1:2|0:0,0:0:0:0:
108,125,206285,2,0,P|69:171|56:207,1,82.5000025177003,10|2,2:2|0:0,0:0:0:0:
266,66,206628,6,0,L|101:30,1,165.000005035401,2|8,3:2|2:2,0:0:0:0:
196,144,207142,1,2,0:0:0:0:
336,18,207313,1,0,1:2:0:0:
336,18,207485,1,0,3:2:0:0:
428,101,207656,2,0,P|427:147|416:191,1,82.5000025177003,10|0,2:2|0:0,0:0:0:0:
335,236,207999,5,2,3:1:0:0:
289,103,208170,1,0,0:0:0:0:
414,266,208342,2,0,P|423:306|423:347,1,82.5000025177003,10|0,2:1|0:0,0:0:0:0:
225,275,208685,5,2,1:1:0:0:
325,319,208856,1,0,0:0:0:0:
192,194,209028,2,0,L|93:212,1,82.5000025177003,10|0,2:1|0:0,0:0:0:0:
243,94,209370,6,0,P|285:133|300:209,1,123.75000377655,2|0,3:1|3:2,0:0:0:0:
225,275,209713,2,0,L|238:383,1,82.5000025177003,8|0,2:2|3:2,0:0:0:0:
126,323,210056,1,2,1:2:0:0:
192,194,210228,1,2,3:2:0:0:
192,194,210313,1,0,3:2:0:0:
192,194,210399,1,10,3:2:0:0:
234,356,210570,1,2,3:2:0:0:
113,236,210742,6,0,P|104:196|129:125,1,82.5000025177003,6|0,3:1|0:0,0:0:0:0:
311,52,211085,2,0,P|281:80|207:94,1,82.5000025177003,8|0,2:2|0:0,0:0:0:0:
390,296,211428,2,0,P|352:282|319:156,1,165.000005035401,2|10,1:2|2:2,0:0:0:0:
397,201,211942,1,2,0:0:0:0:
257,312,212113,6,0,B|195:307|195:307|164:285|164:285|96:278,1,165.000005035401,2|8,3:1|2:2,0:0:0:0:
20,338,212628,1,2,0:0:0:0:
135,199,212799,2,0,L|120:102,1,82.5000025177003,2|2,1:2|0:0,0:0:0:0:
26,232,213142,1,10,2:2:0:0:
132,365,213313,1,2,0:0:0:0:
229,221,213485,5,0,3:2:0:0:
99,278,213656,1,0,3:2:0:0:
261,328,213828,1,8,2:2:0:0:
135,199,213999,1,0,3:2:0:0:
294,131,214170,5,0,1:2:0:0:
180,293,214342,1,8,0:0:0:0:
178,98,214513,1,8,2:2:0:0:
350,247,214685,1,8,0:0:0:0:
350,247,215370,5,0,3:2:0:0:
439,130,215542,2,0,P|427:171|422:219,1,67.4999979400635,8|0,0:0|3:2,0:0:0:0:
512,319,215885,2,0,P|506:286|496:254,1,67.4999979400635,8|0,0:0|3:2,0:0:0:0:
421,300,216142,1,0,3:2:0:0:
421,300,216228,6,0,B|409:332|405:365|405:365|362:382|316:383,1,134.999995880127,10|2,0:0|3:2,0:0:0:0:
269,306,216742,1,0,0:0:0:0:
269,306,216913,2,0,P|238:292|199:289,1,67.4999979400635,2|0,2:0|0:0,0:0:0:0:
107,384,217256,2,0,P|140:380|171:367,1,67.4999979400635,10|2,0:0|0:0,0:0:0:0:
52,254,217599,6,0,L|16:385,1,134.999995880127,2|2,0:0|3:2,0:0:0:0:
107,384,218113,1,0,0:0:0:0:
204,260,218285,2,0,B|143:245|143:245|103:162,1,134.999995880127,2|10,2:0|0:0,0:0:0:0:
52,254,218799,1,2,0:0:0:0:
202,169,218970,6,0,L|286:189,1,67.4999979400635,2|0,0:0|0:0,0:0:0:0:
159,68,219313,2,0,L|75:88,1,67.4999979400635,2|0,3:2|0:0,0:0:0:0:
280,85,219656,2,0,L|255:2,2,67.4999979400635,2|0|10,2:0|0:0|0:0,0:0:0:0:
202,169,220170,1,2,0:0:0:0:
306,273,220342,6,0,B|329:280|353:275|369:260|369:260|388:245|412:241|433:248,1,134.999995880127,2|2,0:0|3:2,0:0:0:0:
479,314,220856,1,0,0:0:0:0:
322,198,221028,2,0,L|334:130,1,67.4999979400635,2|0,2:0|0:0,0:0:0:0:
210,255,221370,2,0,L|221:321,1,67.4999979400635,10|2,0:0|0:0,0:0:0:0:
128,214,221713,6,0,P|167:171|251:172,1,134.999995880127,2|2,0:0|3:2,0:0:0:0:
240,166,222228,1,0,0:0:0:0:
174,21,222399,2,0,P|158:63|156:95,1,67.4999979400635,2|0,2:0|0:0,0:0:0:0:
328,175,222742,2,0,P|323:141|309:110,1,67.4999979400635,10|2,0:0|0:0,0:0:0:0:
271,36,222999,1,2,0:0:0:0:
271,36,223085,6,0,P|320:26|375:56,1,101.249996910095,2|2,0:0|0:0,0:0:0:0:
412,116,223428,2,0,L|493:100,1,67.4999979400635,2|0,3:2|0:0,0:0:0:0:
372,225,223770,2,0,L|317:162,1,67.4999979400635,2|0,2:0|0:0,0:0:0:0:
486,209,224113,2,0,L|459:287,1,67.4999979400635,10|2,0:0|0:0,0:0:0:0:
337,362,224456,6,0,B|287:355|287:355|258:331|258:331|198:321,1,134.999995880127,2|2,0:0|3:2,0:0:0:0:
121,370,224970,1,0,0:0:0:0:
79,258,225142,2,0,P|101:224|138:202,1,67.4999979400635,2|0,2:0|0:0,0:0:0:0:
174,118,225485,2,0,P|200:138|217:167,1,67.4999979400635,10|2,0:0|0:0,0:0:0:0:
83,60,225828,6,0,P|137:25|224:27,1,134.999995880127,2|2,0:0|0:0,0:0:0:0:
283,88,226342,1,0,0:0:0:0:
174,118,226513,5,10,3:2:0:0:
353,184,226685,1,0,3:2:0:0:
196,263,226856,5,8,3:2:0:0:
299,313,227028,1,10,3:2:0:0:
256,192,227199,12,0,229942,0:0:0:0:
