osu file format v14

[General]
AudioFilename: audio.mp3
AudioLeadIn: 0
PreviewTime: 54888
Countdown: 1
SampleSet: Normal
StackLeniency: 0.7
Mode: 0
LetterboxInBreaks: 0
WidescreenStoryboard: 0

[Editor]
DistanceSpacing: 2.5
BeatDivisor: 4
GridSize: 4
TimelineZoom: 2.6

[Metadata]
Title:Egao no Okiha
TitleUnicode:三森すずこ 8th Single「エガオノキミヘ」試聴ver.
Artist:Mimori Suzuko
ArtistUnicode:三森すずこ
Creator:Arospity
Version:Expert
Source:
Tags:
BeatmapID:1605941
BeatmapSetID:763761

[Difficulty]
HPDrainRate:6
CircleSize:4.2
OverallDifficulty:8.5
ApproachRate:9.3
SliderMultiplier:1.2
SliderTickRate:1

[Events]
//Background and Video events
//Break Periods
//Storyboard Layer 0 (Background)
//Storyboard Layer 1 (Fail)
//Storyboard Layer 2 (Pass)
//Storyboard Layer 3 (Foreground)
//Storyboard Sound Samples

[TimingPoints]
1403,342.857142857143,4,1,0,25,1,0
13745,-83.3333333333333,4,1,0,35,0,0
17860,-80,4,1,0,35,0,0
22317,-71.4285714285714,4,1,0,40,0,0
32945,-71.4285714285714,4,1,0,43,0,0
39803,-68.9655172413793,4,1,0,40,0,0
41174,-66.6666666666667,4,1,0,48,0,0
42545,-66.6666666666667,4,1,0,55,0,0
43917,-76.9230769230769,4,1,0,45,0,0
49403,-71.4285714285714,4,1,0,50,0,0
52145,-71.4285714285714,4,1,0,55,0,0
54888,-66.6666666666667,4,1,0,50,0,0
70660,-66.6666666666667,4,1,0,54,0,1
71345,-66.6666666666667,4,1,0,54,0,1
72717,-66.6666666666667,4,1,0,59,0,1
74088,-66.6666666666667,4,1,0,65,0,1
75288,-83.3333333333333,4,1,0,45,0,0

[HitObjects]
81,108,1403,6,8,P|141:77|206:92,1,120,8|8,0:2|0:2,0:0:0:0:
236,246,1917,1,0,0:0:0:0:
257,139,2088,2,0,P|318:89|368:84,1,120,8|8,2:2|0:0,0:0:0:0:
448,107,2603,1,0,0:0:0:0:
395,267,2774,6,0,L|334:151,1,120,8|8,0:2|0:2,0:0:0:0:
381,82,3288,1,0,0:0:0:0:
308,261,3460,1,8,0:2:0:0:
424,189,3974,1,0,0:0:0:0:
448,309,4145,6,8,P|377:264|324:273,1,120,8|8,0:2|0:2,0:2:0:0:
491,380,4831,2,8,P|521:315|496:249,1,120
454,198,5345,1,0,0:0:0:0:
390,124,5517,6,8,P|312:222|187:251,2,240,8|8|8,0:2|0:2|0:2,0:2:0:0:
267,83,7060,1,0,0:0:0:0:
470,113,7231,2,0,P|450:66|437:55,1,60,8|0,0:2|0:0,0:0:0:0:
350,29,7574,1,8,0:2:0:0:
177,82,7917,2,0,L|202:149,1,60,8|0,0:2|0:0,0:0:0:0:
208,269,8260,6,8,L|375:91,2,240,8|8|8,0:2|0:2|0:2,0:2:0:0:
311,345,9803,1,0,0:0:0:0:
383,202,9974,1,8,0:2:0:0:
436,340,10145,1,0,0:0:0:0:
335,273,10317,1,8,0:2:0:0:
244,320,10488,2,0,P|206:320|170:293,1,60,0|8,0:0|0:2,0:0:0:0:
456,179,10831,1,0,0:0:0:0:
290,251,11003,5,8,0:2:0:0:
256,192,11088,12,0,12374,0:0:0:0:
256,192,12460,12,0,13574,0:0:0:0:
326,111,13745,6,0,P|352:158|352:193,1,71.9999978027344,4|0,0:2|0:0,0:0:0:0:
223,233,14088,2,0,P|253:184|289:164,1,71.9999978027344
397,122,14431,1,0,0:0:0:0:
446,254,14603,1,0,0:0:0:0:
308,232,14774,1,0,0:0:0:0:
455,93,14945,1,0,0:0:0:0:
372,38,15117,6,0,P|308:53|287:54,1,71.9999978027344,4|0,0:2|0:0,0:0:0:0:
145,31,15460,2,0,P|188:52|222:86,1,71.9999978027344
254,135,15803,1,0,0:0:0:0:
303,267,15975,1,0,0:0:0:0:
165,245,16146,1,0,0:0:0:0:
363,175,16317,1,0,0:0:0:0:
285,324,16488,6,0,P|248:304|218:266,1,71.9999978027344,4|0,0:2|0:0,0:0:0:0:
255,151,16831,2,0,P|281:198|285:248,1,71.9999978027344
227,282,17174,1,0,0:0:0:0:
97,274,17346,1,0,0:0:0:0:
209,207,17517,1,0,0:0:0:0:
177,339,17688,1,0,0:0:0:0:
128,194,17860,6,0,B|158:115|238:133|238:133|224:25|341:38,2,300,0|0|8,0:0|0:0|0:2,0:0:0:0:
136,278,19403,1,0,0:0:0:0:
206,202,19574,1,0,0:0:0:0:
233,337,19745,1,0,0:0:0:0:
46,256,19917,1,8,0:2:0:0:
221,170,20088,1,0,0:0:0:0:
233,337,20260,1,0,0:0:0:0:
74,184,20431,1,0,0:0:0:0:
250,138,20603,5,8,0:2:0:0:
233,337,20774,1,0,0:0:0:0:
56,225,20945,1,8,0:2:0:0:
195,246,21117,1,0,0:0:0:0:
138,310,21288,5,8,0:2:0:0:
115,280,21373,1,0,0:0:0:0:
107,243,21459,1,0,0:0:0:0:
113,207,21545,1,0,0:0:0:0:
133,176,21630,1,8,0:2:0:0:
172,165,21717,1,0,0:0:0:0:
201,188,21802,1,0,0:0:0:0:
238,196,21888,1,0,0:0:0:0:
274,189,21974,1,8,0:2:0:0:
348,100,22317,6,0,P|385:153|394:189,1,83.9999974365235,8|0,0:0|0:0,0:0:0:0:
419,251,22660,1,0,0:0:0:0:
296,279,22831,1,0,0:0:0:0:
308,164,23003,1,0,0:0:0:0:
377,342,23174,1,0,0:0:0:0:
202,342,23345,2,0,P|177:289|239:203,1,167.999994873047,8|0,0:0|0:0,0:0:0:0:
366,210,23860,1,0,0:0:0:0:
294,105,24031,1,0,0:0:0:0:
168,94,24203,2,0,L|128:187,2,83.9999974365235
215,175,24717,6,0,P|174:240|137:244,1,83.9999974365235,8|0,0:0|0:0,0:0:0:0:
93,232,25060,1,0,0:0:0:0:
236,349,25231,2,0,P|129:318|44:341,1,167.999994873047
45,248,25745,1,0,0:0:0:0:
237,180,25917,2,0,L|185:276,1,83.9999974365235,0|8,0:0|0:0,0:0:0:0:
146,340,26260,1,0,0:0:0:0:
156,141,26431,1,0,0:0:0:0:
305,254,26603,1,0,0:0:0:0:
61,285,26774,1,0,0:0:0:0:
237,180,26945,1,0,0:0:0:0:
205,340,27117,2,0,L|157:268,1,83.9999974365235
188,113,27460,6,0,P|243:96|279:105,1,83.9999974365235,8|0,0:0|0:0,0:0:0:0:
372,29,27803,2,0,L|350:129,1,83.9999974365235
448,218,28145,2,0,P|380:208|348:186,1,83.9999974365235
281,169,28488,1,0,0:0:0:0:
205,126,28660,2,0,P|198:193|217:232,2,83.9999974365235,0|8|0,0:0|0:0|0:0,0:0:0:0:
324,51,29174,2,0,P|319:104|299:137,1,83.9999974365235
210,209,29517,1,0,0:0:0:0:
42,132,29688,1,0,0:0:0:0:
238,80,29860,1,0,0:0:0:0:
220,285,30031,2,0,P|175:276|144:246,2,83.9999974365235,0|8|0,0:0|0:0|0:0,0:0:0:0:
304,287,30545,6,0,P|322:325|352:355,2,83.9999974365235
315,171,31060,1,0,0:0:0:0:
483,57,31231,1,0,0:0:0:0:
386,286,31403,1,0,0:0:0:0:
200,166,31574,1,8,0:0:0:0:
207,172,32088,5,0,0:0:0:0:
207,172,32174,1,0,0:0:0:0:
207,172,32260,1,8,0:0:0:0:
399,53,32431,1,0,0:0:0:0:
398,245,32603,1,8,0:0:0:0:
189,172,32774,1,0,0:0:0:0:
232,42,32945,5,8,0:0:0:0:
96,203,33117,1,0,0:0:0:0:
272,120,33288,2,0,P|288:232|316:300,1,167.999994873047
379,353,33803,1,0,0:0:0:0:
450,152,33974,2,0,P|393:190|359:233,1,83.9999974365235
312,315,34317,1,8,0:0:0:0:
192,206,34488,6,0,P|223:280|249:305,1,83.9999974365235
418,359,34831,1,0,0:0:0:0:
405,119,35003,1,0,0:0:0:0:
357,214,35174,2,0,P|302:234|246:220,1,83.9999974365235
299,114,35517,1,0,0:0:0:0:
205,274,35688,6,0,B|113:228|113:228|65:147,1,167.999994873047,8|0,0:0|0:0,0:0:0:0:
150,66,36203,1,0,0:0:0:0:
274,253,36374,1,0,0:0:0:0:
165,174,36545,1,0,0:0:0:0:
373,28,36717,1,0,0:0:0:0:
351,114,36888,2,0,P|314:94|290:61,1,83.9999974365235,0|8,0:0|0:0,0:0:0:0:
481,85,37231,5,0,0:0:0:0:
343,213,37403,1,0,0:0:0:0:
299,37,37574,1,0,0:0:0:0:
497,170,37745,1,0,0:0:0:0:
238,273,37917,1,0,0:0:0:0:
414,251,38088,2,0,P|421:292|418:334,1,83.9999974365235
324,52,38431,6,0,L|268:136,1,83.9999974365235,8|0,0:0|0:0,0:0:0:0:
172,48,38774,1,0,0:0:0:0:
296,224,38945,1,0,0:0:0:0:
192,200,39117,2,0,P|188:152|208:108,2,83.9999974365235
236,296,39631,1,0,0:0:0:0:
428,216,39803,6,0,P|424:152|416:128,1,87.0000026550294,8|0,0:0|0:0,0:0:0:0:
156,92,40145,2,0,P|180:144|208:164,1,87.0000026550294
360,184,40488,1,0,0:0:0:0:
320,32,40660,1,0,0:0:0:0:
228,272,40831,1,0,0:0:0:0:
406,41,41003,2,0,P|358:32|314:32,1,87.0000026550294,0|8,0:0|0:0,0:0:0:0:
177,64,41345,5,0,0:0:0:0:
301,246,41517,1,0,0:0:0:0:
353,104,41688,1,0,0:0:0:0:
88,137,41860,2,0,P|88:197|105:233,1,90.0000034332277,8|0,0:0|0:0,0:0:0:0:
443,78,42203,2,0,P|382:80|350:105,1,90.0000034332277
408,195,42545,5,8,0:2:0:0:
139,78,42717,1,0,0:0:0:0:
408,195,42888,1,8,0:2:0:0:
104,318,43060,1,0,0:0:0:0:
408,195,43231,1,8,0:2:0:0:
55,53,43403,1,0,0:0:0:0:
428,120,43574,1,8,0:2:0:0:
467,140,43659,1,0,0:0:0:0:
488,179,43745,1,8,0:2:0:0:
484,223,43831,1,0,0:0:0:0:
456,257,43917,6,0,P|378:277|283:271,1,155.999992858887,10|0,0:2|0:0,0:0:0:0:
295,163,44431,1,0,0:0:0:0:
191,200,44603,1,0,0:0:0:0:
222,302,44774,2,0,P|259:339|303:353,1,77.9999964294435
351,212,45117,2,0,L|295:273,1,77.9999964294435
225,183,45460,1,0,0:0:0:0:
351,131,45631,1,0,0:0:0:0:
465,184,45803,2,0,L|445:264,2,77.9999964294435
375,55,46317,2,0,P|335:51|286:94,1,77.9999964294435
136,59,46660,6,0,P|216:105|254:171,1,155.999992858887,10|0,0:2|0:0,0:0:0:0:
204,309,47174,2,0,P|170:271|168:238,1,77.9999964294435
249,157,47517,1,0,0:0:0:0:
245,249,47688,1,0,0:0:0:0:
102,196,47860,1,0,0:0:0:0:
317,41,48031,6,0,P|365:126|375:189,1,155.999992858887
274,336,48545,1,0,0:0:0:0:
152,201,48717,2,0,P|210:131|297:135,1,155.999992858887
413,145,49231,5,0,0:0:0:0:
372,318,49403,2,0,P|323:219|252:212,1,167.999994873047,10|0,0:2|0:0,0:0:0:0:
156,89,49917,2,0,P|106:126|95:148,1,83.9999974365235,2|0,0:2|0:0,0:0:0:0:
185,319,50260,2,0,P|215:271|206:215,1,83.9999974365235
31,103,50603,2,0,P|14:148|50:204,1,83.9999974365235,2|0,0:2|0:0,0:2:0:0:
143,259,50945,1,0,0:0:0:0:
308,179,51117,1,0,0:0:0:0:
118,97,51288,1,2,0:2:0:0:
262,328,51460,1,0,0:0:0:0:
313,66,51631,1,0,0:0:0:0:
41,65,51803,2,0,P|38:119|68:159,1,83.9999974365235
214,313,52145,5,8,0:2:0:0:
254,189,52317,1,0,0:0:0:0:
57,251,52488,1,8,0:2:0:0:
337,260,52660,1,0,0:0:0:0:
217,83,52831,1,8,0:2:0:0:
86,336,53003,1,0,0:0:0:0:
390,206,53174,1,8,0:2:0:0:
115,56,53345,1,0,0:0:0:0:
196,345,53517,1,8,0:2:0:0:
394,53,53688,1,0,0:0:0:0:
294,235,54031,5,0,0:0:0:0:
294,235,54117,1,0,0:0:0:0:
294,235,54203,1,8,0:2:0:0:
437,126,54374,1,0,0:0:0:0:
69,85,54545,1,8,0:2:0:0:
363,355,54717,1,0,0:0:0:0:
228,116,54888,6,0,P|195:162|182:194,1,90.0000034332277,6|0,0:2|0:0,0:0:0:0:
281,286,55231,2,0,P|279:235|259:195,1,90.0000034332277
143,95,55574,1,6,0:2:0:0:
86,273,55745,1,0,0:0:0:0:
164,211,55917,1,0,0:0:0:0:
38,161,56088,1,0,0:0:0:0:
285,242,56260,6,0,P|249:275|224:332,1,90.0000034332277,6|0,2:0|0:0,0:0:0:0:
309,120,56603,1,0,0:0:0:0:
115,219,56774,1,0,0:0:0:0:
384,307,56945,2,0,P|414:265|421:202,2,90.0000034332277,6|0|0,2:0|0:0|0:0,0:0:0:0:
354,155,57460,1,0,0:0:0:0:
172,318,57631,6,0,P|138:279|128:215,1,90.0000034332277,6|0,2:0|0:0,0:0:0:0:
252,171,57974,2,0,P|230:222|186:253,1,90.0000034332277
85,337,58317,1,6,0:2:0:0:
170,169,58488,1,0,0:0:0:0:
277,283,58660,1,0,0:0:0:0:
30,281,58831,1,0,0:0:0:0:
114,115,59003,6,0,P|166:92|205:97,1,90.0000034332277,6|0,0:2|0:0,0:0:0:0:
383,192,59345,2,0,P|354:231|293:249,2,90.0000034332277,0|0|6,0:0|0:0|2:0,0:0:0:0:
126,198,59860,1,0,0:0:0:0:
222,352,60031,1,0,0:0:0:0:
311,172,60203,5,0,0:0:0:0:
252,67,60374,2,0,P|206:120|186:156,1,90.0000034332277,6|0,0:2|0:0,0:0:0:0:
271,284,60717,1,0,0:0:0:0:
280,144,60888,1,0,0:0:0:0:
189,284,61060,2,0,P|220:337|256:365,1,90.0000034332277,6|0,0:2|0:0,0:0:0:0:
414,251,61403,1,0,0:0:0:0:
271,283,61574,1,0,0:0:0:0:
69,232,61745,5,6,0:2:0:0:
210,198,61917,1,0,0:0:0:0:
79,306,62088,2,0,P|21:293|-2:263,1,90.0000034332277
115,125,62431,2,0,P|97:178|67:217,1,90.0000034332277,6|0,0:2|0:0,0:0:0:0:
135,49,62774,5,0,0:0:0:0:
203,208,62945,1,0,0:0:0:0:
243,129,63117,6,0,P|286:185|239:282,1,180.000006866455,6|0,0:2|0:0,0:0:0:0:
117,233,63631,2,0,P|171:211|212:207,1,90.0000034332277,0|6,0:0|0:2,0:0:0:0:
346,343,63974,1,0,0:0:0:0:
243,129,64145,1,0,0:0:0:0:
432,188,64317,1,0,0:0:0:0:
228,355,64488,6,0,P|194:313|184:277,1,90.0000034332277,6|0,0:2|0:0,0:0:0:0:
326,103,64831,2,0,P|309:180|284:213,1,90.0000034332277,2|0,0:2|0:0,0:0:0:0:
188,286,65174,1,10,0:2:0:0:
145,272,65259,1,0,0:0:0:0:
117,238,65345,1,0,0:0:0:0:
111,194,65431,1,0,0:0:0:0:
129,154,65516,1,10,0:2:0:0:
169,138,65603,1,0,0:0:0:0:
212,132,65688,1,0,0:0:0:0:
245,102,65774,1,0,0:0:0:0:
253,59,65860,5,14,0:2:0:0:
298,267,66031,2,0,P|351:257|372:231,1,90.0000034332277
176,297,66374,2,0,P|234:312|265:365,2,90.0000034332277,0|6|0,0:0|0:2|0:0,0:0:0:0:
146,128,66888,2,0,P|192:180|199:214,1,90.0000034332277
101,332,67231,5,6,0:2:0:0:
280,160,67403,2,0,P|286:214|250:255,1,90.0000034332277
68,189,67745,2,0,P|140:179|175:189,2,90.0000034332277,0|6|0,0:0|0:2|0:0,0:0:0:0:
300,324,68260,2,0,P|345:280|356:246,1,90.0000034332277
179,36,68603,5,6,0:2:0:0:
210,135,68774,1,0,0:0:0:0:
116,115,68945,1,0,0:0:0:0:
267,65,69116,1,0,0:0:0:0:
243,222,69288,1,6,0:2:0:0:
104,30,69460,1,0,0:0:0:0:
319,147,69631,1,0,0:0:0:0:
169,331,69803,1,0,0:0:0:0:
324,36,69974,5,6,0:2:0:0:
408,108,70145,2,0,P|405:155|384:203,1,90.0000034332277
327,273,70488,1,0,0:0:0:0:
236,161,70660,6,0,P|287:140|331:142,1,90.0000034332277,6|0,0:2|0:0,0:0:0:0:
446,182,71003,1,0,0:0:0:0:
224,254,71174,1,0,0:0:0:0:
125,105,71345,5,10,0:2:0:0:
236,161,71517,1,0,0:0:0:0:
127,215,71688,1,0,0:0:0:0:
208,69,71860,1,0,0:0:0:0:
286,262,72031,1,10,0:2:0:0:
66,164,72203,1,0,0:0:0:0:
361,91,72374,1,0,0:0:0:0:
214,307,72545,1,0,0:0:0:0:
106,50,72717,1,10,0:2:0:0:
415,171,72888,6,0,P|413:235|381:288,1,90.0000034332277,0|2,0:0|0:2,0:0:0:0:
186,244,73231,1,0,0:0:0:0:
348,199,73403,1,8,0:2:0:0:
303,333,73574,1,0,0:0:0:0:
112,154,73745,1,2,0:2:0:0:
392,48,73917,1,0,0:0:0:0:
178,225,74088,5,12,0:2:0:0:
277,142,74260,1,0,0:0:0:0:
305,281,74431,1,12,0:2:0:0:
169,60,74603,1,0,0:0:0:0:
445,100,74774,1,12,0:2:0:0:
206,317,74945,1,0,0:0:0:0:
122,19,75117,1,12,0:2:0:0:
469,282,75288,5,0,0:0:0:0:
348,315,75460,2,0,P|368:278|372:248,1,71.9999978027344
361,155,75803,1,0,0:0:0:0:
211,100,75974,1,0,0:0:0:0:
270,256,76145,1,2,0:2:0:0:
386,37,76317,1,0,0:0:0:0:
109,154,76488,1,10,0:2:0:0:
364,322,76660,1,0,0:0:0:0:
270,45,76831,1,14,0:2:0:0:
256,192,76917,12,0,80904,0:0:0:0:
