osu file format v14

[General]
AudioFilename: audio.mp3
AudioLeadIn: 0
PreviewTime: 54399
Countdown: 0
SampleSet: Soft
StackLeniency: 0.7
Mode: 0
LetterboxInBreaks: 0
WidescreenStoryboard: 1

[Editor]
Bookmarks: 64635,116406,124292,142463,182235,182406,182577,182749,182920,183092,183263,183435,183606,183777,183949,184120,184292,184463,184635,184806,184977,185149,185320,185492,185663,185835,186006,186177,186349,186520,186692,186863,187035,187206,187377,187549,187720,201092
DistanceSpacing: 1.4
BeatDivisor: 4
GridSize: 4
TimelineZoom: 1.2

[Metadata]
Title:Egao no Kimi e
TitleUnicode:エガオノキミヘ
Artist:Mimori Suzuko
ArtistUnicode:三森すずこ
Creator:pnky
Version:Hard
Source:結城友奈は勇者である -鷲尾須美の章-
Tags:Yuki Yuuki Yuna Yuuna wa Yuusha de Aru is a Hero Washio Sumi no Shou YuYuYu Female Vocal Japanese Jpop J-pop Pop 中村彼方 蔦屋好位置 野間康介 Nakamura kanata Tsutaya Koichi Noma Kosuke kousuke Anime Opening
BeatmapID:3423718
BeatmapSetID:1675951

[Difficulty]
HPDrainRate:4
CircleSize:3.8
OverallDifficulty:7
ApproachRate:8
SliderMultiplier:1.4
SliderTickRate:1

[Events]
//Background and Video events
0,0,"yuusha.png",0,0
//Break Periods
2,182141,186678
//Storyboard Layer 0 (Background)
//Storyboard Layer 1 (Fail)
//Storyboard Layer 2 (Pass)
//Storyboard Layer 3 (Foreground)
//Storyboard Layer 4 (Overlay)
//Storyboard Sound Samples

[TimingPoints]
-4572,342.857142857143,4,2,1,60,1,0
742,-166.666666666667,4,2,1,40,0,0
13256,-125,4,2,1,40,0,0
21142,-125,4,2,1,40,0,0
21399,-125,4,2,1,5,0,0
21484,-125,4,2,1,50,0,0
32456,-111.111111111111,4,2,1,50,0,0
54399,-90.9090909090908,4,2,1,60,0,1
74970,-111.111111111111,4,2,1,50,0,0
76342,-111.111111111111,4,2,1,50,0,0
87313,-111.111111111111,4,2,1,50,0,0
109256,-90.9090909090909,4,2,1,60,0,1
131199,-90.9090909090908,4,2,1,60,0,0
144742,-90.9090909090908,4,2,1,60,0,0
157256,-111.111111111111,4,2,1,50,0,0
181942,-111.111111111111,4,2,1,40,0,0
187427,-166.666666666666,4,2,1,40,0,0
192913,-166.666666666666,4,2,1,50,0,0
194284,-111.111111111111,4,2,1,50,0,0
202513,-90.9090909090908,4,2,1,60,0,0
205256,-90.9090909090908,4,2,1,60,0,1
214856,-90.9090909090908,4,2,1,50,0,0
215370,-111.111111111111,4,2,1,50,0,0

[Colours]
Combo1 : 160,230,150
Combo2 : 250,180,180
Combo3 : 150,200,230
Combo4 : 255,230,130

[HitObjects]
366,92,913,5,2,0:0:0:0:
288,122,1599,1,2,0:0:0:0:
242,191,2285,1,2,0:0:0:0:
188,252,2970,1,2,0:0:0:0:
107,275,3656,5,2,0:0:0:0:
107,275,4856,6,0,L|102:242,2,20.9999993591309,2|2|2,0:0|0:0|0:0,0:0:0:0:
161,337,5713,2,0,P|131:354|69:350,1,83.9999974365235,2|2,0:0|0:0,0:0:0:0:
242,360,6399,5,2,0:0:0:0:
320,330,7085,1,2,0:0:0:0:
366,261,7770,1,2,0:0:0:0:
402,187,8456,1,2,0:0:0:0:
474,146,9142,6,0,P|471:98|459:62,1,83.9999974365235,2|2,0:0|0:0,0:0:0:0:
402,187,9828,2,0,P|389:227|387:268,2,83.9999974365235,2|2|2,0:0|0:0|0:0,0:0:0:0:
248,68,13256,6,0,P|213:69|181:78,1,56,2|0,0:0|0:0,0:0:0:0:
115,142,13599,2,0,P|150:143|182:152,1,56,2|0,0:0|0:0,0:0:0:0:
228,208,13942,2,0,B|240:277|199:264|215:336,1,112,2|2,2:0|0:0,0:0:0:0:
274,370,14456,1,2,0:0:0:0:
274,370,14628,6,0,P|322:364|363:299,1,112,2|2,0:0|0:0,0:0:0:0:
360,316,15313,2,0,L|342:193,1,112,2|2,2:0|0:0,0:0:0:0:
404,146,15828,1,2,0:0:0:0:
404,146,15999,6,0,P|452:152|493:217,1,112,2|2,0:0|0:0,0:0:0:0:
455,276,16513,1,0,0:0:0:0:
387,325,16685,2,0,P|352:316|319:314,1,56,2|0,2:0|0:0,0:0:0:0:
258,273,17028,2,0,P|230:276|203:283,1,56,2|2,0:0|0:0,0:0:0:0:
143,342,17370,6,0,P|172:264|82:301,2,224,2|2|2,0:0|2:0|0:0,0:0:0:0:
256,192,18828,12,0,21142,0:0:0:0:
143,342,21485,6,0,L|134:260,1,56,2|0,1:2|0:0,0:0:0:0:
78,233,21828,2,0,P|103:180|155:163,1,112,2|2,1:2|1:2,0:0:0:0:
201,103,22342,2,0,P|236:113|256:132,1,56,2|2,0:0|1:2,0:0:0:0:
312,182,22685,6,0,L|300:293,1,112,2|0,0:0|0:0,0:0:0:0:
350,353,23199,2,0,P|395:349|437:292,1,112,2|2,1:2|1:2,0:0:0:0:
494,247,23713,2,0,L|482:186,2,56,2|2|2,0:0|1:2|0:0,0:0:0:0:
404,194,24228,6,0,L|416:71,1,112,2|2,1:2|1:2,0:0:0:0:
349,39,24742,2,0,B|302:45|302:45|284:60|284:60|238:66,2,112,2|2|2,0:0|0:0|0:0,0:0:0:0:
355,129,25599,6,0,L|415:139,2,56,2|0|2,1:2|0:0|1:2,0:0:0:0:
292,173,26113,1,0,0:0:0:0:
292,173,26285,2,0,L|232:183,2,56,2|0|2,1:2|0:0|1:2,0:0:0:0:
346,237,26799,1,2,0:0:0:0:
346,237,26970,6,0,P|310:269|326:346,1,112,2|2,1:2|1:2,0:0:0:0:
390,347,27485,2,0,B|433:340|433:340|451:324|451:324|502:314,1,112,2|0,0:0|0:0,0:0:0:0:
502,237,27999,2,0,P|497:209|490:182,1,56,2|2,1:2|0:0,0:0:0:0:
423,131,28342,6,0,P|429:103|434:76,2,56,2|2|2,1:2|0:0|1:2,0:0:0:0:
361,179,28856,2,0,P|311:195|258:167,1,112,2|0,0:0|0:0,0:0:0:0:
270,91,29370,2,0,P|298:102|321:131,1,56,2|2,1:2|0:0,0:0:0:0:
366,187,29713,6,0,L|345:322,1,112,2|2,1:2|1:2,0:0:0:0:
347,376,30228,2,0,B|286:379|300:337|242:343,1,112,2|2,0:0|0:0,0:0:0:0:
172,375,30742,1,2,1:2:0:0:
172,375,30913,1,10,2:1:0:0:
172,375,31599,6,0,L|158:264,1,112,2|2,0:0|0:0,0:0:0:0:
118,194,32113,2,0,P|158:166|188:161,1,56,8|0,2:2|3:2,0:0:0:0:
203,84,32456,6,0,P|256:93|303:121,1,94.499997116089,6|0,3:2|0:0,0:0:0:0:
313,150,32799,2,0,L|300:232,1,62.9999980773926,10|0,2:2|0:0,0:0:0:0:
339,292,33142,2,0,P|379:287|416:264,1,62.9999980773926,0|0,1:2|1:2,0:0:0:0:
449,204,33485,2,0,P|409:199|372:176,1,62.9999980773926,10|0,2:2|0:0,0:0:0:0:
310,125,33828,6,0,P|259:131|208:141,1,94.499997116089,2|0,3:2|0:0,0:0:0:0:
184,169,34170,2,0,P|152:164|107:161,1,62.9999980773926,10|0,2:2|0:0,0:0:0:0:
237,234,34513,2,0,P|269:229|314:226,2,62.9999980773926,0|0|10,1:2|1:2|2:2,0:0:0:0:
172,294,35028,1,0,0:0:0:0:
119,380,35199,6,0,B|107:316|144:329|132:256,1,125.999996154785,2|10,3:2|2:2,0:0:0:0:
70,193,35713,1,0,0:0:0:0:
70,193,35885,2,0,P|79:158|95:123,1,62.9999980773926,0|0,1:2|1:2,0:0:0:0:
25,72,36228,2,0,P|16:37|0:2,1,62.9999980773926,10|0,2:2|0:0,0:0:0:0:
113,113,36570,5,2,3:2:0:0:
113,113,36742,1,0,3:2:0:0:
181,58,36913,2,0,L|266:45,1,62.9999980773926,10|0,2:2|0:0,0:0:0:0:
287,124,37256,2,0,L|349:134,1,62.9999980773926,0|0,1:2|1:2,0:0:0:0:
259,205,37599,2,0,L|197:215,1,62.9999980773926,10|0,2:2|0:0,0:0:0:0:
331,264,37942,6,0,B|309:333|309:333|350:389,1,125.999996154785,2|10,3:2|2:2,0:0:0:0:
340,376,38456,1,0,0:0:0:0:
422,346,38628,2,0,P|438:317|437:285,1,62.9999980773926,0|0,1:2|1:2,0:0:0:0:
476,208,38970,2,0,P|467:176|443:154,1,62.9999980773926,10|0,2:2|0:0,0:0:0:0:
370,88,39313,6,0,B|297:77|310:123|244:116,1,125.999996154785,2|10,3:2|2:2,0:0:0:0:
173,72,39828,1,0,0:0:0:0:
98,119,39999,2,0,L|61:126,2,31.4999990386963,8|8|4,1:3|1:3|1:3,0:0:0:0:
163,178,40342,1,10,2:2:0:0:
82,227,40513,6,0,B|69:277|69:277|85:313|85:313|77:359,1,125.999996154785,6|2,3:2|3:2,0:0:0:0:
152,267,41028,1,2,2:2:0:0:
152,267,41199,1,2,3:2:0:0:
216,327,41370,2,0,L|296:314,2,62.9999980773926,2|2|10,3:2|3:2|0:0,0:0:0:0:
285,234,41885,6,0,L|409:262,1,125.999996154785,14|8,0:0|0:0,0:0:0:0:
407,261,42399,1,8,0:0:0:0:
470,190,42570,1,0,3:2:0:0:
470,190,42656,1,0,3:2:0:0:
470,190,42742,2,0,L|448:101,1,62.9999980773926,8|0,2:2|3:2,0:0:0:0:
424,92,42999,1,0,0:0:0:0:
424,92,43085,2,0,L|437:7,1,62.9999980773926,8|0,2:2|3:2,0:0:0:0:
341,132,43428,6,0,P|291:154|211:126,1,125.999996154785,6|2,3:2|0:0,0:0:0:0:
180,67,43942,1,0,3:2:0:0:
117,119,44113,2,0,L|134:266,1,125.999996154785,0|8,1:2|2:2,0:0:0:0:
267,352,44799,6,0,P|300:301|269:234,1,125.999996154785,0|2,3:2|0:0,0:0:0:0:
205,209,45313,1,0,3:2:0:0:
131,244,45485,2,0,P|111:302|144:353,1,125.999996154785,0|10,1:2|2:2,0:0:0:0:
218,205,46170,6,0,B|284:173|278:219|347:187,1,125.999996154785,2|2,3:2|0:0,0:0:0:0:
385,121,46685,1,2,3:2:0:0:
460,88,46856,2,0,P|428:118|433:204,1,125.999996154785,0|10,1:2|2:2,0:0:0:0:
362,346,47542,5,0,3:2:0:0:
302,290,47713,2,0,L|168:272,1,125.999996154785,0|0,3:2|3:2,0:0:0:0:
162,279,48142,1,0,3:2:0:0:
149,288,48228,1,0,3:2:0:0:
83,219,48399,2,0,L|16:228,2,62.9999980773926,8|8|8,2:2|0:0|0:0,0:0:0:0:
144,147,48913,6,0,B|152:81|152:81|98:36,1,125.999996154785,2|10,3:2|2:2,0:0:0:0:
106,42,49428,1,0,1:0:0:0:
189,13,49599,2,0,P|223:20|265:18,1,62.9999980773926,0|0,1:2|0:0,0:0:0:0:
322,72,49942,1,10,2:2:0:0:
322,72,50113,1,0,0:0:0:0:
402,120,50285,6,0,P|386:93|365:70,1,62.9999980773926,2|0,3:2|0:0,0:0:0:0:
384,204,50628,2,0,P|415:204|446:197,1,62.9999980773926,10|0,2:2|1:0,0:0:0:0:
321,147,50970,2,0,P|306:174|296:204,1,62.9999980773926,0|8,1:2|0:0,0:0:0:0:
333,284,51313,1,10,2:2:0:0:
333,284,51485,1,0,0:0:0:0:
266,351,51656,6,0,L|133:340,2,125.999996154785,2|10|0,3:2|2:2|1:2,0:0:0:0:
150,217,52685,6,0,L|140:142,1,62.9999980773926,10|0,2:2|0:0,0:0:0:0:
181,61,53028,1,10,0:0:0:0:
181,61,53199,2,0,B|243:28|241:77|310:46,2,125.999996154785,10|2|10,0:0|0:0|2:2,0:0:0:0:
133,44,53970,1,8,2:2:0:0:
133,44,54056,2,0,P|114:39|82:38,3,31.4999990386963,8|8|8|8,2:2|2:2|2:3|2:3,0:0:0:0:
47,65,54399,6,0,P|34:129|76:207,1,154.000004699707,14|10,3:1|2:2,0:0:0:0:
177,174,54913,1,2,0:0:0:0:
251,251,55085,2,0,L|152:277,1,77.0000023498536,2|2,1:2|0:0,0:0:0:0:
327,314,55428,2,0,P|348:275|345:233,1,77.0000023498536,10|2,2:2|0:0,0:0:0:0:
282,138,55770,6,0,B|362:95|362:95|435:111,1,154.000004699707,0|10,3:2|2:2,0:0:0:0:
489,194,56285,1,2,0:0:0:0:
400,256,56456,2,0,L|376:176,1,77.0000023498536,0|0,1:2|3:2,0:0:0:0:
490,286,56799,2,0,L|468:360,1,77.0000023498536,8|2,2:2|0:0,0:0:0:0:
350,321,57142,6,0,P|301:310|222:382,2,154.000004699707,2|10|2,3:1|2:2|1:2,0:0:0:0:
295,227,57999,1,2,0:0:0:0:
194,189,58170,2,0,P|186:236|198:274,1,77.0000023498536,10|2,2:2|0:0,0:0:0:0:
232,88,58513,6,0,P|185:80|147:92,1,77.0000023498536,2|2,3:2|0:0,0:0:0:0:
333,126,58856,2,0,P|341:79|329:41,1,77.0000023498536,10|0,2:2|0:0,0:0:0:0:
295,227,59199,2,0,P|342:235|380:223,1,77.0000023498536,2|0,1:2|3:0,0:0:0:0:
194,189,59542,2,0,P|186:236|198:274,1,77.0000023498536,10|2,2:2|0:0,0:0:0:0:
126,367,59885,6,0,B|38:341|38:341|15:255,1,154.000004699707,2|10,3:1|2:2,0:0:0:0:
95,201,60399,1,2,0:0:0:0:
33,112,60570,2,0,P|73:93|115:93,1,77.0000023498536,0|0,1:2|0:0,0:0:0:0:
197,148,60913,2,0,P|159:145|125:127,1,77.0000023498536,10|2,2:2|0:0,0:0:0:0:
288,104,61256,6,0,B|295:165|295:165|276:206|276:206|283:267,1,154.000004699707,2|10,3:2|2:2,0:0:0:0:
343,341,61770,1,2,0:0:0:0:
439,291,61942,2,0,P|455:242|443:202,1,77.0000023498536,0|0,1:2|0:0,0:0:0:0:
493,119,62285,1,10,2:2:0:0:
493,119,62456,1,2,0:0:0:0:
400,38,62628,6,0,B|335:48|335:48|306:76|306:76|229:87,1,154.000004699707,2|10,3:1|2:2,0:0:0:0:
162,30,63142,1,2,0:0:0:0:
83,103,63313,2,0,L|100:192,1,77.0000023498536,0|2,1:2|0:0,0:0:0:0:
173,255,63656,2,0,L|156:344,1,77.0000023498536,10|2,2:2|0:0,0:0:0:0:
259,190,63999,6,0,P|296:180|341:193,1,77.0000023498536,8|8,3:2|3:2,0:0:0:0:
335,304,64342,2,0,P|294:314|253:301,1,77.0000023498536,8|8,2:2|0:0,0:0:0:0:
422,244,64685,1,0,3:2:0:0:
472,148,64856,2,0,L|515:156,2,38.5000011749268,8|8|10,1:3|1:3|3:2,0:0:0:0:
421,69,65199,1,10,1:3:0:0:
421,69,65285,1,8,1:3:0:0:
421,69,65370,6,0,L|260:97,1,154.000004699707,6|10,3:1|2:2,0:0:0:0:
179,35,65885,1,2,0:0:0:0:
108,117,66056,2,0,L|132:202,1,77.0000023498536,0|0,1:2|0:0,0:0:0:0:
102,296,66399,2,0,P|50:304|11:284,1,77.0000023498536,10|0,2:2|0:0,0:0:0:0:
188,355,66742,6,0,B|212:342|240:343|262:355|262:355|286:368|314:367|336:355,1,154.000004699707,2|8,3:2|2:2,0:0:0:0:
382,257,67256,1,2,0:0:0:0:
294,193,67428,2,0,P|278:239|280:285,1,77.0000023498536,0|0,1:2|3:2,0:0:0:0:
385,148,67770,2,0,P|382:109|368:74,1,77.0000023498536,10|0,2:2|0:0,0:0:0:0:
249,38,68113,6,0,P|204:52|154:53,1,77.0000023498536,2|0,3:1|0:0,0:0:0:0:
103,136,68456,2,0,P|58:122|8:121,1,77.0000023498536,10|0,2:1|0:0,0:0:0:0:
151,226,68799,2,0,P|196:212|246:211,1,77.0000023498536,2|0,1:1|0:0,0:0:0:0:
297,128,69142,2,0,P|342:142|392:143,1,77.0000023498536,10|0,2:1|0:0,0:0:0:0:
460,59,69485,6,0,P|406:138|426:209,1,154.000004699707,2|8,3:1|2:2,0:0:0:0:
484,274,69999,1,0,3:2:0:0:
401,342,70170,2,0,L|311:330,1,77.0000023498536,2|2,1:2|3:2,0:0:0:0:
229,280,70513,2,0,L|152:290,1,77.0000023498536,10|2,3:2|3:2,0:0:0:0:
54,365,70856,6,0,B|28:312|28:312|51:205,1,154.000004699707,6|8,3:1|2:2,0:0:0:0:
116,135,71370,1,0,0:0:0:0:
116,135,71542,2,0,P|157:131|198:147,1,77.0000023498536,2|2,1:2|0:0,0:0:0:0:
273,205,71885,2,0,P|315:208|355:192,1,77.0000023498536,10|2,2:2|0:0,0:0:0:0:
448,126,72228,6,0,L|427:285,1,154.000004699707,2|8,3:1|2:2,0:0:0:0:
463,381,72742,1,2,0:0:0:0:
367,332,72913,2,0,P|324:333|283:342,1,77.0000023498536,0|2,0:0|0:0,0:0:0:0:
187,372,73256,2,0,P|151:358|113:351,1,77.0000023498536,10|2,2:2|0:0,0:0:0:0:
285,265,73599,6,0,P|323:258|361:257,2,77.0000023498536,0|0|8,3:2|3:2|2:2,0:0:0:0:
184,206,74113,1,0,3:2:0:0:
284,150,74285,2,0,P|322:150|360:158,1,77.0000023498536,0|8,1:2|0:0,0:0:0:0:
463,209,74628,1,8,2:2:0:0:
509,94,74799,1,8,0:0:0:0:
509,94,76170,5,2,0:0:0:0:
420,79,76342,6,0,L|356:91,1,62.9999980773926,6|0,0:0|0:0,0:0:0:0:
294,150,76685,2,0,L|232:138,1,62.9999980773926,2|0,0:0|0:0,0:0:0:0:
174,71,77028,2,0,P|150:105|160:193,1,125.999996154785,2|10,2:0|0:0,0:0:0:0:
155,185,77542,1,2,0:0:0:0:
169,271,77713,6,0,B|120:265|120:265|96:247|96:247|36:239,2,125.999996154785,2|2|2,0:0|0:0|2:0,0:0:0:0:
294,150,78742,1,10,0:0:0:0:
294,150,78913,1,2,0:0:0:0:
328,230,79085,2,0,P|290:242|263:261,1,62.9999980773926,2|0,0:0|0:0,0:0:0:0:
402,269,79428,2,0,P|411:230|408:197,1,62.9999980773926,10|0,0:0|0:0,0:0:0:0:
375,125,79770,2,0,B|372:103|375:82|383:63|383:63|383:63|383:63|391:43|393:21|390:1,1,125.999996154785,2|2,2:0|0:0,0:0:0:0:
390,1,80285,1,10,0:0:0:0:
305,25,80456,6,0,B|238:16|252:70|187:59,1,125.999996154785,2|2,0:0|0:0,0:0:0:0:
188,59,80970,1,0,0:0:0:0:
107,21,81142,2,0,P|99:64|102:87,1,62.9999980773926,2|10,3:2|2:2,0:0:0:0:
165,143,81485,2,0,P|166:174|159:204,1,62.9999980773926,2|2,3:2|0:0,0:0:0:0:
114,281,81828,6,0,B|135:284|154:299|154:299|195:276|246:284,1,125.999996154785,2|2,3:2|0:0,0:0:0:0:
232,282,82342,1,0,0:0:0:0:
301,335,82513,2,0,B|338:341|379:318|379:318|398:333|419:336,1,125.999996154785,2|10,2:0|0:0,0:0:0:0:
434,249,83028,1,2,0:0:0:0:
434,249,83113,1,2,0:0:0:0:
434,249,83199,6,0,B|426:198|426:198|436:166|436:166|427:109,1,125.999996154785,2|2,0:0|0:0,0:0:0:0:
429,125,83713,1,0,0:0:0:0:
357,75,83885,2,0,P|329:92|311:126,1,62.9999980773926,2|0,3:2|0:0,0:0:0:0:
244,173,84228,2,0,P|213:179|183:172,1,62.9999980773926,10|2,0:0|0:0,0:0:0:0:
122,108,84570,6,0,L|0:137,1,125.999996154785,2|2,1:2|0:0,0:0:0:0:
0,137,85085,1,0,0:0:0:0:
60,201,85256,2,0,P|67:236|72:273,1,62.9999980773926,2|0,2:0|0:0,0:0:0:0:
145,311,85599,2,0,P|149:279|155:248,1,62.9999980773926,10|2,0:0|0:0,0:0:0:0:
238,202,85942,6,0,P|295:185|349:225,1,125.999996154785,2|2,3:2|3:2,0:0:0:0:
305,305,86456,1,0,3:2:0:0:
373,369,86628,1,10,2:0:0:0:
373,369,86799,2,0,P|428:338|489:363,2,125.999996154785,10|4|0,0:0|3:2|1:2,0:0:0:0:
301,316,87656,2,0,B|252:309|252:309|217:320|217:320|168:311,2,125.999996154785,10|0|10,2:2|1:2|2:2,0:0:0:0:
363,253,88513,1,2,0:0:0:0:
309,183,88685,6,0,L|329:114,1,62.9999980773926
238,131,89028,2,0,L|168:148,1,62.9999980773926,10|0,2:2|0:0,0:0:0:0:
229,219,89370,1,0,1:2:0:0:
116,82,89713,1,10,2:2:0:0:
116,82,89885,1,0,0:0:0:0:
51,142,90056,6,0,L|63:282,1,125.999996154785,2|10,3:2|2:2,0:0:0:0:
28,349,90570,1,0,0:0:0:0:
111,378,90742,2,0,P|153:370|177:353,1,62.9999980773926,0|0,1:2|1:2,0:0:0:0:
233,299,91085,2,0,P|264:302|291:317,1,62.9999980773926,10|0,2:2|0:0,0:0:0:0:
322,349,91342,1,0,0:0:0:0:
322,349,91428,6,0,L|470:326,1,125.999996154785,2|10,3:2|2:2,0:0:0:0:
485,249,91942,1,0,1:2:0:0:
485,249,92028,1,0,1:2:0:0:
485,249,92113,2,0,P|467:212|438:187,1,62.9999980773926,0|0,1:2|1:2,0:0:0:0:
409,118,92456,2,0,P|367:115|331:127,1,62.9999980773926,10|0,2:2|0:0,0:0:0:0:
292,190,92799,6,0,B|238:180|238:180|215:190|215:190|156:178,1,125.999996154785,2|10,3:2|2:2,0:0:0:0:
116,110,93313,1,0,0:0:0:0:
43,159,93485,2,0,L|65:290,1,125.999996154785,0|10,1:2|2:2,0:0:0:0:
150,263,93999,1,0,0:0:0:0:
197,336,94170,6,0,P|232:324|281:319,1,62.9999980773926,2|0,3:2|0:0,0:0:0:0:
316,253,94513,2,0,P|346:258|376:269,1,62.9999980773926,10|0,2:2|0:0,0:0:0:0:
409,351,94856,2,0,P|405:294|459:237,1,125.999996154785,0|10,1:2|2:2,0:0:0:0:
446,242,95370,1,0,0:0:0:0:
411,153,95542,6,0,P|363:114|294:132,1,125.999996154785,10|0,3:2|1:2,0:0:0:0:
217,163,96056,2,0,P|156:173|109:134,1,125.999996154785,14|0,3:2|3:2,0:0:0:0:
109,134,96570,1,0,1:2:0:0:
138,43,96742,6,0,P|198:32|245:71,1,125.999996154785,2|8,3:2|0:0,0:0:0:0:
305,145,97256,1,8,0:0:0:0:
276,228,97428,1,0,3:2:0:0:
276,228,97513,1,0,3:2:0:0:
276,228,97599,2,0,L|288:308,1,62.9999980773926,0|0,3:2|3:2,0:0:0:0:
259,326,97856,1,0,0:0:0:0:
259,326,97942,2,0,L|255:365,2,31.4999990386963,8|0|0,3:2|3:2|3:2,0:0:0:0:
191,269,98285,6,0,P|133:269|84:320,1,125.999996154785,6|2,3:2|0:0,0:0:0:0:
19,362,98799,1,2,3:2:0:0:
16,280,98970,2,0,P|41:187|38:131,1,125.999996154785,0|8,1:2|2:2,0:0:0:0:
139,26,99656,6,0,B|182:34|182:34|217:70|217:70|267:79,1,125.999996154785,0|2,3:2|0:0,0:0:0:0:
322,39,100170,1,0,3:2:0:0:
380,97,100342,2,0,L|337:242,1,125.999996154785,0|10,1:2|2:2,0:0:0:0:
444,347,101028,6,0,P|371:322|314:340,1,125.999996154785,2|2,3:2|0:0,0:0:0:0:
256,380,101542,1,2,3:2:0:0:
186,333,101713,2,0,P|125:322|68:347,1,125.999996154785,0|10,1:2|2:2,0:0:0:0:
11,192,102399,5,0,3:2:0:0:
57,124,102570,2,0,P|91:168|71:247,1,125.999996154785,0|0,3:2|3:2,0:0:0:0:
72,247,102999,1,0,3:2:0:0:
59,256,103085,1,0,3:2:0:0:
137,202,103256,2,0,P|171:194|211:189,2,62.9999980773926,8|8|8,2:2|0:0|0:0,0:0:0:0:
172,114,103770,6,0,B|226:120|226:120|250:137|250:137|304:143,1,125.999996154785,2|10,3:2|2:2,0:0:0:0:
367,95,104285,1,0,0:0:0:0:
426,160,104456,2,0,L|408:229,1,62.9999980773926,0|0,1:2|1:0,0:0:0:0:
446,301,104799,1,10,2:2:0:0:
446,301,104970,1,0,0:0:0:0:
373,362,105142,6,0,B|302:376|313:330|249:340,1,125.999996154785,2|10,3:2|2:2,0:0:0:0:
171,374,105656,1,0,1:0:0:0:
107,313,105828,2,0,P|139:291|174:288,1,62.9999980773926,0|8,1:2|0:0,0:0:0:0:
184,202,106170,2,0,P|218:219|238:248,1,62.9999980773926,10|0,2:2|0:0,0:0:0:0:
97,218,106513,6,0,P|46:188|18:117,2,125.999996154785,2|10|0,3:2|2:2|1:2,0:0:0:0:
239,112,107542,2,0,L|317:123,1,62.9999980773926,10|0,2:2|0:0,0:0:0:0:
377,186,107885,5,10,0:0:0:0:
377,186,108056,2,0,B|410:245|410:245|387:316,2,125.999996154785,10|0|0,0:0|3:2|3:2,0:0:0:0:
399,148,108828,1,0,3:2:0:0:
399,148,108913,2,0,L|447:139,3,31.4999990386963,0|0|0|0,3:2|3:2|3:3|3:3,0:0:0:0:
463,90,109256,6,0,P|434:40|322:41,1,154.000004699707,6|10,3:1|2:2,0:0:0:0:
267,102,109770,1,2,0:0:0:0:
186,174,109942,2,0,L|100:157,1,77.0000023498536,2|2,1:2|0:0,0:0:0:0:
254,259,110285,2,0,L|340:242,1,77.0000023498536,10|2,2:2|0:0,0:0:0:0:
262,376,110628,6,0,B|200:365|200:365|174:344|174:344|110:332,1,154.000004699707,2|10,3:2|2:2,0:0:0:0:
14,299,111142,1,2,0:0:0:0:
14,193,111313,2,0,L|28:109,1,77.0000023498536,2|0,1:2|0:0,0:0:0:0:
115,55,111656,2,0,L|127:130,1,77.0000023498536,8|2,2:2|0:0,0:0:0:0:
208,224,111999,6,0,B|301:216|257:163|355:155,1,154.000004699707,2|10,3:1|2:2,0:0:0:0:
433,101,112513,1,2,0:0:0:0:
434,211,112685,2,0,P|472:226|497:263,1,77.0000023498536,2|2,1:2|0:0,0:0:0:0:
432,342,113028,2,0,P|394:327|369:290,1,77.0000023498536,10|2,2:2|0:0,0:0:0:0:
249,309,113370,6,0,P|213:316|165:329,1,77.0000023498536,2|2,3:2|0:0,0:0:0:0:
102,244,113713,2,0,P|77:216|42:181,1,77.0000023498536,10|0,2:2|0:0,0:0:0:0:
84,84,114056,2,0,P|95:49|108:1,1,77.0000023498536,2|0,1:2|3:0,0:0:0:0:
173,134,114399,2,0,P|183:171|195:207,1,77.0000023498536,8|2,2:2|0:0,0:0:0:0:
304,266,114742,6,0,B|404:250|404:250|430:197,1,154.000004699707,2|10,3:1|2:2,0:0:0:0:
393,99,115256,1,2,0:0:0:0:
454,186,115428,2,0,L|480:272,1,77.0000023498536,0|0,1:2|0:0,0:0:0:0:
429,357,115770,2,0,L|342:344,1,77.0000023498536,10|2,2:2|0:0,0:0:0:0:
234,308,116113,6,0,B|169:320|169:320|149:342|149:342|86:352,1,154.000004699707,2|10,3:2|2:2,0:0:0:0:
9,280,116628,1,2,0:0:0:0:
74,193,116799,2,0,L|160:207,1,77.0000023498536,0|0,1:2|0:0,0:0:0:0:
75,92,117142,2,0,L|0:104,1,77.0000023498536,10|2,2:2|3:2,0:0:0:0:
144,7,117485,6,0,B|184:60|184:60|275:45,1,154.000004699707,2|10,3:1|2:2,0:0:0:0:
369,1,117999,1,2,0:0:0:0:
447,74,118170,2,0,L|431:163,1,77.0000023498536,0|2,1:2|0:0,0:0:0:0:
357,226,118513,2,0,L|373:315,1,77.0000023498536,10|2,2:2|3:2,0:0:0:0:
265,366,118856,6,0,P|213:366|185:343,1,77.0000023498536,8|8,3:2|3:2,0:0:0:0:
197,237,119199,2,0,P|230:219|268:224,1,77.0000023498536,8|8,2:2|0:0,0:0:0:0:
114,292,119542,2,0,P|101:308|93:327,2,38.5000011749268,0|0|0,3:2|0:0|3:2,0:0:0:0:
40,229,119885,1,10,3:2:0:0:
109,153,120056,1,2,3:2:0:0:
109,153,120142,1,0,3:2:0:0:
109,153,120228,6,0,P|186:98|275:91,1,154.000004699707,6|10,3:1|2:2,0:0:0:0:
335,144,120742,1,2,0:0:0:0:
426,200,120913,2,0,L|509:179,1,77.0000023498536,0|0,1:2|0:0,0:0:0:0:
353,273,121256,2,0,L|270:252,1,77.0000023498536,10|2,2:2|0:0,0:0:0:0:
177,325,121599,6,0,L|344:280,1,154.000004699707,2|8,3:2|2:2,0:0:0:0:
340,177,122113,1,2,0:0:0:0:
259,106,122285,1,0,1:2:0:0:
259,106,122456,1,0,3:2:0:0:
170,167,122628,2,0,L|270:139,1,77.0000023498536,10|0,2:2|0:0,0:0:0:0:
88,95,122970,6,0,P|64:136|62:188,1,77.0000023498536,2|0,3:1|0:0,0:0:0:0:
5,258,123313,2,0,P|28:299|72:327,1,77.0000023498536,10|0,2:1|1:0,0:0:0:0:
158,304,123656,2,0,P|121:292|83:294,1,77.0000023498536,2|0,1:1|0:0,0:0:0:0:
221,382,123999,2,0,P|250:344|259:305,1,77.0000023498536,10|0,2:1|0:0,0:0:0:0:
325,213,124342,6,0,L|282:34,1,154.000004699707,2|8,3:1|2:2,0:0:0:0:
396,75,124856,1,0,3:2:0:0:
470,152,125028,2,0,L|453:240,1,77.0000023498536,2|2,1:2|3:2,0:0:0:0:
377,302,125370,2,0,L|394:390,1,77.0000023498536,10|2,3:2|3:2,0:0:0:0:
262,271,125713,6,0,P|178:252|117:295,1,154.000004699707,6|8,3:1|2:2,0:0:0:0:
69,379,126228,1,0,0:0:0:0:
9,288,126399,2,0,P|24:249|35:195,1,77.0000023498536,2|2,1:2|0:0,0:0:0:0:
91,124,126742,2,0,P|76:88|67:50,1,77.0000023498536,10|2,2:2|0:0,0:0:0:0:
181,3,127085,6,0,B|244:17|244:17|261:51|261:51|326:66,1,154.000004699707,2|8,3:1|2:2,0:0:0:0:
411,20,127599,1,2,0:0:0:0:
453,118,127770,1,2,1:2:0:0:
453,118,127942,1,2,0:0:0:0:
382,199,128113,2,0,L|296:214,1,77.0000023498536,10|2,2:2|0:0,0:0:0:0:
200,277,128456,6,0,L|124:263,2,77.0000023498536,0|0|8,3:2|3:2|2:2,0:0:0:0:
272,367,128970,1,0,3:2:0:0:
157,350,129142,2,0,L|81:363,1,77.0000023498536,0|8,1:2|0:0,0:0:0:0:
12,270,129485,1,8,2:2:0:0:
75,173,129656,1,8,0:0:0:0:
21,62,129828,6,0,L|36:148,2,77.0000023498536,8|8|0,2:2|0:0|1:2,0:0:0:0:
129,103,130342,1,8,3:2:0:0:
129,103,130428,1,0,3:2:0:0:
129,103,130513,2,0,P|171:118|226:118,1,77.0000023498536,0|0,3:2|3:2,0:0:0:0:
328,120,130856,2,0,P|333:142|332:163,3,38.5000011749268,8|0|0|0,3:2|3:2|3:2|3:2,0:0:0:0:
312,202,131199,6,0,B|286:287|349:286|330:363,1,154.000004699707,6|10,3:1|2:2,0:0:0:0:
233,366,131713,1,0,3:2:0:0:
233,366,131799,1,0,3:2:0:0:
233,366,131885,2,0,P|195:358|148:356,2,77.0000023498536,2|2|10,1:1|1:1|2:1,0:0:0:0:
177,272,132399,6,0,P|138:274|100:282,1,77.0000023498536,2|0,1:1|1:2,0:0:0:0:
22,344,132742,1,0,3:2:0:0:
22,344,132913,1,10,2:2:0:0:
0,249,133085,2,0,P|9:196|20:153,1,77.0000023498536,0|0,3:2|3:2,0:0:0:0:
69,89,133428,1,0,1:2:0:0:
147,151,133599,1,10,2:1:0:0:
147,151,133770,1,2,1:1:0:0:
221,72,133942,6,0,B|309:54|284:106|379:91,2,154.000004699707,0|10|0,3:2|2:2|1:0,0:0:0:0:
250,167,134799,2,0,P|256:197|258:244,1,77.0000023498536,2|10,1:1|2:2,0:0:0:0:
180,319,135142,6,0,P|202:298|242:273,1,77.0000023498536,2|0,1:1|1:2,0:0:0:0:
336,242,135485,2,0,P|364:251|406:273,1,77.0000023498536,2|10,1:1|2:2,0:0:0:0:
424,371,135828,2,0,P|418:341|416:294,1,77.0000023498536,2|0,1:1|1:0,0:0:0:0:
472,211,136170,1,0,3:2:0:0:
472,211,136342,1,10,2:2:0:0:
399,142,136513,2,0,P|404:113|409:80,1,38.5000011749268,0|0,3:2|3:2,0:0:0:0:
377,58,136685,6,0,P|321:41|222:109,1,154.000004699707,0|10,3:2|2:2,0:0:0:0:
142,47,137199,1,0,1:2:0:0:
65,110,137370,2,0,P|35:70|-1:52,2,77.0000023498536,2|2|10,1:2|1:2|2:2,0:0:0:0:
122,201,137885,6,0,P|141:155|139:114,1,77.0000023498536,2|0,1:1|1:2,0:0:0:0:
172,282,138228,2,0,P|122:287|88:310,1,77.0000023498536,2|10,1:1|2:2,0:0:0:0:
217,198,138570,2,0,P|246:238|282:256,2,77.0000023498536,2|0|0,1:1|1:2|3:2,0:0:0:0:
286,125,139085,2,0,P|317:146|338:178,1,77.0000023498536,10|0,2:2|3:0,0:0:0:0:
434,228,139428,6,0,B|423:290|423:290|400:310|400:310|385:371,1,154.000004699707,0|10,3:2|2:2,0:0:0:0:
385,368,139942,1,0,3:2:0:0:
294,326,140113,2,0,L|202:343,1,77.0000023498536,0|0,1:2|1:2,0:0:0:0:
127,382,140456,2,0,L|51:368,1,77.0000023498536,10|0,2:2|1:2,0:0:0:0:
17,265,140799,6,0,P|42:220|78:195,1,77.0000023498536,10|0,3:1|3:2,0:0:0:0:
115,110,141142,2,0,P|166:109|206:127,1,77.0000023498536,10|0,2:1|3:2,0:0:0:0:
243,113,141399,1,0,3:2:0:0:
243,113,141485,2,0,P|269:157|273:200,1,77.0000023498536,10|0,1:1|3:2,0:0:0:0:
338,264,141828,2,0,P|321:299|293:326,1,77.0000023498536,10|0,2:1|3:2,0:0:0:0:
433,233,142170,6,0,B|440:207|456:186|477:172|477:172|468:139|445:114|416:102,1,154.000004699707,0|10,3:2|2:1,0:0:0:0:
372,30,142685,2,0,P|329:44|298:74,1,77.0000023498536,2|0,0:1|1:2,0:0:0:0:
210,98,143028,2,0,P|200:142|211:184,1,77.0000023498536,2|10,3:1|2:2,0:0:0:0:
184,278,143370,6,0,P|261:262|352:252,1,154.000004699707,6|0,2:2|0:0,0:0:0:0:
335,253,143885,1,10,2:2:0:0:
274,342,144056,6,0,P|197:326|106:316,1,154.000004699707,6|0,2:2|0:0,0:0:0:0:
122,317,144570,1,10,2:2:0:0:
37,248,144742,6,0,B|8:157|78:176|59:84,1,154.000004699707,6|0,2:2|3:2,0:0:0:0:
147,35,145256,2,0,P|189:42|239:44,1,77.0000023498536,8|0,0:0|3:2,0:0:0:0:
319,93,145599,2,0,P|357:90|395:83,1,77.0000023498536,8|0,0:0|3:2,0:0:0:0:
250,176,145942,2,0,P|211:173|173:166,1,77.0000023498536,8|0,0:0|3:2,0:0:0:0:
343,228,146285,6,0,P|381:230|419:237,1,77.0000023498536,8|0,0:0|3:2,0:0:0:0:
406,344,146628,2,0,P|367:341|329:334,1,77.0000023498536,8|0,0:0|3:2,0:0:0:0:
243,269,146970,1,8,0:0:0:0:
243,269,147142,1,0,3:2:0:0:
170,348,147313,1,8,0:0:0:0:
170,348,147485,1,0,3:2:0:0:
99,266,147656,6,0,L|120:163,1,77.0000023498536,8|0,0:0|0:0,0:0:0:0:
71,91,147999,2,0,P|32:90|0:108,1,77.0000023498536,8|0,0:0|3:2,0:0:0:0:
174,121,148342,2,0,P|218:120|258:88,1,77.0000023498536,8|0,0:0|3:2,0:0:0:0:
329,36,148685,2,0,L|344:111,1,77.0000023498536,8|0,0:0|3:2,0:0:0:0:
427,180,149028,6,0,B|418:241|418:241|388:266|388:266|376:333,1,154.000004699707,10|10,0:1|0:1,0:0:0:0:
469,378,149542,1,0,3:2:0:0:
378,318,149713,2,0,P|406:308|435:302,2,51.3333348999024,10|0|0,0:1|3:2|3:2,0:0:0:0:
314,353,150056,2,0,P|338:358|363:367,2,51.3333348999024,10|0|0,0:1|3:2|3:2,0:0:0:0:
254,303,150399,6,0,P|246:251|323:202,2,154.000004699707,0|10|0,3:2|2:2|1:2,0:0:0:0:
52,380,151428,1,10,2:2:0:0:
91,303,151599,2,0,B|88:272|51:254|51:254|30:205|70:151,1,154.000004699707,0|0,3:2|3:2,0:0:0:0:
155,141,152113,2,0,P|115:160|69:159,1,77.0000023498536,10|0,2:2|3:2,0:0:0:0:
23,80,152456,1,0,1:2:0:0:
99,16,152628,2,0,P|182:34|247:82,1,154.000004699707,0|0,1:2|3:2,0:0:0:0:
334,106,153142,6,0,P|336:153|330:201,1,77.0000023498536,0|0,3:2|0:0,0:0:0:0:
360,278,153485,2,0,P|399:252|444:233,1,77.0000023498536,10|0,2:2|3:2,0:0:0:0:
496,169,153828,1,0,1:2:0:0:
456,76,153999,2,0,B|419:81|396:44|396:44|357:7|303:21,1,154.000004699707,0|0,0:0|3:2,0:0:0:0:
241,77,154513,5,0,3:2:0:0:
106,313,155713,5,0,0:0:0:0:
106,313,155799,1,0,0:0:0:0:
106,313,155885,2,0,P|127:273|159:256,1,77.0000023498536,0|0,3:2|3:2,0:0:0:0:
196,175,156228,2,0,P|241:173|271:192,1,77.0000023498536,10|0,2:2|3:2,0:0:0:0:
287,230,156485,1,0,3:2:0:0:
287,230,156570,2,0,L|280:284,3,38.5000011749268,0|0|0|0,3:2|3:2|3:2|3:2,0:0:0:0:
255,306,156913,2,0,L|262:360,3,38.5000011749268,0|0|0|0,3:2|3:2|3:2|3:2,0:0:0:0:
290,375,157256,6,0,P|346:356|425:357,2,125.999996154785,6|10|2,3:2|2:2|1:2,0:0:0:0:
419,255,158285,2,0,P|417:219|403:173,1,62.9999980773926,10|2,2:2|0:0,0:0:0:0:
333,138,158628,5,2,3:2:0:0:
333,138,158799,2,0,L|194:122,1,125.999996154785,2|2,0:0|0:0,0:0:0:0:
131,167,159313,1,0,0:0:0:0:
131,167,159485,1,2,0:0:0:0:
75,236,159656,2,0,P|83:266|90:307,1,62.9999980773926,10|0,2:2|3:2,0:0:0:0:
148,371,159999,6,0,P|198:323|261:323,2,125.999996154785,0|10|2,3:2|2:2|1:2,0:0:0:0:
60,382,160856,1,2,0:0:0:0:
88,297,161028,2,0,P|83:266|75:236,1,62.9999980773926,10|2,2:2|3:2,0:0:0:0:
18,159,161370,6,0,P|33:93|62:23,1,125.999996154785,2|8,3:2|2:2,0:0:0:0:
135,4,161885,1,2,3:2:0:0:
200,63,162056,2,0,P|234:59|266:51,1,62.9999980773926,2|2,1:2|1:2,0:0:0:0:
340,10,162399,2,0,P|370:17|401:20,1,62.9999980773926,10|0,2:2|3:2,0:0:0:0:
463,92,162742,6,0,P|392:108|320:116,2,125.999996154785,2|10|2,3:2|2:2|1:2,0:0:0:0:
484,177,163599,1,0,0:0:0:0:
440,253,163770,2,0,P|446:296|456:337,1,62.9999980773926,10|2,2:2|0:0,0:0:0:0:
384,383,164113,5,2,3:2:0:0:
331,312,164285,2,0,B|262:304|283:358|209:349,1,125.999996154785,2|2,0:0|0:0,0:0:0:0:
131,378,164799,2,0,P|111:358|95:322,1,62.9999980773926,0|2,0:0|0:0,0:0:0:0:
17,287,165142,2,0,P|17:258|31:221,1,62.9999980773926,10|0,2:2|3:2,0:0:0:0:
106,173,165485,6,0,B|162:177|162:177|184:197|184:197|236:201,2,125.999996154785,0|10|0,3:2|2:2|1:2,0:0:0:0:
54,100,166342,1,0,3:2:0:0:
140,84,166513,2,0,P|183:80|219:69,1,62.9999980773926,10|0,2:2|3:2,0:0:0:0:
281,23,166856,6,0,P|317:41|345:125,1,125.999996154785,0|10,3:2|2:2,0:0:0:0:
313,199,167370,1,0,3:2:0:0:
380,256,167542,1,0,1:2:0:0:
380,256,167713,1,0,1:2:0:0:
317,317,167885,2,0,L|244:305,1,62.9999980773926,10|2,2:2|2:2,0:0:0:0:
178,250,168228,6,0,L|45:272,2,125.999996154785,2|10|2,3:2|2:2|1:2,0:0:0:0:
226,176,169085,1,0,0:0:0:0:
160,115,169256,2,0,P|145:143|140:174,1,62.9999980773926,10|2,2:2|0:0,0:0:0:0:
233,66,169599,5,2,3:2:0:0:
233,66,169770,2,0,P|191:34|117:36,1,125.999996154785,2|2,0:0|0:0,0:0:0:0:
40,72,170285,2,0,P|25:99|20:130,1,62.9999980773926,2|2,1:2|0:0,0:0:0:0:
45,215,170628,2,0,P|59:242|64:273,1,62.9999980773926,10|0,2:2|3:2,0:0:0:0:
130,341,170970,6,0,B|183:304|183:304|268:312,2,125.999996154785,0|10|0,3:2|2:2|1:2,0:0:0:0:
43,361,171828,1,0,0:0:0:0:
64,273,171999,2,0,P|59:242|44:215,1,62.9999980773926,10|0,2:2|0:0,0:0:0:0:
133,179,172342,6,0,P|171:193|265:180,1,125.999996154785,0|10,3:2|2:2,0:0:0:0:
324,130,172856,1,0,3:2:0:0:
383,195,173028,2,0,L|373:269,1,62.9999980773926,0|0,1:2|1:2,0:0:0:0:
461,156,173370,2,0,L|452:93,1,62.9999980773926,10|2,2:2|0:0,0:0:0:0:
375,38,173713,6,0,P|337:24|243:37,2,125.999996154785,2|10|2,3:2|2:2|1:2,0:0:0:0:
330,114,174570,1,0,0:0:0:0:
261,169,174742,2,0,P|260:216|274:251,1,62.9999980773926,10|2,2:2|0:0,0:0:0:0:
328,300,175085,5,2,3:2:0:0:
266,363,175256,2,0,B|220:357|220:357|200:337|200:337|148:330,1,125.999996154785,2|2,0:0|0:0,0:0:0:0:
66,362,175770,1,0,1:2:0:0:
66,362,175942,1,2,0:0:0:0:
40,277,176113,2,0,L|65:213,1,62.9999980773926,10|0,2:2|3:2,0:0:0:0:
129,150,176456,6,0,B|192:166|188:113|258:134,2,125.999996154785,0|10|0,3:2|2:2|1:2,0:0:0:0:
75,79,177313,1,0,0:0:0:0:
145,26,177485,2,0,P|185:29|223:57,1,62.9999980773926,10|0,2:2|0:0,0:0:0:0:
261,115,177828,6,0,L|350:101,1,62.9999980773926,0|0,3:2|3:2,0:0:0:0:
363,123,178085,1,0,3:2:0:0:
363,123,178170,1,10,2:2:0:0:
425,186,178342,2,0,L|473:193,2,31.4999990386963,0|0|0,3:2|3:2|1:2,0:0:0:0:
352,235,178685,1,0,3:2:0:0:
345,256,178770,1,0,3:2:0:0:
348,277,178856,2,0,P|358:319|356:343,1,62.9999980773926,10|0,2:2|3:2,0:0:0:0:
271,380,179199,6,0,L|187:366,1,62.9999980773926,12|0,3:2|3:2,0:0:0:0:
122,351,179542,1,0,3:2:0:0:
32,322,179713,2,0,L|116:308,1,62.9999980773926,8|0,3:2|3:2,0:0:0:0:
181,293,180056,1,0,3:2:0:0:
217,213,180228,2,0,L|205:176,1,31.4999990386963,8|0,3:2|0:0,0:0:0:0:
170,156,180399,6,0,P|105:169|73:227,1,125.999996154785,8|2,3:2|1:2,0:0:0:0:
85,239,180828,1,2,1:2:0:0:
84,239,180913,1,2,1:2:0:0:
217,316,181256,1,2,0:0:0:0:
217,316,181428,1,2,0:0:0:0:
290,267,181599,6,0,L|353:274,2,62.9999980773926,2|2|2,0:0|0:0|2:2,0:0:0:0:
290,267,187428,6,0,P|248:188|386:203,1,293.999991027832,2|0,2:0|0:0,0:0:0:0:
386,195,188799,2,0,B|357:251|401:271|366:332,1,125.999996154785,2|0,2:0|0:0,0:0:0:0:
373,317,189485,2,0,P|328:358|292:358,1,83.9999974365235,2|0,2:0|0:0,0:0:0:0:
205,301,190170,6,0,P|167:278|118:272,1,83.9999974365235,2|0,2:0|0:0,0:0:0:0:
88,228,190685,1,0,0:0:0:0:
88,228,190856,2,0,L|95:170,1,41.9999987182618,2|0,2:0|0:0,0:0:0:0:
127,138,191199,2,0,L|120:80,1,41.9999987182618
86,49,191542,5,2,2:0:0:0:
199,18,191885,1,2,2:0:0:0:
281,101,192228,1,2,2:0:0:0:
394,70,192570,1,2,2:0:0:0:
476,153,192913,6,0,L|466:208,1,41.9999987182618,2|2,2:0|2:0,0:0:0:0:
466,253,193256,2,0,L|420:285,1,41.9999987182618,2|2,2:0|2:0,0:0:0:0:
388,317,193599,2,0,L|333:307,1,41.9999987182618,2|2,2:0|2:0,0:0:0:0:
272,324,193942,1,10,2:2:0:0:
107,262,194285,6,0,B|160:268|207:227|209:170|180:132|180:132|148:90|159:29|207:-2|254:3|254:3|258:21,1,377.999988464356,2|0,3:1|0:0,0:0:0:0:
323,57,195656,5,8,0:0:0:0:
323,57,195828,1,0,3:2:0:0:
379,127,197028,6,0,B|320:146|287:207|301:268|342:304|342:304|313:264|258:255|215:285|203:327,1,377.999988464356,2|0,3:1|0:0,0:0:0:0:
124,286,198399,5,8,0:0:0:0:
124,286,198570,2,0,P|136:212|116:155,1,125.999996154785,0|0,3:2|1:2,0:0:0:0:
41,125,199085,1,8,0:0:0:0:
41,125,199256,1,0,3:2:0:0:
106,66,199428,2,0,L|189:79,1,62.9999980773926,8|0,0:0|0:0,0:0:0:0:
245,130,199770,6,0,L|381:108,1,125.999996154785,0|10,3:2|2:2,0:0:0:0:
445,154,200285,1,0,0:0:0:0:
445,154,200456,2,0,P|458:192|453:224,1,62.9999980773926,0|0,1:2|0:0,0:0:0:0:
401,284,200799,2,0,L|326:268,1,62.9999980773926,10|0,2:2|0:0,0:0:0:0:
262,226,201142,6,0,B|211:237|211:237|194:260|194:260|147:270,1,125.999996154785,0|10,3:2|3:2,0:0:0:0:
69,232,201656,1,0,3:2:0:0:
26,155,201828,2,0,L|35:117,3,31.4999990386963,0|0|0|0,3:2|3:2|3:2|3:2,0:0:0:0:
61,90,202170,2,0,L|58:57,3,31.4999990386963,10|0|0|0,3:2|3:2|3:2|3:2,0:0:0:0:
20,19,202513,5,12,3:2:0:0:
126,3,202685,2,0,L|204:15,1,77.0000023498536,0|0,3:2|3:2,0:0:0:0:
271,93,203028,1,8,3:2:0:0:
271,93,203199,2,0,L|368:81,1,77.0000023498536,0|0,3:2|3:2,0:0:0:0:
387,184,203542,2,0,L|290:172,1,77.0000023498536,8|0,3:2|3:2,0:0:0:0:
228,243,203885,5,12,3:2:0:0:
254,347,204056,2,0,P|266:303|259:262,1,77.0000023498536,0|0,3:2|3:2,0:0:0:0:
154,274,204399,1,8,3:2:0:0:
154,274,204570,2,0,P|151:312|162:348,1,77.0000023498536,0|0,3:2|3:2,0:0:0:0:
91,195,204913,2,0,P|88:174|82:155,3,38.5000011749268,8|8|8|8,2:2|2:2|2:2|2:2,0:0:0:0:
34,124,205256,6,0,P|80:52|168:62,1,154.000004699707,6|10,3:1|2:2,0:0:0:0:
225,116,205770,1,2,0:0:0:0:
315,56,205942,1,0,1:2:0:0:
315,56,206113,1,0,0:0:0:0:
383,138,206285,2,0,L|371:222,1,77.0000023498536,10|2,2:2|0:0,0:0:0:0:
357,329,206628,6,0,B|317:326|288:292|288:292|240:275|192:314,1,154.000004699707,2|8,3:2|2:2,0:0:0:0:
141,375,207142,1,2,0:0:0:0:
63,300,207313,2,0,P|71:257|78:214,1,77.0000023498536,0|0,1:2|3:2,0:0:0:0:
132,131,207656,2,0,P|124:88|117:45,1,77.0000023498536,10|0,2:2|0:0,0:0:0:0:
232,35,207999,6,0,P|279:35|313:50,1,77.0000023498536,2|0,3:1|0:0,0:0:0:0:
289,151,208342,2,0,P|251:153|215:141,1,77.0000023498536,10|0,2:1|0:0,0:0:0:0:
389,112,208685,2,0,P|425:99|463:101,1,77.0000023498536,2|0,1:1|0:0,0:0:0:0:
479,207,209028,2,0,P|442:219|404:217,1,77.0000023498536,10|0,2:1|0:0,0:0:0:0:
301,271,209370,6,0,P|254:258|155:293,1,154.000004699707,2|8,3:1|2:2,0:0:0:0:
92,377,209885,1,0,3:2:0:0:
15,301,210056,2,0,P|34:249|39:207,1,77.0000023498536,2|2,1:2|3:2,0:0:0:0:
108,146,210399,2,0,P|93:110|72:78,1,77.0000023498536,10|2,3:2|3:2,0:0:0:0:
210,181,210742,6,0,P|239:134|345:118,1,154.000004699707,6|8,3:1|2:2,0:0:0:0:
402,193,211256,1,0,0:0:0:0:
402,193,211428,2,0,L|381:293,1,77.0000023498536,2|2,1:2|0:0,0:0:0:0:
314,349,211770,2,0,P|255:333|238:311,1,77.0000023498536,10|2,2:2|0:0,0:0:0:0:
160,243,212113,6,0,P|96:261|67:360,1,154.000004699707,2|8,3:1|2:2,0:0:0:0:
4,244,212628,1,2,0:0:0:0:
60,151,212799,2,0,P|127:127|153:127,1,77.0000023498536,2|2,1:2|0:0,0:0:0:0:
204,46,213142,2,0,P|274:58|296:71,1,77.0000023498536,10|2,2:2|0:0,0:0:0:0:
352,149,213485,6,0,L|440:131,2,77.0000023498536,0|0|8,3:2|3:2|2:2,0:0:0:0:
249,203,213999,1,0,3:2:0:0:
253,318,214170,2,0,L|165:336,1,77.0000023498536,0|8,1:2|0:0,0:0:0:0:
71,286,214513,1,8,2:2:0:0:
8,382,214685,1,8,0:0:0:0:
71,286,215370,5,0,3:2:0:0:
119,212,215542,2,0,L|112:138,1,62.9999980773926,8|0,0:0|3:2,0:0:0:0:
173,85,215885,2,0,P|216:76|242:80,1,62.9999980773926,8|8,0:0|2:2,0:0:0:0:
272,107,216142,1,8,2:2:0:0:
272,107,216228,6,0,L|277:169,1,62.9999980773926,10|0,0:0|0:0,0:0:0:0:
335,236,216570,2,0,L|329:298,1,62.9999980773926,2|0,3:2|0:0,0:0:0:0:
263,358,216913,2,0,P|235:330|149:343,1,125.999996154785,2|10,2:0|0:0,0:0:0:0:
66,348,217428,1,2,0:0:0:0:
66,348,217599,6,0,B|75:293|75:293|93:274|93:274|103:211,2,125.999996154785,2|2|2,0:0|3:2|2:0,0:0:0:0:
30,175,218628,1,10,0:0:0:0:
30,175,218799,1,2,0:0:0:0:
103,116,218970,6,0,L|175:125,1,62.9999980773926,2|0,0:0|0:0,0:0:0:0:
226,188,219313,2,0,L|312:175,1,62.9999980773926,2|0,3:2|0:0,0:0:0:0:
332,101,219656,2,0,B|373:134|373:134|373:225,1,125.999996154785,2|10,2:0|0:0,0:0:0:0:
373,207,220170,1,2,0:0:0:0:
321,286,220342,6,0,P|371:302|445:266,1,125.999996154785,2|2,0:0|3:2,0:0:0:0:
436,275,220856,1,0,0:0:0:0:
499,214,221028,2,0,L|488:151,1,62.9999980773926,2|0,2:0|0:0,0:0:0:0:
457,68,221370,2,0,L|468:5,1,62.9999980773926,10|2,0:0|0:0,0:0:0:0:
373,112,221713,6,0,B|352:115|333:130|333:130|292:107|241:115,1,125.999996154785,2|2,0:0|3:2,0:0:0:0:
254,113,222228,1,0,0:0:0:0:
189,173,222399,2,0,B|151:179|110:156|110:156|91:171|70:174,1,125.999996154785,2|10,2:0|0:0,0:0:0:0:
17,252,222913,1,2,0:0:0:0:
17,252,222999,1,2,0:0:0:0:
17,252,223085,6,0,L|35:378,1,125.999996154785,2|2,0:0|3:2,0:0:0:0:
34,376,223599,1,0,0:0:0:0:
109,331,223770,2,0,P|147:316|183:316,1,62.9999980773926,2|0,2:0|0:0,0:0:0:0:
240,262,224113,2,0,P|271:265|299:278,1,62.9999980773926,10|2,0:0|0:0,0:0:0:0:
368,344,224456,6,0,L|504:326,1,125.999996154785,2|2,0:0|3:2,0:0:0:0:
492,327,224970,1,0,0:0:0:0:
448,251,225142,2,0,B|442:220|442:220|445:189,1,62.9999980773926,2|0,2:0|0:0,0:0:0:0:
496,117,225485,2,0,B|499:86|499:86|493:55,1,62.9999980773926,10|2,0:0|0:0,0:0:0:0:
407,13,225828,6,0,P|345:30|324:109,1,125.999996154785,2|2,0:0|0:0,0:0:0:0:
320,82,226342,1,0,0:0:0:0:
259,154,226513,2,0,L|194:144,1,62.9999980773926,10|0,3:2|3:2,0:0:0:0:
110,184,226856,1,8,3:2:0:0:
110,184,227028,1,10,3:2:0:0:
256,192,227113,12,0,229942,0:0:0:0:
