osu file format v14

[General]
AudioFilename: audio.mp3
AudioLeadIn: 0
PreviewTime: 54330
Countdown: 0
SampleSet: Soft
StackLeniency: 0.3
Mode: 0
LetterboxInBreaks: 0
EpilepsyWarning: 1
WidescreenStoryboard: 1

[Editor]
DistanceSpacing: 1
BeatDivisor: 4
GridSize: 32
TimelineZoom: 5.299997

[Metadata]
Title:Egao no Kimi e (TV Size)
TitleUnicode:エガオノキミヘ (TV Size)
Artist:Mimori Suzuko
ArtistUnicode:三森すずこ
Creator:Xahlt
Version:Normal
Source:結城友奈は勇者である -鷲尾須美の章-
Tags:[_lost_] conner c_o_n_n_e_r sarawatlism Yuki Yuuki Yuna Yuuna wa Yuusha de Aru is a Hero Washio Sumi no Shou YuYuYu Female Vocal Japanese Jpop J-pop Pop 中村彼方 蔦屋好位置 野間康介 Nakamura kanata Tsutaya Koichi Noma Kosuke kousuke Anime Opening
BeatmapID:2774219
BeatmapSetID:1337828

[Difficulty]
HPDrainRate:4
CircleSize:3.3
OverallDifficulty:4
ApproachRate:5
SliderMultiplier:0.999999999999999
SliderTickRate:1

[Events]
//Background and Video events
0,0,"background.png",0,0
Video,880,"Video.mp4"
//Break Periods
//Storyboard Layer 0 (Background)
//Storyboard Layer 1 (Fail)
//Storyboard Layer 2 (Pass)
//Storyboard Layer 3 (Foreground)
//Storyboard Layer 4 (Overlay)
//Storyboard Sound Samples

[TimingPoints]
-441,342.857142857143,4,2,1,40,1,0
930,-111.111111111111,4,2,1,40,0,0
13273,-100,4,2,2,50,0,0
21501,-100,4,2,2,60,0,0
32473,-100,4,2,2,65,0,0
43444,-100,4,2,2,60,0,0
48930,-100,4,2,2,70,0,0
53044,-100,4,2,2,75,0,0
54416,-90.9090909090909,4,2,1,80,0,1
65044,-90.9090909090909,4,2,1,80,0,0
65387,-90.9090909090909,4,2,1,80,0,1
76359,-100,4,2,1,70,0,0
90073,-100,4,2,1,20,0,0

[Colours]
Combo1 : 173,188,188
Combo2 : 255,221,164

[HitObjects]
81,24,930,6,0,P|161:46|151:128,1,179.999994506836,2|2,0:0|0:0,0:0:0:0:
12,242,2301,2,0,B|117:250|51:327|180:330,1,179.999994506836,2|2,0:0|0:0,0:0:0:0:
331,273,3673,6,0,L|349:376,2,89.999997253418,2|2|2,0:0|0:0|0:0,0:0:0:0:
264,212,4701,1,2,0:0:0:0:
308,133,5044,2,0,P|344:107|388:109,1,89.999997253418,2|2,0:0|0:0,0:0:0:0:
471,145,5730,1,2,0:0:0:0:
425,222,6073,1,2,0:0:0:0:
473,297,6416,6,0,B|391:317|391:317|383:324|383:324|300:346,1,179.999994506836,2|2,0:0|0:0,0:0:0:0:
122,371,7787,2,0,P|48:329|62:246,1,179.999994506836,2|2,0:0|0:0,0:0:0:0:
219,157,9159,6,0,L|108:151,1,89.999997253418,2|2,0:0|0:0,0:0:0:0:
113,63,9844,2,0,L|202:67,1,89.999997253418,2|2,0:0|0:0,0:0:0:0:
278,19,10530,1,2,0:0:0:0:
483,23,13273,6,0,P|444:51|444:99,1,99.9999999999999,2|2,1:2|0:0,0:0:0:0:
502,181,13959,2,0,L|487:295,1,99.9999999999999,10|2,0:0|0:0,0:0:0:0:
416,350,14644,2,0,P|369:360|326:336,1,99.9999999999999,2|2,1:2|0:0,0:0:0:0:
264,257,15330,2,0,P|221:233|173:243,1,99.9999999999999,10|2,0:0|0:0,0:0:0:0:
95,307,16016,6,0,B|81:212|81:212|84:206|84:206|70:101,1,200,2|10,1:2|0:0,0:0:0:0:
136,34,17044,1,2,0:0:0:0:
224,76,17387,2,0,P|257:113|255:162,1,99.9999999999999,2|0,1:2|0:0,0:0:0:0:
191,240,18073,2,0,P|189:288|221:325,1,99.9999999999999,10|0,0:0|0:0,0:0:0:0:
316,357,18759,6,0,B|392:324|348:280|421:246,2,150,2|2|2,1:2|0:0|0:0,0:0:0:0:
220,324,20130,2,0,P|123:307|25:326,1,200,2|0,0:0|0:0,0:0:0:0:
7,126,21501,5,0,1:2:0:0:
85,64,21844,2,0,P|133:59|174:87,1,99.9999999999999,2|2,1:2|1:2,0:0:0:0:
206,126,22359,1,2,0:0:0:0:
203,225,22701,1,2,0:0:0:0:
290,274,23044,2,0,P|333:279|384:229,1,99.9999999999999,2|0,0:0|0:0,0:0:0:0:
443,172,23730,1,2,0:0:0:0:
443,172,23901,2,0,L|423:112,1,50,2|2,1:2|0:0,0:0:0:0:
409,77,24244,6,0,P|368:49|319:52,1,99.9999999999999,2|2,1:2|1:2,0:0:0:0:
275,75,24759,2,0,L|160:80,1,99.9999999999999,2|2,0:0|0:0,0:0:0:0:
79,94,25444,1,2,0:0:0:0:
79,94,25616,2,0,P|57:137|79:180,1,99.9999999999999,2|2,1:2|1:2,0:0:0:0:
166,227,26301,2,0,L|272:213,1,99.9999999999999,2|2,1:2|1:2,0:0:0:0:
324,133,26987,6,0,P|364:107|412:115,1,99.9999999999999,2|2,1:2|1:2,0:0:0:0:
448,151,27501,2,0,L|444:261,1,99.9999999999999,2|2,0:0|0:0,0:0:0:0:
430,353,28187,1,2,0:0:0:0:
430,353,28359,2,0,L|372:349,1,50,2|2,1:2|0:0,0:0:0:0:
349,317,28701,1,2,1:2:0:0:
349,317,28873,2,0,P|308:290|260:298,1,99.9999999999999,2|2,0:0|0:0,0:0:0:0:
180,357,29559,1,2,0:0:0:0:
180,357,29730,6,0,P|131:365|91:338,1,99.9999999999999,2|2,1:2|1:2,0:0:0:0:
61,297,30244,1,2,0:0:0:0:
97,203,30587,1,2,0:0:0:0:
33,133,30930,1,10,0:0:0:0:
33,133,31101,2,0,L|49:80,1,50,2|2,0:0|0:0,0:0:0:0:
123,19,31616,1,2,0:0:0:0:
192,91,31959,2,0,L|200:145,2,50,2|8|0,1:2|0:0|1:2,0:0:0:0:
226,54,32473,5,4,1:2:0:0:
316,12,32816,2,0,P|364:8|404:37,1,99.9999999999999,10|2,0:0|1:2,0:0:0:0:
432,78,33330,1,2,0:0:0:0:
367,154,33673,1,2,0:0:0:0:
442,219,34016,1,2,0:0:0:0:
442,219,34187,2,0,L|426:323,1,99.9999999999999,8|0,0:0|1:2,0:0:0:0:
342,371,34873,2,0,L|327:304,1,50,10|2,0:0|0:0,0:0:0:0:
292,290,35216,6,0,P|259:253|260:204,1,99.9999999999999,2|10,1:2|0:0,0:0:0:0:
281,159,35730,2,0,P|281:110|249:73,1,99.9999999999999,2|2,0:0|0:0,0:0:0:0:
158,43,36416,1,2,0:0:0:0:
158,43,36587,2,0,L|46:65,1,99.9999999999999,0|8,1:2|0:0,0:0:0:0:
12,150,37273,2,0,L|68:165,1,50,0|0,1:2|0:0,0:0:0:0:
108,176,37616,2,0,L|99:231,1,50,10|2,0:0|0:0,0:0:0:0:
92,274,37959,6,0,P|108:316|158:325,1,99.9999999999999,2|10,1:2|0:0,0:0:0:0:
201,302,38473,2,0,L|320:304,1,99.9999999999999,2|0,0:0|0:0,0:0:0:0:
350,307,38987,1,8,0:0:0:0:
426,371,39330,2,0,L|476:371,1,50,2|2,1:2|0:0,0:0:0:0:
511,335,39673,1,10,0:0:0:0:
511,335,39844,2,0,P|522:286|502:241,1,99.9999999999999,2|8,0:0|0:3,0:0:0:0:
466,206,40359,1,8,0:0:0:0:
507,115,40701,6,0,L|398:103,1,99.9999999999999,6|10,1:2|0:0,0:0:0:0:
375,65,41216,2,0,L|266:53,1,99.9999999999999,2|2,1:2|1:2,0:0:0:0:
243,92,41730,1,10,0:0:0:0:
243,92,41901,1,2,1:2:0:0:
155,54,42244,1,8,0:0:0:0:
155,54,42416,2,0,L|88:48,1,50,8|2,0:0|1:2,0:0:0:0:
68,14,42759,2,0,L|1:8,2,50,10|2|10,0:0|1:2|0:0,0:0:0:0:
30,106,43444,6,0,P|12:151|23:199,1,99.9999999999999,6|2,1:2|0:0,0:0:0:0:
58,235,43959,1,2,1:2:0:0:
140,179,44301,1,2,0:0:0:0:
220,239,44644,2,0,L|328:250,1,99.9999999999999,2|2,0:0|0:0,0:0:0:0:
363,224,45159,2,0,L|419:231,1,50,2|0,0:0|1:2,0:0:0:0:
462,232,45501,1,0,1:2:0:0:
487,328,45844,2,0,L|437:321,1,50,10|2,0:0|0:0,0:0:0:0:
396,349,46187,6,0,P|351:370|303:359,1,99.9999999999999,2|2,1:2|0:0,0:0:0:0:
260,334,46701,2,0,P|212:322|167:343,1,99.9999999999999,2|2,1:2|0:0,0:0:0:0:
129,376,47216,1,10,0:0:0:0:
34,343,47559,2,0,L|37:228,1,99.9999999999999,2|0,1:2|0:0,0:0:0:0:
69,205,48073,1,2,1:2:0:0:
69,205,48244,2,0,P|92:164|74:102,1,99.9999999999999,2|8,1:2|0:0,0:0:0:0:
25,31,48930,6,0,L|140:17,1,99.9999999999999,6|2,1:2|1:2,0:0:0:0:
173,10,49444,1,2,0:0:0:0:
251,72,49787,1,2,0:0:0:0:
194,154,50130,2,0,L|214:260,1,99.9999999999999,2|2,0:0|0:0,0:0:0:0:
227,305,50644,1,2,1:2:0:0:
227,305,50816,1,2,0:0:0:0:
321,351,51159,1,8,0:0:0:0:
321,351,51330,2,0,L|334:287,1,50,10|2,0:0|0:0,0:0:0:0:
338,252,51673,6,0,P|389:230|442:261,1,99.9999999999999,2|10,1:2|0:0,0:0:0:0:
471,270,52187,2,0,P|504:250|504:174,1,99.9999999999999,2|0,0:0|0:0,0:0:0:0:
486,151,52701,1,10,0:0:0:0:
501,52,53044,2,0,L|433:59,1,50,10|10,0:0|0:0,0:0:0:0:
366,3,53559,1,2,0:0:0:0:
303,80,53901,2,0,P|255:91|213:65,1,99.9999999999999,8|12,0:0|3:3,0:0:0:0:
167,35,54416,6,0,P|119:8|66:19,1,110.000003356934,6|10,1:2|0:0,0:0:0:0:
2,107,55101,2,0,L|12:164,1,55.0000016784668,2|2,1:2|0:0,0:0:0:0:
47,202,55444,2,0,L|119:188,1,55.0000016784668,10|2,0:0|0:0,0:0:0:0:
155,183,55787,2,0,P|207:193|232:240,1,110.000003356934,2|10,1:2|0:0,0:0:0:0:
221,297,56301,1,2,0:0:0:0:
221,297,56473,2,0,L|352:308,1,110.000003356934,2|8,1:2|0:0,0:0:0:0:
426,360,57159,5,2,1:2:0:0:
509,289,57501,1,10,0:0:0:0:
460,190,57844,1,2,1:2:0:0:
350,193,58187,2,0,L|282:188,1,55.0000016784668,10|2,0:0|0:0,0:0:0:0:
246,163,58530,2,0,L|178:158,1,55.0000016784668,2|2,1:2|0:0,0:0:0:0:
136,152,58873,1,10,0:0:0:0:
32,190,59216,2,0,P|18:137|45:91,1,110.000003356934,2|8,1:2|0:0,0:0:0:0:
131,24,59901,6,0,L|256:50,1,110.000003356934,2|10,1:2|0:0,0:0:0:0:
294,55,60416,2,0,P|339:25|393:31,1,110.000003356934,2|0,0:0|0:0,0:0:0:0:
443,52,60930,1,10,0:0:0:0:
499,146,61273,1,2,1:2:0:0:
499,146,61444,2,0,L|508:267,1,110.000003356934,2|2,0:0|0:0,0:0:0:0:
510,311,61959,1,0,1:2:0:0:
422,376,62301,2,0,L|358:360,1,55.0000016784668,10|2,0:0|0:0,0:0:0:0:
326,327,62644,6,0,P|278:301|227:317,1,110.000003356934,2|10,1:2|0:0,0:0:0:0:
185,353,63159,2,0,P|133:369|86:343,1,110.000003356934,2|2,0:0|0:0,0:0:0:0:
49,302,63673,1,10,0:0:0:0:
91,200,64016,2,0,L|23:188,2,55.0000016784668,2|10|0,1:2|0:0|1:2,0:0:0:0:
136,168,64530,2,0,P|187:151|234:177,1,110.000003356934,10|8,0:0|0:0,0:0:0:0:
272,217,65044,1,0,1:2:0:0:
367,161,65387,6,0,P|403:121|394:69,1,110.000003356934,6|8,1:2|0:0,0:0:0:0:
346,42,65901,2,0,L|230:34,1,110.000003356934,2|0,0:0|0:0,0:0:0:0:
185,57,66416,1,10,0:0:0:0:
84,11,66759,1,2,1:2:0:0:
84,11,66930,2,0,B|56:47|56:47|73:120,1,110.000003356934,2|2,0:0|0:0,0:0:0:0:
91,160,67444,1,0,1:2:0:0:
14,239,67787,1,10,0:0:0:0:
89,319,68130,6,0,P|141:327|182:293,1,110.000003356934,2|10,1:2|0:0,0:0:0:0:
246,203,68816,2,0,P|286:168|339:177,1,110.000003356934,2|10,1:2|0:0,0:0:0:0:
421,250,69501,1,2,1:2:0:0:
381,352,69844,1,8,0:0:0:0:
270,353,70187,2,0,L|199:342,1,55.0000016784668,2|2,1:2|0:0,0:0:0:0:
168,372,70530,2,0,L|97:361,1,55.0000016784668,10|2,0:0|0:0,0:0:0:0:
60,348,70873,6,0,P|22:309|25:256,1,110.000003356934,0|8,1:2|0:0,0:0:0:0:
80,160,71559,2,0,L|14:140,2,55.0000016784668,2|2|10,1:2|0:0|0:0,0:0:0:0:
125,191,72073,2,0,L|252:176,1,110.000003356934,2|0,0:0|0:0,0:0:0:0:
293,175,72587,1,10,0:0:0:0:
293,175,72759,1,2,0:0:0:0:
390,235,73101,1,2,0:0:0:0:
390,235,73273,2,0,L|456:225,1,55.0000016784668,10|2,0:0|0:0,0:0:0:0:
498,216,73616,5,2,1:2:0:0:
509,106,73959,2,0,P|506:78|491:56,1,55.0000016784668,8|8,1:2|0:0,0:0:0:0:
441,33,74301,2,0,L|365:52,1,55.0000016784668,8|8,1:2|0:0,0:0:0:0:
339,67,74644,1,8,1:2:0:0:
339,67,74816,1,4,1:2:0:0:
128,21,75501,5,0,1:2:0:0:
128,21,75673,2,0,L|136:87,1,55.0000016784668,8|0,0:0|1:2,0:0:0:0:
177,110,76016,2,0,L|185:176,1,55.0000016784668,8|8,0:0|0:0,0:0:0:0:
189,214,76359,6,0,P|143:194|96:207,1,99.9999999999999,2|10,1:2|0:0,0:0:0:0:
52,231,76873,2,0,L|65:348,1,99.9999999999999,2|2,0:0|0:0,0:0:0:0:
72,379,77387,1,10,0:0:0:0:
159,331,77730,2,0,P|204:311|251:324,1,99.9999999999999,0|10,1:2|0:0,0:0:0:0:
294,351,78244,1,2,0:0:0:0:
294,351,78416,2,0,L|381:338,1,50,2|2,1:2|0:0,0:0:0:0:
392,334,78759,1,10,0:0:0:0:
416,237,79101,6,0,L|299:258,1,99.9999999999999,0|10,1:2|0:0,0:0:0:0:
272,231,79616,1,2,0:0:0:0:
272,231,79787,2,0,P|243:191|247:142,1,99.9999999999999,2|10,1:2|0:0,0:0:0:0:
297,55,80473,1,2,1:2:0:0:
396,44,80816,1,8,0:0:0:0:
471,109,81159,2,0,L|468:188,1,50,2|2,1:2|0:0,0:0:0:0:
492,203,81501,2,0,L|489:282,1,50,10|8,0:0|0:0,0:0:0:0:
478,301,81844,6,0,P|430:291|390:319,1,99.9999999999999,2|10,1:2|0:0,0:0:0:0:
367,364,82359,2,0,L|260:357,1,99.9999999999999,2|2,0:0|0:0,0:0:0:0:
223,333,82873,1,10,0:0:0:0:
132,376,83216,2,0,B|124:334|124:334|128:325|128:325|120:278,1,99.9999999999999,0|10,1:2|0:0,0:0:0:0:
87,240,83730,1,2,0:0:0:0:
87,240,83901,2,0,L|77:180,1,50,0|2,1:2|0:0,0:0:0:0:
71,140,84244,1,10,0:0:0:0:
11,59,84587,6,0,P|53:34|101:44,1,99.9999999999999,2|10,1:2|0:0,0:0:0:0:
146,66,85101,1,2,0:0:0:0:
146,66,85273,2,0,P|193:75|236:51,1,99.9999999999999,2|10,1:2|0:0,0:0:0:0:
336,43,85959,1,2,1:2:0:0:
385,129,86301,1,8,0:0:0:0:
308,193,86644,2,0,L|319:261,2,50,8|10|2,0:0|0:3|1:2,0:0:0:0:
262,171,87159,1,12,0:0:0:0:
256,192,87330,12,0,90073,0:0:0:0:
