osu file format v14

[General]
AudioFilename: audio.mp3
AudioLeadIn: 0
PreviewTime: 54330
Countdown: 0
SampleSet: Soft
StackLeniency: 0.3
Mode: 0
LetterboxInBreaks: 0
EpilepsyWarning: 1
WidescreenStoryboard: 1

[Editor]
DistanceSpacing: 1.2
BeatDivisor: 4
GridSize: 32
TimelineZoom: 0.7999996

[Metadata]
Title:Egao no Kimi e (TV Size)
TitleUnicode:エガオノキミヘ (TV Size)
Artist:Mimori Suzuko
ArtistUnicode:三森すずこ
Creator:Xahlt
Version:Lost's Insane
Source:結城友奈は勇者である -鷲尾須美の章-
Tags:[_lost_] conner c_o_n_n_e_r sarawatlism Yuki Yuuki Yuna Yuuna wa Yuusha de Aru is a Hero Washio Sumi no Shou YuYuYu Female Vocal Japanese Jpop J-pop Pop 中村彼方 蔦屋好位置 野間康介 Nakamura kanata Tsutaya Koichi Noma Kosuke kousuke Anime Opening
BeatmapID:2774196
BeatmapSetID:1337828

[Difficulty]
HPDrainRate:5
CircleSize:4
OverallDifficulty:8
ApproachRate:8.8
SliderMultiplier:1.66
SliderTickRate:1

[Events]
//Background and Video events
0,0,"background.png",0,0
Video,880,"Video.mp4"
//Break Periods
//Storyboard Layer 0 (Background)
//Storyboard Layer 1 (Fail)
//Storyboard Layer 2 (Pass)
//Storyboard Layer 3 (Foreground)
//Storyboard Layer 4 (Overlay)
//Storyboard Sound Samples

[TimingPoints]
-441,342.857142857143,4,2,1,40,1,0
930,-166.666666666667,4,2,1,40,0,0
13273,-125,4,2,2,50,0,0
18759,-166.666666666667,4,2,2,50,0,0
21501,-125,4,2,2,60,0,0
32130,-100,4,2,2,60,0,0
32473,-111.111111111111,4,2,2,65,0,0
33416,-111.111111111111,4,2,2,5,0,0
33501,-111.111111111111,4,2,2,65,0,0
34444,-111.111111111111,4,2,2,5,0,0
34530,-111.111111111111,4,2,2,65,0,0
40958,-111.111111111111,4,2,2,5,0,0
41044,-111.111111111111,4,2,2,65,0,0
42158,-111.111111111111,4,2,2,5,0,0
42244,-111.111111111111,4,2,2,65,0,0
43444,-125,4,2,2,60,0,0
48587,-83.3333333333333,4,2,2,60,0,0
48930,-100,4,2,2,70,0,0
53044,-100,4,2,2,75,0,0
53901,-125,4,2,2,75,0,0
54416,-83.3333333333333,4,2,1,80,0,1
54673,-83.3333333333333,4,2,1,5,0,1
54759,-83.3333333333333,4,2,1,80,0,1
56044,-83.3333333333333,4,2,1,5,0,1
56130,-83.3333333333333,4,2,1,80,0,1
56730,-83.3333333333333,4,2,1,5,0,1
56816,-83.3333333333333,4,2,1,80,0,1
57416,-83.3333333333333,4,2,1,5,0,1
57501,-83.3333333333333,4,2,1,80,0,1
58101,-83.3333333333333,4,2,1,5,0,1
58187,-83.3333333333333,4,2,1,80,0,1
59473,-83.3333333333333,4,2,1,5,0,1
59559,-83.3333333333333,4,2,1,80,0,1
60844,-83.3333333333333,4,2,1,5,0,1
60930,-83.3333333333333,4,2,1,80,0,1
62216,-83.3333333333333,4,2,1,5,0,1
62301,-83.3333333333333,4,2,1,80,0,1
63587,-83.3333333333333,4,2,1,5,0,1
63673,-83.3333333333333,4,2,1,80,0,1
65044,-83.3333333333333,4,2,1,80,0,0
65387,-83.3333333333333,4,2,1,80,0,1
65644,-83.3333333333333,4,2,1,5,0,1
65730,-83.3333333333333,4,2,1,80,0,1
68044,-83.3333333333333,4,2,1,5,0,1
68130,-83.3333333333333,4,2,1,80,0,1
69758,-83.3333333333333,4,2,1,5,0,1
69844,-83.3333333333333,4,2,1,80,0,1
71130,-83.3333333333333,4,2,1,5,0,1
71216,-83.3333333333333,4,2,1,80,0,1
72501,-83.3333333333333,4,2,1,5,0,1
72587,-83.3333333333333,4,2,1,80,0,1
73873,-83.3333333333333,4,2,1,5,0,1
73959,-83.3333333333333,4,2,1,80,0,1
76359,-90.909090909091,4,2,1,70,0,0
78673,-90.909090909091,4,2,1,5,0,0
78759,-90.909090909091,4,2,1,70,0,0
90073,-90.909090909091,4,2,1,20,0,0

[Colours]
Combo1 : 173,188,188
Combo2 : 255,221,164

[HitObjects]
49,178,930,6,0,B|104:201|163:164|131:151|181:108|248:131,1,199.199993920899,2|2,0:0|0:0,0:0:0:0:
399,270,2301,6,0,B|344:293|285:256|317:243|267:200|200:223,1,199.199993920899,2|2,0:0|0:0,0:0:0:0:
217,218,3501,1,0,0:0:0:0:
198,294,3673,6,0,P|286:286|405:280,2,199.199993920899,2|2|2,0:0|0:0|0:0,0:0:0:0:
198,294,5730,1,2,0:0:0:0:
104,219,6073,1,2,0:0:0:0:
37,327,6416,6,0,B|88:304|105:260|105:260|139:294|202:293,1,199.199993920899,2|2,0:0|0:0,0:0:0:0:
350,215,7787,6,0,B|299:192|282:148|282:148|248:182|185:181,1,199.199993920899,2|2,0:0|0:0,0:0:0:0:
189,181,9159,6,0,P|203:218|220:284,1,99.5999969604493,2|2,0:0|0:0,0:0:0:0:
308,56,9844,2,0,P|294:93|277:159,1,99.5999969604493,2|2,0:0|0:0,0:0:0:0:
143,26,10530,5,2,0:0:0:0:
143,26,13273,6,0,P|103:24|80:47,1,66.4,2|0,1:2|0:0,0:0:0:0:
81,119,13616,2,0,P|121:121|144:98,1,66.4,2|2,0:0|0:0,0:0:0:0:
247,11,13959,2,0,P|225:53|223:79,1,66.4,10|2,0:0|0:0,0:0:0:0:
245,200,14301,2,0,P|219:159|198:145,1,66.4,2|2,0:0|0:0,0:0:0:0:
181,247,14644,6,0,P|250:242|334:241,1,132.8,2|2,1:2|0:0,0:0:0:0:
379,287,15159,1,2,0:0:0:0:
445,243,15330,2,0,P|432:202|428:169,1,66.4,10|2,0:0|0:0,0:0:0:0:
368,100,15673,2,0,P|362:132|351:164,1,66.4,2|2,0:0|0:0,0:0:0:0:
308,45,16016,6,0,P|260:18|201:73,1,132.8,2|2,1:2|0:0,0:0:0:0:
151,120,16530,1,2,0:0:0:0:
79,84,16701,2,0,P|66:40|81:11,1,66.4,10|2,0:0|0:0,0:0:0:0:
151,120,17044,2,0,P|164:164|149:193,1,66.4,2|0,0:0|0:0,0:0:0:0:
81,204,17387,5,2,1:2:0:0:
21,150,17559,1,2,0:0:0:0:
81,204,17730,2,0,P|123:194|160:190,1,66.4,2|0,0:0|0:0,0:0:0:0:
57,291,18073,2,0,P|99:281|136:277,1,66.4,10|2,0:0|0:0,0:0:0:0:
220,214,18416,2,0,P|178:204|141:200,1,66.4,2|2,0:0|0:0,0:0:0:0:
292,312,18759,6,0,B|251:301|226:329|231:333|206:364|153:349,2,149.399995440674,2|2|2,1:2|0:0|0:0,0:0:0:0:
379,279,19959,1,0,0:0:0:0:
382,294,20044,1,0,0:0:0:0:
385,308,20130,1,2,0:0:0:0:
256,192,20216,12,0,21330,0:0:0:0:
385,308,21501,6,0,P|430:299|465:297,1,66.4,0|0,1:2|0:0,0:0:0:0:
447,217,21844,2,0,P|413:220|381:227,1,66.4,2|0,1:2|0:0,0:0:0:0:
305,283,22187,2,0,P|298:321|313:352,1,66.4,2|2,1:2|0:0,0:0:0:0:
278,197,22530,2,0,P|285:165|274:134,1,66.4,0|2,1:2|0:0,0:0:0:0:
214,262,22873,6,0,P|166:287|95:245,2,132.8,0|0|0,1:2|1:2|1:2,0:0:0:0:
160,202,23730,1,2,0:0:0:0:
23,271,23901,2,0,P|37:313|43:342,1,66.4,2|2,1:2|0:0,0:0:0:0:
97,91,24244,6,0,P|88:158|83:246,1,132.8,2|2,1:2|1:2,0:0:0:0:
26,29,24759,1,2,0:0:0:0:
106,99,24930,2,0,P|151:101|180:72,1,66.4,0|2,1:2|0:0,0:0:0:0:
191,13,25273,2,0,P|146:11|117:40,1,66.4,0|2,1:2|0:0,0:0:0:0:
237,129,25616,6,0,B|281:142|312:112|300:108|328:85|373:100,1,132.8,2|2,1:2|1:2,0:0:0:0:
418,150,26130,1,2,0:0:0:0:
479,18,26301,2,0,P|472:64|468:100,1,66.4,2|0,1:2|0:0,0:0:0:0:
467,214,26644,1,2,1:2:0:0:
418,150,26816,1,2,0:0:0:0:
485,234,26987,6,0,P|433:230|334:229,1,132.8,2|2,1:2|1:2,0:0:0:0:
279,261,27501,1,2,0:0:0:0:
210,301,27673,2,0,P|146:304|135:235,1,132.8,0|0,1:2|1:2,0:0:0:0:
147,167,28187,1,2,0:0:0:0:
54,133,28359,6,0,P|67:176|72:211,1,66.4,2|2,1:2|0:0,0:0:0:0:
164,104,28701,2,0,P|153:135|147:168,1,66.4,2|2,1:2|0:0,0:0:0:0:
113,43,29044,1,0,1:2:0:0:
164,104,29216,1,2,0:0:0:0:
244,63,29387,2,0,P|215:30|182:32,1,66.4,0|2,1:2|0:0,0:0:0:0:
242,150,29730,6,0,B|287:164|312:142|308:138|335:110|381:128,1,132.8,2|2,1:2|1:2,0:0:0:0:
435,165,30244,1,2,0:0:0:0:
386,254,30416,2,0,P|359:222|365:192,1,66.4,0|2,1:2|0:0,0:0:0:0:
499,255,30759,1,0,1:2:0:0:
406,366,30930,1,10,0:0:0:0:
253,274,31101,5,2,0:0:0:0:
198,333,31273,2,0,P|248:328|358:326,2,132.8,2|2|2,0:0|0:0|1:2,0:0:0:0:
49,284,32130,6,0,P|79:312|129:305,1,83,8|0,0:0|1:2,0:0:0:0:
177,167,32473,6,0,B|128:151|101:183|109:180|80:213|22:195,1,149.399995440674,4|10,1:2|0:0,0:0:0:0:
101,89,32987,1,0,0:0:0:0:
186,175,33159,2,0,P|253:180|281:134,1,112.049996580505,2|0,1:2|0:0,0:0:0:0:
281,127,33501,1,8,0:0:0:0:
346,188,33673,1,2,0:0:0:0:
281,127,33844,6,0,B|264:93|264:93|282:55,1,74.699997720337,0|2,1:2|0:0,0:0:0:0:
401,12,34187,2,0,P|397:88|395:146,1,112.049996580505,8|0,0:0|0:0,0:0:0:0:
398,135,34530,2,0,P|442:111|475:105,1,74.699997720337,0|2,1:2|0:0,0:0:0:0:
491,239,34873,2,0,P|448:217|409:214,1,74.699997720337,10|2,0:0|0:0,0:0:0:0:
347,367,35216,6,0,P|385:340|337:262,1,149.399995440674,2|10,1:2|0:0,0:0:0:0:
272,211,35730,1,2,0:0:0:0:
204,306,35901,2,0,P|250:312|275:287,1,74.699997720337,0|2,1:2|0:0,0:0:0:0:
188,225,36244,2,0,P|142:219|117:244,1,74.699997720337,8|2,0:0|0:0,0:0:0:0:
57,370,36587,5,0,1:2:0:0:
126,312,36759,1,0,0:0:0:0:
21,213,36930,2,0,P|36:261|44:299,1,74.699997720337,8|0,0:0|0:0,0:0:0:0:
133,139,37273,2,0,P|118:187|110:225,1,74.699997720337,0|0,1:2|0:0,0:0:0:0:
0,116,37616,2,0,B|32:88|32:88|76:99,1,74.699997720337,10|2,0:0|0:0,0:0:0:0:
217,169,37959,6,0,P|272:173|282:84,1,149.399995440674,2|10,1:2|0:0,0:0:0:0:
226,32,38473,1,2,0:0:0:0:
217,189,38644,2,0,B|261:209|294:174|286:175|315:149|357:165,1,149.399995440674,0|8,1:2|0:0,0:0:0:0:
423,225,39159,1,2,0:0:0:0:
488,164,39330,5,2,1:2:0:0:
423,225,39501,1,2,0:0:0:0:
503,307,39673,2,0,B|520:270|520:270|500:236,1,74.699997720337,10|2,0:0|0:0,0:0:0:0:
381,335,40016,1,8,1:2:0:0:
400,343,40101,1,8,0:0:0:0:
421,351,40187,1,8,0:3:0:0:
308,263,40359,2,0,P|259:271|245:293,1,74.699997720337,8|2,0:0|1:2,0:0:0:0:
141,374,40701,6,0,P|158:331|91:308,1,112.049996580505,6|0,1:2|0:0,0:0:0:0:
89,300,41044,1,10,0:0:0:0:
161,227,41216,1,2,1:2:0:0:
51,150,41387,2,0,P|70:199|79:234,1,74.699997720337,2|2,0:0|1:2,0:0:0:0:
206,106,41730,1,10,0:0:0:0:
146,3,41901,6,0,P|133:53|122:129,1,112.049996580505,2|0,1:2|0:0,0:0:0:0:
121,127,42244,1,8,0:0:0:0:
54,32,42416,1,8,0:0:0:0:
206,106,42587,5,2,1:2:0:0:
221,93,42673,1,2,1:2:0:0:
235,80,42759,1,10,0:0:0:0:
286,209,42930,5,2,1:2:0:0:
268,203,43016,1,2,1:2:0:0:
248,196,43101,1,10,0:0:0:0:
340,126,43273,5,2,1:2:0:0:
420,236,43444,6,0,P|465:249|505:171,1,132.8,6|2,1:2|0:0,0:0:0:0:
487,110,43959,1,2,1:2:0:0:
411,231,44130,2,0,B|375:249|344:224|350:220|320:197|265:213,1,132.8,0|8,1:2|0:0,0:0:0:0:
102,339,44816,6,0,B|140:326|130:264|88:251|88:251|72:274,1,132.8,0|2,1:2|0:0,0:0:0:0:
10,308,45330,1,0,1:2:0:0:
78,266,45501,2,0,L|171:260,1,66.4,0|0,1:2|0:0,0:0:0:0:
207,310,45844,1,10,0:0:0:0:
254,245,46016,1,2,0:0:0:0:
207,310,46187,6,0,L|367:304,1,132.8,2|2,1:2|0:0,0:0:0:0:
404,257,46701,1,2,1:2:0:0:
347,200,46873,2,0,B|311:182|280:207|286:211|256:234|201:218,1,132.8,0|10,1:2|0:0,0:0:0:0:
163,166,47387,1,2,0:0:0:0:
179,87,47559,6,0,P|227:35|293:68,1,132.8,2|0,1:2|0:0,0:0:0:0:
374,116,48073,1,2,1:2:0:0:
358,112,48159,1,2,1:2:0:0:
344,109,48244,1,2,1:2:0:0:
412,33,48416,1,8,0:0:0:0:
474,192,48587,6,0,P|478:144|488:92,1,99.5999969604493,8|2,0:0|1:2,0:0:0:0:
495,289,48930,6,0,P|464:228|375:253,1,166,6|2,1:2|1:2,0:0:0:0:
326,329,49444,1,2,0:0:0:0:
231,254,49616,2,0,P|275:221|310:226,1,83,0|2,1:2|0:0,0:0:0:0:
222,362,49959,2,0,P|181:359|152:330,1,83,8|2,0:0|0:0,0:0:0:0:
0,293,50301,6,0,B|51:311|92:275|77:269|115:234|171:256,1,166,0|2,1:2|1:2,0:0:0:0:
8,128,50816,1,2,0:0:0:0:
13,153,50901,1,2,0:0:0:0:
18,177,50987,1,0,1:2:0:0:
78,38,51159,1,8,0:0:0:0:
183,146,51330,2,0,P|125:135|88:133,1,83,10|2,0:0|0:0,0:0:0:0:
245,66,51673,6,0,P|288:35|335:48,1,83,2|2,1:2|0:0,0:0:0:0:
338,173,52016,2,0,P|295:142|248:155,1,83,10|2,0:0|0:0,0:0:0:0:
407,112,52359,2,0,P|455:97|478:64,1,83,0|0,1:2|0:0,0:0:0:0:
487,237,52701,2,0,P|441:207|397:209,1,83,10|2,0:0|0:0,0:0:0:0:
312,370,53044,5,10,0:0:0:0:
420,284,53216,1,10,0:0:0:0:
420,284,53559,1,2,0:0:0:0:
420,284,53901,6,0,P|377:273|365:270,1,33.2,8|8,0:0|0:0,0:0:0:0:
252,197,54073,1,8,0:0:0:0:
159,333,54244,1,12,3:3:0:0:
146,351,54330,1,8,1:3:0:0:
132,370,54416,6,0,L|299:370,1,149.399995440674,6|0,1:2|0:0,0:0:0:0:
312,370,54759,1,10,0:0:0:0:
226,286,54930,1,2,0:0:0:0:
345,198,55101,2,0,P|311:239|321:295,1,99.5999969604493,2|2,1:2|0:0,0:0:0:0:
425,160,55444,1,10,0:0:0:0:
320,101,55616,1,2,0:0:0:0:
425,160,55787,6,0,P|490:154|480:70,1,149.399995440674,2|0,1:2|0:0,0:0:0:0:
478,63,56130,1,10,0:0:0:0:
425,160,56301,1,2,0:0:0:0:
233,0,56473,2,0,P|238:105|238:172,1,149.399995440674,2|0,1:2|0:0,0:0:0:0:
237,169,56816,2,0,P|280:131|330:134,1,99.5999969604493,8|2,0:0|0:0,0:0:0:0:
261,285,57159,6,0,P|181:274|85:273,1,149.399995440674,2|0,1:2|0:0,0:0:0:0:
93,274,57501,2,0,P|102:220|87:166,1,99.5999969604493,10|0,0:0|0:0,0:0:0:0:
6,79,57844,2,0,P|28:141|114:134,1,149.399995440674,2|0,1:2|0:0,0:0:0:0:
123,133,58187,1,10,0:0:0:0:
85,18,58359,1,2,0:0:0:0:
123,133,58530,6,0,P|179:129|228:129,1,99.5999969604493,2|2,1:2|0:0,0:0:0:0:
320,33,58873,2,0,P|264:37|215:37,1,99.5999969604493,10|0,0:0|0:0,0:0:0:0:
279,197,59216,2,0,P|335:193|444:192,1,149.399995440674,2|0,1:2|0:0,0:0:0:0:
457,201,59559,2,0,P|476:144|454:106,1,99.5999969604493,8|2,0:0|0:0,0:0:0:0:
497,361,59901,6,0,P|482:306|360:334,1,199.199993920899,2|10,1:2|0:0,0:0:0:0:
279,197,60416,1,2,0:0:0:0:
172,267,60587,2,0,P|229:286|278:201,1,149.399995440674,0|0,1:2|0:0,0:0:0:0:
279,197,60930,1,10,0:0:0:0:
252,366,61101,1,2,0:0:0:0:
81,283,61273,6,0,P|130:247|176:260,1,99.5999969604493,2|2,1:2|0:0,0:0:0:0:
287,182,61616,2,0,P|239:185|203:152,1,99.5999969604493,8|2,0:0|0:0,0:0:0:0:
81,13,61959,2,0,P|88:98|87:183,1,149.399995440674,0|0,1:2|0:0,0:0:0:0:
86,179,62301,1,10,0:0:0:0:
167,78,62473,1,2,0:0:0:0:
86,179,62644,6,0,B|148:149|192:193|182:195|237:231|290:196,1,199.199993920899,2|10,1:2|0:0,0:0:0:0:
357,115,63159,1,2,0:0:0:0:
496,246,63330,2,0,P|464:195|371:224,1,149.399995440674,0|0,1:2|0:0,0:0:0:0:
370,222,63673,1,10,0:0:0:0:
468,109,63844,1,10,0:0:0:0:
490,333,64016,6,0,P|435:310|382:306,1,99.5999969604493,2|10,1:2|0:0,0:0:0:0:
263,258,64359,2,0,P|312:251|357:230,1,99.5999969604493,0|10,1:2|0:0,0:0:0:0:
175,188,64701,1,0,1:2:0:0:
292,372,64873,5,8,0:0:0:0:
297,352,64959,1,8,0:0:0:0:
304,332,65044,1,0,1:2:0:0:
87,206,65216,6,0,P|103:243|108:261,1,49.7999984802247,8|8,3:3|3:3,0:0:0:0:
22,306,65387,6,0,P|93:301|184:300,1,149.399995440674,6|0,1:2|0:0,0:0:0:0:
193,298,65730,1,8,0:0:0:0:
35,118,65901,2,0,P|63:187|190:170,1,199.199993920899,2|0,0:0|0:0,0:0:0:0:
137,17,66416,2,0,P|117:66|137:116,1,99.5999969604493,10|2,0:0|0:0,0:0:0:0:
299,107,66759,6,0,P|255:73|207:84,1,99.5999969604493,2|2,1:2|0:0,0:0:0:0:
269,192,67101,1,8,0:0:0:0:
382,94,67273,1,2,0:0:0:0:
269,192,67444,2,0,P|256:247|278:292,1,99.5999969604493,0|0,1:2|0:0,0:0:0:0:
439,190,67787,2,0,B|396:175|345:198|343:243|343:243|363:228|386:227,1,149.399995440674,10|0,0:0|0:0,0:0:0:0:
374,226,68130,6,0,P|327:184|280:191,1,99.5999969604493,2|0,1:2|0:0,0:0:0:0:
355,344,68473,2,0,P|403:339|435:303,1,99.5999969604493,10|0,0:0|0:0,0:0:0:0:
446,282,68730,1,0,0:0:0:0:
446,282,68816,2,0,L|446:382,1,99.5999969604493,2|0,1:2|0:0,0:0:0:0:
272,285,69159,2,0,P|250:239|275:191,1,99.5999969604493,10|0,0:0|0:0,0:0:0:0:
359,120,69501,6,0,B|324:137|286:104|290:103|259:74|218:92,1,149.399995440674,2|0,1:2|0:0,0:0:0:0:
205,101,69844,2,0,P|217:43|174:6,1,99.5999969604493,8|0,0:0|0:0,0:0:0:0:
103,94,70187,1,2,1:2:0:0:
187,185,70359,1,2,0:0:0:0:
103,94,70530,2,0,P|45:95|21:130,1,99.5999969604493,10|2,0:0|0:0,0:0:0:0:
0,267,70873,6,0,P|74:262|181:267,1,149.399995440674,0|0,1:2|0:0,0:0:0:0:
170,275,71216,2,0,P|197:222|175:171,1,99.5999969604493,8|0,0:0|0:0,0:0:0:0:
254,362,71559,1,2,1:2:0:0:
337,277,71730,1,2,0:0:0:0:
254,362,71901,1,10,0:0:0:0:
315,190,72073,1,2,0:0:0:0:
512,363,72244,6,0,P|428:359|331:359,1,149.399995440674,0|0,1:2|0:0,0:0:0:0:
342,360,72587,1,10,0:0:0:0:
315,190,72759,1,2,0:0:0:0:
324,170,72844,1,2,0:0:0:0:
334,154,72930,2,0,P|391:156|419:197,1,99.5999969604493,0|2,1:2|0:0,0:0:0:0:
244,252,73273,2,0,P|187:250|159:209,1,99.5999969604493,10|2,0:0|0:0,0:0:0:0:
78,19,73616,6,0,P|85:90|88:189,1,149.399995440674,2|0,1:2|0:0,0:0:0:0:
87,188,73959,5,8,1:2:0:0:
177,110,74130,1,8,0:0:0:0:
25,246,74301,5,8,1:2:0:0:
252,177,74473,1,8,0:0:0:0:
0,104,74644,5,8,1:2:0:0:
121,370,74816,1,4,1:2:0:0:
121,370,75501,5,0,1:2:0:0:
289,308,75673,2,0,P|226:315|180:317,1,99.5999969604493,8|0,0:0|1:2,0:0:0:0:
271,183,76016,2,0,P|322:178|363:202,1,99.5999969604493,8|8,0:0|0:0,0:0:0:0:
374,218,76273,1,8,0:0:0:0:
390,239,76359,6,0,P|439:205|405:98,1,182.60000557251,2|10,1:2|0:0,0:0:0:0:
311,52,76873,1,2,0:0:0:0:
268,152,77044,2,0,P|214:157|183:127,1,91.300002786255,0|2,1:2|0:0,0:0:0:0:
142,34,77387,2,0,P|196:29|227:59,1,91.300002786255,10|2,0:0|0:0,0:0:0:0:
103,205,77730,6,0,B|54:186|38:126|70:88|70:88|91:117|119:127,1,182.60000557251,0|10,1:2|0:0,0:0:0:0:
191,236,78244,1,2,0:0:0:0:
74,329,78416,2,0,P|150:322|233:321,1,136.950004179382,2|0,1:2|0:0,0:0:0:0:
237,329,78759,2,0,P|278:299|275:255,1,91.300002786255,10|2,0:0|0:0,0:0:0:0:
198,135,79101,6,0,P|234:215|328:195,1,182.60000557251,0|10,1:2|0:0,0:0:0:0:
432,133,79616,1,2,0:0:0:0:
487,248,79787,2,0,P|440:214|391:220,1,91.300002786255,2|2,1:2|0:0,0:0:0:0:
281,130,80130,2,0,P|326:126|359:96,1,91.300002786255,10|0,0:0|0:0,0:0:0:0:
199,100,80473,5,2,1:2:0:0:
306,215,80644,1,2,0:0:0:0:
199,100,80816,2,0,P|158:72|115:84,1,91.300002786255,8|0,0:0|0:0,0:0:0:0:
306,215,81159,2,0,P|366:215|395:196,1,91.300002786255,2|2,1:2|0:0,0:0:0:0:
328,23,81501,2,0,P|293:-5|249:0,1,91.300002786255,10|8,0:0|0:0,0:0:0:0:
231,11,81759,1,8,0:0:0:0:
231,11,81844,6,0,P|225:92|223:210,1,182.60000557251,2|10,1:2|0:0,0:0:0:0:
264,295,82359,1,2,0:0:0:0:
88,279,82530,2,0,P|148:273|183:255,1,91.300002786255,0|2,1:2|0:0,0:0:0:0:
295,367,82873,2,0,P|253:350|207:348,1,91.300002786255,10|2,0:0|0:0,0:0:0:0:
191,340,83130,1,0,0:0:0:0:
191,340,83216,6,0,B|248:353|286:318|275:313|320:273|368:291,1,182.60000557251,0|10,1:2|0:0,0:0:0:0:
453,343,83730,1,2,0:0:0:0:
467,171,83901,2,0,P|450:241|446:276,1,91.300002786255,0|2,1:2|0:0,0:0:0:0:
349,116,84244,2,0,P|366:186|370:221,1,91.300002786255,10|2,0:0|0:0,0:0:0:0:
359,24,84587,6,0,B|302:11|264:46|275:51|230:91|182:73,1,182.60000557251,2|10,1:2|0:0,0:0:0:0:
94,23,85101,1,2,0:0:0:0:
167,153,85273,2,0,P|198:100|182:63,1,91.300002786255,2|2,1:2|0:0,0:0:0:0:
85,206,85616,2,0,L|86:308,1,91.300002786255,10|2,0:0|0:0,0:0:0:0:
167,153,85959,5,2,1:2:0:0:
68,106,86130,1,2,0:0:0:0:
169,253,86301,2,0,P|221:241|271:241,1,91.300002786255,8|2,0:0|0:0,0:0:0:0:
365,133,86644,2,0,P|313:145|263:145,1,91.300002786255,8|10,0:0|0:3,0:0:0:0:
354,329,86987,1,2,1:2:0:0:
440,192,87159,1,12,0:0:0:0:
256,192,87244,12,0,90073,0:0:0:0:
