osu file format v14

[General]
AudioFilename: audio.mp3
AudioLeadIn: 0
PreviewTime: 54330
Countdown: 0
SampleSet: Soft
StackLeniency: 0.3
Mode: 0
LetterboxInBreaks: 0
EpilepsyWarning: 1
WidescreenStoryboard: 1

[Editor]
DistanceSpacing: 1.3
BeatDivisor: 4
GridSize: 32
TimelineZoom: 3.399999

[Metadata]
Title:Egao no Kimi e (TV Size)
TitleUnicode:エガオノキミヘ (TV Size)
Artist:Mimori Suzuko
ArtistUnicode:三森すずこ
Creator:Xahlt
Version:Hard
Source:結城友奈は勇者である -鷲尾須美の章-
Tags:[_lost_] conner c_o_n_n_e_r sarawatlism Yuki Yuuki Yuna Yuuna wa Yuusha de Aru is a Hero Washio Sumi no Shou YuYuYu Female Vocal Japanese Jpop J-pop Pop 中村彼方 蔦屋好位置 野間康介 Nakamura kanata Tsutaya Koichi Noma Kosuke kousuke Anime Opening
BeatmapID:2775062
BeatmapSetID:1337828

[Difficulty]
HPDrainRate:4.5
CircleSize:3.8
OverallDifficulty:6
ApproachRate:8
SliderMultiplier:1.4
SliderTickRate:1

[Events]
//Background and Video events
0,0,"background.png",0,0
Video,880,"Video.mp4"
//Break Periods
//Storyboard Layer 0 (Background)
//Storyboard Layer 1 (Fail)
//Storyboard Layer 2 (Pass)
//Storyboard Layer 3 (Foreground)
//Storyboard Layer 4 (Overlay)
//Storyboard Sound Samples

[TimingPoints]
-441,342.857142857143,4,2,1,40,1,0
930,-166.666666666667,4,2,1,40,0,0
13273,-111.111111111111,4,2,2,50,0,0
21501,-111.111111111111,4,2,2,60,0,0
32473,-99.9999999999999,4,2,2,65,0,0
43444,-99.9999999999999,4,2,2,60,0,0
48930,-99.9999999999999,4,2,2,70,0,0
53044,-99.9999999999999,4,2,2,75,0,0
54416,-90.9090909090909,4,2,1,80,0,1
65044,-90.9090909090909,4,2,1,80,0,0
65387,-90.9090909090909,4,2,1,80,0,1
76359,-99.9999999999999,4,2,1,70,0,0
90073,-99.9999999999999,4,2,1,20,0,0

[Colours]
Combo1 : 173,188,188
Combo2 : 255,221,164

[HitObjects]
22,146,930,6,0,B|113:114|92:191|186:152,1,167.999994873047,2|2,0:0|0:0,0:0:0:0:
369,41,2301,2,0,B|437:70|442:143|442:143|409:132,1,167.999994873047,2|2,0:0|0:0,0:0:0:0:
308,326,3673,6,0,L|290:239,2,83.9999974365235,2|2|2,0:0|0:0|0:0,0:0:0:0:
410,363,4701,2,0,L|417:308,1,41.9999987182618,2|2,0:0|0:0,0:0:0:0:
451,280,5044,2,0,L|462:177,1,83.9999974365235,2|2,0:0|0:0,0:0:0:0:
391,111,5730,1,2,0:0:0:0:
294,162,6073,1,2,0:0:0:0:
308,270,6416,6,0,B|232:287|232:287|225:292|225:292|143:310,1,167.999994873047,2|2,0:0|0:0,0:0:0:0:
23,128,7787,2,0,P|42:52|121:50,1,167.999994873047,2|2,0:0|0:0,0:0:0:0:
218,99,8816,2,0,L|277:83,1,41.9999987182618,2|2,0:0|0:0,0:0:0:0:
295,47,9159,2,0,P|327:22|368:24,1,83.9999974365235,2|2,0:0|0:0,0:0:0:0:
477,13,9844,2,0,P|482:53|459:88,1,83.9999974365235,2|2,0:0|0:0,0:0:0:0:
368,149,10530,1,2,0:0:0:0:
18,369,13273,6,0,B|15:302|80:323|73:233,1,125.999996154785,2|2,1:2|0:0,0:0:0:0:
43,183,13787,1,2,0:0:0:0:
43,183,13959,2,0,P|40:151|51:122,1,62.9999980773926,10|2,0:0|0:0,0:0:0:0:
121,80,14301,2,0,L|188:90,1,62.9999980773926,2|2,0:0|0:0,0:0:0:0:
269,162,14644,2,0,P|306:114|367:118,1,125.999996154785,2|2,1:2|0:0,0:0:0:0:
444,161,15159,1,2,0:0:0:0:
444,161,15330,2,0,L|434:225,1,62.9999980773926,10|2,0:0|0:0,0:0:0:0:
486,287,15673,2,0,L|476:351,1,62.9999980773926,2|2,0:0|0:0,0:0:0:0:
366,377,16016,6,0,B|302:360|329:320|251:302,1,125.999996154785,2|2,1:2|0:0,0:0:0:0:
203,359,16530,1,2,0:0:0:0:
203,359,16701,2,0,P|175:374|144:374,1,62.9999980773926,10|2,0:0|0:0,0:0:0:0:
128,293,17044,2,0,P|155:277|186:277,1,62.9999980773926,2|0,0:0|0:0,0:0:0:0:
287,224,17387,2,0,B|266:148|266:148|272:123|272:123|246:35,1,188.999994232178,2|0,1:2|0:0,0:0:0:0:
135,13,18073,2,0,B|118:5|96:3|96:3|39:67|92:136,1,188.999994232178,10|0,0:0|0:0,0:0:0:0:
176,213,18759,6,0,B|75:209|113:284|-7:283,2,188.999994232178,2|2|2,1:2|0:0|0:0,0:0:0:0:
304,314,20130,2,0,P|407:282|344:194,1,251.999992309571,2|0,0:0|0:0,0:0:0:0:
29,372,21501,5,0,1:2:0:0:
20,358,21844,2,0,L|39:217,1,125.999996154785,2|2,1:2|1:2,0:0:0:0:
101,182,22359,2,0,L|90:109,1,62.9999980773926,2|0,0:0|1:2,0:0:0:0:
50,49,22701,2,0,P|78:35|109:38,1,62.9999980773926,2|0,0:0|1:2,0:0:0:0:
173,89,23044,2,0,B|266:63|255:132|364:90,1,188.999994232178,2|0,0:0|1:2,0:0:0:0:
433,57,23730,1,2,0:0:0:0:
433,57,23901,1,2,1:2:0:0:
488,117,24073,1,2,0:0:0:0:
488,117,24244,6,0,P|506:174|467:221,1,125.999996154785,2|2,1:2|1:2,0:0:0:0:
385,213,24759,2,0,P|355:201|324:204,1,62.9999980773926,2|0,0:0|1:2,0:0:0:0:
253,244,25101,2,0,P|221:246|192:235,1,62.9999980773926,2|0,0:0|1:2,0:0:0:0:
120,196,25444,1,2,0:0:0:0:
46,233,25616,2,0,B|16:261|16:261|31:366,1,125.999996154785,2|2,1:2|1:2,0:0:0:0:
101,381,26130,1,2,0:0:0:0:
101,381,26301,2,0,L|174:366,1,62.9999980773926,2|0,1:2|0:0,0:0:0:0:
244,376,26644,2,0,L|317:361,1,62.9999980773926,2|2,1:2|0:0,0:0:0:0:
418,371,26987,6,0,P|381:323|390:263,1,125.999996154785,2|2,1:2|1:2,0:0:0:0:
437,195,27501,2,0,P|435:104|356:62,1,188.999994232178,2|0,0:0|1:2,0:0:0:0:
284,21,28187,1,2,0:0:0:0:
231,100,28359,2,0,B|237:127|237:127|242:137|242:137|251:185,1,62.9999980773926,2|2,1:2|0:0,0:0:0:0:
295,226,28701,1,2,1:2:0:0:
231,278,28873,2,0,P|260:330|320:329,2,125.999996154785,2|2|2,0:0|0:0|0:0,0:0:0:0:
144,202,29730,6,0,P|85:193|45:239,1,125.999996154785,2|2,1:2|1:2,0:0:0:0:
46,321,30244,2,0,L|112:335,1,62.9999980773926,2|0,0:0|1:2,0:0:0:0:
176,378,30587,2,0,L|249:364,1,62.9999980773926,2|0,0:0|1:2,0:0:0:0:
319,377,30930,1,10,0:0:0:0:
371,315,31101,1,2,0:0:0:0:
371,315,31273,2,0,L|348:176,2,125.999996154785,2|2|2,0:0|0:0|1:2,0:0:0:0:
452,322,32130,2,0,L|467:255,1,62.9999980773926,8|0,0:0|1:2,0:0:0:0:
461,134,32473,5,4,1:2:0:0:
458,149,32816,2,0,P|412:202|340:180,1,140,10|2,0:0|1:2,0:0:0:0:
285,121,33330,2,0,P|250:124|220:141,1,70,2|8,0:0|0:0,0:0:0:0:
186,226,33673,2,0,P|152:218|117:225,1,70,2|0,0:0|1:2,0:0:0:0:
44,170,34016,2,0,P|13:121|51:41,1,140,2|0,0:0|0:0,0:0:0:0:
122,10,34530,2,0,L|197:27,1,70,0|2,1:2|0:0,0:0:0:0:
256,88,34873,1,10,0:0:0:0:
256,88,35044,1,2,0:0:0:0:
285,1,35216,6,0,B|342:16|342:16|357:28|357:28|430:47,1,140,2|10,1:2|0:0,0:0:0:0:
508,45,35730,2,0,P|496:77|487:111,1,70,2|0,0:0|1:2,0:0:0:0:
399,137,36073,2,0,P|403:171|410:205,1,70,2|8,0:0|0:0,0:0:0:0:
467,277,36416,1,2,0:0:0:0:
406,345,36587,2,0,P|362:362|290:295,1,140,0|8,1:2|0:0,0:0:0:0:
290,299,37273,2,0,P|297:264|301:230,1,70,0|0,1:2|0:0,0:0:0:0:
256,157,37616,1,10,0:0:0:0:
256,157,37787,1,2,0:0:0:0:
149,224,37959,6,0,P|169:297|181:366,1,140,2|10,1:2|0:0,0:0:0:0:
93,384,38473,1,2,0:0:0:0:
11,343,38644,2,0,P|23:274|42:206,1,140,0|8,1:2|0:0,0:0:0:0:
2,124,39159,1,2,0:0:0:0:
43,43,39330,2,0,L|113:56,1,70,2|2,1:2|0:0,0:0:0:0:
194,16,39673,1,10,0:0:0:0:
194,16,39844,1,2,0:0:0:0:
238,95,40016,1,8,1:2:0:0:
248,98,40101,1,8,0:0:0:0:
259,102,40187,1,8,0:3:0:0:
313,28,40359,2,0,L|389:12,1,70,8|2,0:0|1:2,0:0:0:0:
507,10,40701,6,0,B|470:46|470:107|470:107|506:147,1,140,6|10,1:2|0:0,0:0:0:0:
497,223,41216,1,2,1:2:0:0:
438,292,41387,2,0,L|512:313,2,70,2|2|10,0:0|1:2|0:0,0:0:0:0:
377,223,41901,2,0,B|301:239|344:280|241:308,1,140,2|8,1:2|0:0,0:0:0:0:
187,350,42416,2,0,L|167:270,1,70,8|2,0:0|1:2,0:0:0:0:
228,211,42759,2,0,L|208:131,1,70,10|2,0:0|1:2,0:0:0:0:
182,56,43101,1,10,0:0:0:0:
176,38,43444,6,0,P|111:12|46:33,1,140,6|2,1:2|0:0,0:0:0:0:
0,110,43959,1,2,1:2:0:0:
0,110,44130,2,0,L|16:177,1,70,0|2,1:2|0:0,0:0:0:0:
45,264,44473,1,8,0:0:0:0:
52,278,44816,2,0,P|117:259|178:291,1,140,0|2,1:2|0:0,0:0:0:0:
244,353,45330,1,0,1:2:0:0:
244,353,45501,2,0,P|311:364|368:326,1,140,0|10,1:2|0:0,0:0:0:0:
421,250,46016,1,2,0:0:0:0:
347,196,46187,6,0,B|324:164|324:164|361:55,1,140,2|2,1:2|0:0,0:0:0:0:
427,12,46701,1,2,1:2:0:0:
427,12,46873,2,0,L|447:80,1,70,0|2,1:2|0:0,0:0:0:0:
504,149,47216,1,10,0:0:0:0:
509,165,47559,2,0,P|442:191|431:270,1,140,2|0,1:2|0:0,0:0:0:0:
491,324,48073,1,2,1:2:0:0:
491,324,48244,2,0,L|413:349,1,70,2|8,1:2|0:0,0:0:0:0:
338,377,48587,2,0,L|263:365,1,70,8|2,0:0|1:2,0:0:0:0:
175,281,48930,6,0,P|232:245|230:178,1,140,6|2,1:2|1:2,0:0:0:0:
255,91,49444,2,0,P|219:87|178:105,1,70,2|0,0:0|1:2,0:0:0:0:
121,35,49787,2,0,P|99:64|94:108,1,70,2|8,0:0|0:0,0:0:0:0:
96,220,50130,2,0,B|156:203|156:203|166:197|166:197|256:170,1,140,2|2,0:0|0:0,0:0:0:0:
255,91,50644,2,0,L|325:74,1,70,2|2,1:2|0:0,0:0:0:0:
394,17,50987,1,0,1:2:0:0:
394,17,51159,1,8,0:0:0:0:
469,67,51330,1,10,0:0:0:0:
478,79,51673,6,0,L|491:153,1,70,2|2,1:2|0:0,0:0:0:0:
435,221,52016,1,10,0:0:0:0:
499,285,52187,2,0,L|359:327,1,140,2|0,0:0|0:0,0:0:0:0:
291,379,52701,2,0,P|268:353|234:345,1,70,10|2,0:0|0:0,0:0:0:0:
116,380,53044,1,10,0:0:0:0:
116,380,53216,1,10,0:0:0:0:
16,227,53559,1,2,0:0:0:0:
108,70,53901,1,8,0:0:0:0:
116,76,53987,1,8,0:0:0:0:
124,81,54073,2,0,L|178:68,3,35,8|8|12|8,0:0|0:0|3:3|1:3,0:0:0:0:
192,35,54416,6,0,P|262:14|317:62,1,154.000004699707,6|10,1:2|0:0,0:0:0:0:
392,130,54930,1,2,0:0:0:0:
317,196,55101,2,0,P|284:176|246:178,1,77.0000023498536,2|2,1:2|0:0,0:0:0:0:
223,276,55444,2,0,P|255:295|293:293,1,77.0000023498536,10|2,0:0|0:0,0:0:0:0:
403,375,55787,2,0,B|406:308|469:326|463:232,1,154.000004699707,2|10,1:2|0:0,0:0:0:0:
512,152,56301,1,2,0:0:0:0:
452,70,56473,2,0,P|386:34|317:62,1,154.000004699707,2|8,1:2|0:0,0:0:0:0:
227,17,56987,1,2,0:0:0:0:
163,94,57159,6,0,P|156:131|171:166,1,77.0000023498536,2|0,1:2|0:0,0:0:0:0:
260,211,57501,2,0,P|274:245|268:283,1,77.0000023498536,10|0,0:0|0:0,0:0:0:0:
225,373,57844,2,0,B|150:370|150:370|140:366|140:366|60:361,1,154.000004699707,2|10,1:2|0:0,0:0:0:0:
3,288,58359,1,2,0:0:0:0:
88,235,58530,2,0,L|73:151,1,77.0000023498536,2|2,1:2|0:0,0:0:0:0:
122,70,58873,2,0,P|49:74|11:-11,2,154.000004699707,10|2|8,0:0|1:2|0:0,0:0:0:0:
209,20,59730,1,2,0:0:0:0:
260,148,59901,6,0,B|336:143|319:189|415:176,1,154.000004699707,2|10,1:2|0:0,0:0:0:0:
477,249,60416,2,0,P|486:319|419:340,1,154.000004699707,2|0,0:0|0:0,0:0:0:0:
328,299,60930,2,0,P|290:295|255:311,1,77.0000023498536,10|2,0:0|0:0,0:0:0:0:
179,377,61273,1,2,1:2:0:0:
92,327,61444,2,0,P|72:294|76:257,1,77.0000023498536,2|8,0:0|0:0,0:0:0:0:
135,175,61787,1,2,0:0:0:0:
223,223,61959,2,0,B|287:239|287:239|294:247|294:247|392:271,1,154.000004699707,0|10,1:2|0:0,0:0:0:0:
457,217,62473,1,2,0:0:0:0:
470,79,62644,6,0,P|411:37|351:78,1,154.000004699707,2|10,1:2|0:0,0:0:0:0:
295,161,63159,2,0,P|278:108|240:9,1,154.000004699707,2|2,0:0|0:0,0:0:0:0:
143,2,63673,1,10,0:0:0:0:
143,2,63844,1,10,0:0:0:0:
102,93,64016,1,2,1:2:0:0:
179,156,64187,2,0,P|174:194|167:232,1,77.0000023498536,10|0,0:0|1:2,0:0:0:0:
241,299,64530,2,0,P|206:315|170:330,1,77.0000023498536,10|0,0:0|1:2,0:0:0:0:
83,379,64873,5,8,0:0:0:0:
79,368,64959,1,8,0:0:0:0:
75,357,65044,1,0,1:2:0:0:
29,269,65216,1,8,3:3:0:0:
33,258,65302,1,8,3:3:0:0:
37,247,65387,6,0,P|99:205|175:243,1,154.000004699707,6|8,1:2|0:0,0:0:0:0:
241,299,65901,2,0,B|306:314|306:314|317:325|317:325|397:342,1,154.000004699707,2|0,0:0|0:0,0:0:0:0:
469,281,66416,2,0,P|487:248|477:212,1,77.0000023498536,10|2,0:0|0:0,0:0:0:0:
417,131,66759,1,2,1:2:0:0:
330,180,66930,2,0,L|232:158,1,77.0000023498536,2|8,0:0|0:0,0:0:0:0:
158,136,67273,2,0,P|128:70|181:22,1,154.000004699707,2|0,0:0|0:0,0:0:0:0:
281,32,67787,2,0,L|356:48,1,77.0000023498536,10|0,0:0|0:0,0:0:0:0:
494,23,68130,6,0,P|509:58|502:96,1,77.0000023498536,2|0,1:2|0:0,0:0:0:0:
429,164,68473,2,0,P|421:201|436:236,1,77.0000023498536,10|0,0:0|0:0,0:0:0:0:
477,369,68816,2,0,P|443:355|397:365,1,77.0000023498536,2|0,1:2|0:0,0:0:0:0:
351,275,69159,2,0,P|321:297|307:342,1,77.0000023498536,10|0,0:0|0:0,0:0:0:0:
214,369,69501,2,0,P|140:362|105:296,1,154.000004699707,2|8,1:2|0:0,0:0:0:0:
37,222,70016,1,0,0:0:0:0:
94,140,70187,2,0,L|172:154,1,77.0000023498536,2|2,1:2|0:0,0:0:0:0:
252,210,70530,2,0,L|330:189,1,77.0000023498536,10|2,0:0|0:0,0:0:0:0:
442,267,70873,6,0,B|429:186|513:201|487:98,1,154.000004699707,0|8,1:2|0:0,0:0:0:0:
433,45,71387,1,0,0:0:0:0:
354,107,71559,2,0,P|315:103|282:85,1,77.0000023498536,2|2,1:2|0:0,0:0:0:0:
213,12,71901,2,0,P|179:31|141:37,1,77.0000023498536,10|2,0:0|0:0,0:0:0:0:
4,15,72244,2,0,B|14:80|14:80|5:105|5:105|14:181,1,154.000004699707,0|10,1:2|0:0,0:0:0:0:
12,267,72759,2,0,P|79:232|140:285,1,154.000004699707,2|2,0:0|0:0,0:0:0:0:
222,324,73273,2,0,P|232:287|234:248,1,77.0000023498536,10|2,0:0|0:0,0:0:0:0:
315,361,73616,6,0,P|386:374|431:316,1,154.000004699707,2|8,1:2|1:2,0:0:0:0:
501,244,74130,1,8,0:0:0:0:
428,174,74301,2,0,P|390:172|354:159,1,77.0000023498536,8|8,1:2|0:0,0:0:0:0:
279,92,74644,1,8,1:2:0:0:
372,24,74816,1,4,1:2:0:0:
361,34,75501,5,0,1:2:0:0:
279,92,75673,2,0,L|181:83,1,77.0000023498536,8|0,0:0|1:2,0:0:0:0:
124,21,76016,1,8,0:0:0:0:
43,79,76187,1,8,0:0:0:0:
46,90,76273,1,8,0:0:0:0:
49,99,76359,6,0,B|75:182|4:164|28:243,1,140,2|10,1:2|0:0,0:0:0:0:
1,318,76873,1,2,0:0:0:0:
75,367,77044,2,0,P|110:371|141:356,1,70,0|2,1:2|0:0,0:0:0:0:
203,289,77387,2,0,P|234:274|268:277,1,70,10|2,0:0|0:0,0:0:0:0:
368,354,77730,2,0,P|419:316|389:259,1,140,0|10,1:2|0:0,0:0:0:0:
414,171,78244,1,2,0:0:0:0:
329,137,78416,2,0,L|236:156,1,70,2|2,1:2|0:0,0:0:0:0:
175,117,78759,2,0,P|158:90|168:43,1,70,10|2,0:0|0:0,0:0:0:0:
276,1,79101,6,0,B|333:8|333:8|352:19|352:19|420:27,1,140,0|10,1:2|0:0,0:0:0:0:
481,85,79616,1,2,0:0:0:0:
423,155,79787,2,0,L|435:227,1,70,2|2,1:2|0:0,0:0:0:0:
501,286,80130,1,10,0:0:0:0:
503,300,80473,2,0,P|470:360|403:370,1,140,2|8,1:2|0:0,0:0:0:0:
332,313,80987,1,0,0:0:0:0:
250,354,81159,2,0,B|242:297|242:297|247:275|247:275|237:208,1,140,2|10,1:2|0:0,0:0:0:0:
290,140,81673,1,8,0:0:0:0:
201,50,81844,6,0,P|137:27|85:69,1,140,2|10,1:2|0:0,0:0:0:0:
15,129,82359,1,2,0:0:0:0:
77,192,82530,2,0,P|93:223|94:258,1,70,0|2,1:2|0:0,0:0:0:0:
69,345,82873,2,0,L|158:336,1,70,10|2,0:0|0:0,0:0:0:0:
260,373,83216,2,0,B|310:362|310:362|333:344|333:344|415:330,1,140,0|10,1:2|0:0,0:0:0:0:
451,265,83730,1,2,0:0:0:0:
389,198,83901,2,0,P|358:181|323:182,1,70,0|2,1:2|0:0,0:0:0:0:
243,224,84244,2,0,P|208:224|177:208,1,70,10|2,0:0|0:0,0:0:0:0:
99,106,84587,6,0,P|130:47|197:40,1,140,2|10,1:2|0:0,0:0:0:0:
279,1,85101,1,2,0:0:0:0:
338,70,85273,2,0,P|370:82|405:81,1,70,2|2,1:2|0:0,0:0:0:0:
489,45,85616,1,10,0:0:0:0:
496,39,85959,1,2,1:2:0:0:
507,129,86130,2,0,B|501:188|501:188|490:210|490:210|482:280,1,140,2|2,0:0|0:0,0:0:0:0:
416,326,86644,2,0,L|390:243,1,70,8|10,0:0|0:3,0:0:0:0:
311,222,86987,1,2,1:2:0:0:
265,301,87159,1,12,0:0:0:0:
256,192,87330,12,0,90073,0:0:0:0:
