osu file format v14

[General]
AudioFilename: audio.mp3
AudioLeadIn: 0
PreviewTime: 54330
Countdown: 0
SampleSet: Soft
StackLeniency: 0.3
Mode: 0
LetterboxInBreaks: 0
EpilepsyWarning: 1
WidescreenStoryboard: 1

[Editor]
DistanceSpacing: 1
BeatDivisor: 4
GridSize: 32
TimelineZoom: 6.299996

[Metadata]
Title:Egao no Kimi e (TV Size)
TitleUnicode:エガオノキミヘ (TV Size)
Artist:Mimori Suzuko
ArtistUnicode:三森すずこ
Creator:Xahlt
Version:Eternal Promise
Source:結城友奈は勇者である -鷲尾須美の章-
Tags:[_lost_] conner c_o_n_n_e_r sarawatlism Yuki Yuuki Yuna Yuuna wa Yuusha de Aru is a Hero Washio Sumi no Shou YuYuYu Female Vocal Japanese Jpop J-pop Pop 中村彼方 蔦屋好位置 野間康介 Nakamura kanata Tsutaya Koichi Noma Kosuke kousuke Anime Opening
BeatmapID:2771296
BeatmapSetID:1337828

[Difficulty]
HPDrainRate:5.5
CircleSize:4.2
OverallDifficulty:8.2
ApproachRate:9
SliderMultiplier:1.7
SliderTickRate:1

[Events]
//Background and Video events
0,0,"background.png",0,0
Video,880,"Video.mp4"
//Break Periods
//Storyboard Layer 0 (Background)
//Storyboard Layer 1 (Fail)
//Storyboard Layer 2 (Pass)
//Storyboard Layer 3 (Foreground)
//Storyboard Layer 4 (Overlay)
//Storyboard Sound Samples

[TimingPoints]
-441,342.857142857143,4,2,1,40,1,0
930,-166.666666666667,4,2,1,40,0,0
5644,-166.666666666667,4,2,1,5,0,0
5730,-166.666666666667,4,2,1,40,0,0
9330,-166.666666666667,4,2,1,5,0,0
9501,-166.666666666667,4,2,1,40,0,0
9673,-166.666666666667,4,2,1,5,0,0
9844,-166.666666666667,4,2,1,40,0,0
10101,-166.666666666667,4,2,1,5,0,0
10187,-166.666666666667,4,2,1,40,0,0
13273,-125,4,2,2,50,0,0
18759,-100,4,2,2,50,0,0
20130,-250,4,2,2,50,0,0
21416,-250,4,2,2,5,0,0
21501,-125,4,2,2,60,0,0
32473,-111.111111111111,4,2,2,65,0,0
43444,-125,4,2,2,60,0,0
48930,-125,4,2,2,70,0,0
53044,-125,4,2,2,75,0,0
54416,-90.9090909090909,4,2,1,80,0,1
57416,-90.9090909090909,4,2,1,5,0,1
57501,-90.9090909090909,4,2,1,80,0,1
57759,-90.9090909090909,4,2,1,5,0,1
57844,-90.9090909090909,4,2,1,80,0,1
58101,-90.9090909090909,4,2,1,5,0,1
58187,-90.9090909090909,4,2,1,80,0,1
59130,-90.9090909090909,4,2,1,5,0,1
59216,-90.9090909090909,4,2,1,80,0,1
59473,-90.9090909090909,4,2,1,5,0,1
59559,-90.9090909090909,4,2,1,80,0,1
65044,-90.9090909090909,4,2,1,80,0,0
65387,-90.9090909090909,4,2,1,80,0,1
68387,-90.9090909090909,4,2,1,5,0,1
68473,-90.9090909090909,4,2,1,80,0,1
68730,-90.9090909090909,4,2,1,5,0,1
68816,-90.9090909090909,4,2,1,80,0,1
69073,-90.9090909090909,4,2,1,5,0,1
69159,-90.9090909090909,4,2,1,80,0,1
69416,-90.9090909090909,4,2,1,5,0,1
69501,-90.9090909090909,4,2,1,80,0,1
73873,-90.9090909090909,4,2,1,5,0,1
73959,-90.9090909090909,4,2,1,80,0,1
76359,-100,4,2,1,70,0,0
90073,-100,4,2,1,20,0,0

[Colours]
Combo1 : 173,188,188
Combo2 : 255,221,164

[HitObjects]
39,49,930,6,0,B|51:148|151:98|148:212,1,203.999993774414,2|2,0:0|0:0,0:0:0:0:
200,306,2301,2,0,B|151:318|126:372|126:372|119:311|64:279,1,203.999993774414,2|2,0:0|0:0,0:0:0:0:
289,203,3673,6,0,L|269:94,2,101.999996887207,2|2|2,0:0|0:0|0:0,0:0:0:0:
283,90,4701,1,2,0:0:0:0:
365,145,4873,1,2,0:0:0:0:
371,136,4959,1,2,0:0:0:0:
376,127,5044,6,0,L|383:76,1,50.9999984436036,2|2,0:0|0:0,0:0:0:0:
499,158,5387,2,0,L|487:250,1,76.4999976654054,2|0,0:0|0:0,0:0:0:0:
478,242,5730,1,2,0:0:0:0:
467,251,6073,1,2,0:0:0:0:
263,353,6416,6,0,B|308:371|365:342|378:285|378:285|376:323|391:355,1,203.999993774414,2|2,0:0|0:0,0:0:0:0:
265,223,7787,2,0,B|189:157|148:261|74:180,1,203.999993774414,2|2,0:0|0:0,0:0:0:0:
292,20,9159,6,0,P|286:45|282:71,1,50.9999984436036,2|0,0:0|0:0,0:0:0:0:
196,120,9501,2,0,P|191:94|187:69,1,50.9999984436036,2|0,0:0|0:0,0:0:0:0:
106,15,9844,2,0,P|95:52|87:90,1,76.4999976654053,2|0,0:0|0:0,0:0:0:0:
95,101,10187,1,2,0:0:0:0:
95,6,10530,5,2,0:0:0:0:
88,1,11696,2,0,L|54:5,3,20.3999993774414,2|2|2|2,0:0|0:0|0:0|0:0,0:0:0:0:
54,162,13273,6,0,B|114:125|68:90|158:48,1,136,2|2,1:2|0:0,0:0:0:0:
241,107,13787,1,2,0:0:0:0:
153,68,13959,2,0,P|160:23|148:-8,1,68,10|2,0:0|0:0,0:0:0:0:
36,153,14301,2,0,P|29:198|41:229,1,68,2|2,0:0|0:0,0:0:0:0:
235,270,14644,6,0,P|180:234|122:263,1,136,2|2,1:2|0:0,0:0:0:0:
60,361,15159,1,2,0:0:0:0:
172,327,15330,1,10,0:0:0:0:
281,371,15501,1,2,0:0:0:0:
404,373,15673,1,2,0:0:0:0:
443,266,15844,1,2,0:0:0:0:
327,273,16016,6,0,B|336:214|336:214|332:201|332:201|341:121,1,136,2|2,1:2|0:0,0:0:0:0:
416,71,16530,1,2,0:0:0:0:
326,128,16701,2,0,L|243:116,1,68,10|2,0:0|0:0,0:0:0:0:
345,290,17044,2,0,L|412:299,1,68,2|0,0:0|0:0,0:0:0:0:
246,199,17387,6,0,B|206:226|199:290|240:332|240:332|209:310|174:305,1,203.999993774414,2|0,1:2|0:0,0:0:0:0:
137,127,18073,2,0,B|180:147|239:121|255:65|255:65|251:102|264:135,1,203.999993774414,10|0,0:0|0:0,0:0:0:0:
128,257,18759,6,0,B|123:208|71:171|15:185|15:185|63:149|55:86,2,255,2|2|2,1:2|0:0|0:0,0:0:0:0:
23,377,20130,6,0,B|140:311|154:432|272:334,1,255,2|0,0:0|0:0,0:0:0:0:
277,326,21501,6,0,P|308:345|322:387,1,68,0|0,1:2|0:0,0:0:0:0:
191,269,21844,2,0,P|191:232|221:199,1,68,2|0,1:2|0:0,0:0:0:0:
299,244,22187,1,2,1:2:0:0:
216,182,22359,2,0,P|183:175|149:170,1,68,2|0,0:0|1:2,0:0:0:0:
59,94,22701,2,0,P|90:81|122:70,1,68,2|0,0:0|1:2,0:0:0:0:
243,6,23044,6,0,B|246:108|352:67|359:185,1,204,2|0,0:0|1:2,0:0:0:0:
299,244,23730,1,2,0:0:0:0:
371,177,23901,1,2,1:2:0:0:
439,249,24073,1,2,0:0:0:0:
277,148,24244,6,0,B|291:82|343:104|358:39,1,136,2|2,1:2|1:2,0:0:0:0:
264,159,24759,2,0,P|231:163|200:150,1,68,2|0,0:0|1:2,0:0:0:0:
151,66,25101,2,0,P|117:61|86:74,1,68,2|0,0:0|1:2,0:0:0:0:
206,135,25444,1,2,0:0:0:0:
23,233,25616,6,0,P|77:232|119:151,1,136,2|2,1:2|1:2,0:0:0:0:
0,65,26130,1,2,0:0:0:0:
46,157,26301,1,2,1:2:0:0:
49,145,26644,5,2,1:2:0:0:
12,238,26816,1,2,0:0:0:0:
168,276,26987,6,0,B|236:259|214:217|281:199,1,136,2|2,1:2|1:2,0:0:0:0:
366,241,27501,1,2,0:0:0:0:
401,97,27673,2,0,P|371:112|355:141,1,68,0|0,1:2|0:0,0:0:0:0:
261,138,28016,2,0,P|259:171|277:200,1,68,0|2,1:2|0:0,0:0:0:0:
438,286,28359,5,2,1:2:0:0:
440,203,28530,1,2,0:0:0:0:
366,241,28701,1,2,1:2:0:0:
447,299,28873,2,0,B|379:316|401:358|334:376,2,136,2|2|2,0:0|0:0|0:0,0:0:0:0:
310,351,29730,6,0,P|245:369|201:320,1,136,2|2,1:2|1:2,0:0:0:0:
107,302,30244,2,0,P|100:333|86:375,1,68,2|0,0:0|1:2,0:0:0:0:
228,233,30587,2,0,P|217:200|209:167,1,68,2|0,0:0|1:2,0:0:0:0:
46,106,30930,5,10,0:0:0:0:
89,202,31101,1,2,0:0:0:0:
41,90,31273,2,0,L|136:103,1,68,2|0,0:0|0:0,0:0:0:0:
276,158,31616,2,0,L|208:167,1,68,2|0,0:0|0:0,0:0:0:0:
143,0,31959,5,2,1:2:0:0:
224,87,32130,1,8,0:0:0:0:
105,188,32301,1,0,1:2:0:0:
66,327,32473,6,0,P|94:301|132:298,1,76.4999976654053,4|0,1:2|0:0,0:0:0:0:
280,372,32816,2,0,P|244:360|223:330,1,76.4999976654053,10|0,0:0|0:0,0:0:0:0:
310,268,33159,1,2,1:2:0:0:
395,310,33330,2,0,P|405:346|412:384,1,76.4999976654053,2|8,0:0|0:0,0:0:0:0:
296,257,33673,2,0,P|305:220|311:182,1,76.4999976654053,2|0,0:0|1:2,0:0:0:0:
358,69,34016,1,2,0:0:0:0:
443,153,34187,6,0,B|387:133|387:133|368:108|368:108|294:80,1,152.999995330811,8|0,0:0|1:2,0:0:0:0:
202,189,34701,1,2,0:0:0:0:
310,182,34873,1,10,0:0:0:0:
192,85,35044,1,2,0:0:0:0:
109,224,35216,6,0,B|101:156|26:184|29:81,1,152.999995330811,2|10,1:2|0:0,0:0:0:0:
110,244,35730,2,0,P|141:264|177:257,1,76.4999976654053,2|0,0:0|1:2,0:0:0:0:
199,106,36073,2,0,P|167:85|131:92,1,76.4999976654053,2|8,0:0|0:0,0:0:0:0:
273,187,36416,1,2,0:0:0:0:
278,2,36587,6,0,P|210:35|199:109,2,152.999995330811,0|8|0,1:2|0:0|1:2,0:0:0:0:
396,99,37444,1,0,0:0:0:0:
288,86,37616,5,10,0:0:0:0:
414,8,37787,1,2,0:0:0:0:
500,122,37959,6,0,B|503:205|428:179|420:245,1,152.999995330811,2|10,1:2|0:0,0:0:0:0:
468,340,38473,1,2,0:0:0:0:
324,230,38644,2,0,P|320:267|340:299,1,76.4999976654053,0|0,1:2|0:0,0:0:0:0:
468,340,38987,1,8,0:0:0:0:
356,295,39159,1,2,0:0:0:0:
238,360,39330,6,0,L|156:382,2,76.4999976654053,2|2|10,1:2|0:0|0:0,0:0:0:0:
157,362,39844,1,2,0:0:0:0:
39,264,40016,5,8,1:2:0:0:
37,275,40102,1,8,0:0:0:0:
35,286,40187,1,8,0:3:0:0:
185,149,40359,1,8,0:0:0:0:
28,28,40530,1,2,1:2:0:0:
309,60,40701,6,0,B|256:84|256:84|231:113|231:113|167:142,1,152.999995330811,6|10,1:2|0:0,0:0:0:0:
70,107,41216,1,2,1:2:0:0:
180,43,41387,1,2,0:0:0:0:
318,151,41559,1,2,1:2:0:0:
450,171,41730,1,10,0:0:0:0:
488,26,41901,5,2,1:2:0:0:
471,15,42244,5,8,0:0:0:0:
400,84,42416,1,8,0:0:0:0:
450,171,42587,1,2,1:2:0:0:
314,260,42759,1,10,0:0:0:0:
348,168,42930,1,2,1:2:0:0:
462,266,43101,1,10,0:0:0:0:
387,327,43273,1,2,1:2:0:0:
356,178,43444,6,0,B|296:161|311:107|250:90,1,136,6|2,1:2|0:0,0:0:0:0:
151,199,43959,2,0,P|178:181|212:180,1,68,2|0,1:2|1:2,0:0:0:0:
203,315,44301,2,0,P|173:330|139:329,1,68,2|8,0:0|0:0,0:0:0:0:
18,263,44644,6,0,B|26:210|26:210|41:193|41:193|54:115,1,136,2|2,0:0|0:0,0:0:0:0:
126,79,45159,2,0,L|141:147,1,68,2|0,0:0|1:2,0:0:0:0:
39,42,45501,1,0,1:2:0:0:
32,53,45844,5,10,0:0:0:0:
136,5,46016,1,2,0:0:0:0:
244,107,46187,6,0,B|304:124|289:178|350:195,1,136,2|2,1:2|0:0,0:0:0:0:
401,60,46701,2,0,P|381:87|371:120,1,68,2|0,1:2|1:2,0:0:0:0:
482,209,47044,1,2,0:0:0:0:
470,110,47216,1,10,0:0:0:0:
344,193,47387,1,2,0:0:0:0:
483,227,47559,6,0,B|413:224|437:287|348:289,1,136,2|0,1:2|0:0,0:0:0:0:
277,356,48073,1,2,1:2:0:0:
160,344,48244,1,2,1:2:0:0:
90,214,48416,1,8,0:0:0:0:
215,253,48587,1,8,0:0:0:0:
47,307,48759,1,2,1:2:0:0:
229,250,48930,6,0,L|207:108,1,136,6|2,1:2|1:2,0:0:0:0:
92,5,49444,2,0,P|73:32|76:80,1,68,2|0,0:0|1:2,0:0:0:0:
165,67,49787,2,0,P|178:96|221:118,1,68,2|8,0:0|0:0,0:0:0:0:
359,0,50130,6,0,P|293:-5|247:41,1,136,2|2,0:0|0:0,0:0:0:0:
308,128,50644,1,2,1:2:0:0:
371,9,50816,2,0,P|436:3|483:49,1,136,2|8,0:0|0:0,0:0:0:0:
481,142,51330,5,10,0:0:0:0:
357,213,51501,1,2,0:0:0:0:
400,94,51673,5,2,1:2:0:0:
464,239,51844,1,2,0:0:0:0:
317,332,52016,1,10,0:0:0:0:
357,213,52187,1,2,0:0:0:0:
476,244,52359,6,0,L|467:311,1,68,0|0,1:2|0:0,0:0:0:0:
400,384,52701,1,10,0:0:0:0:
311,321,52873,1,2,0:0:0:0:
149,369,53044,5,10,0:0:0:0:
14,263,53216,1,10,0:0:0:0:
26,93,53559,5,2,0:0:0:0:
178,18,53901,5,8,0:0:0:0:
187,13,53987,1,8,0:0:0:0:
195,8,54073,1,8,0:0:0:0:
233,24,54158,1,8,0:0:0:0:
249,61,54244,1,12,3:3:0:0:
234,100,54330,1,8,1:3:0:0:
197,117,54416,6,0,B|177:219|272:192|262:296,1,187.000005706787,6|10,1:2|0:0,0:0:0:0:
74,367,54930,1,2,0:0:0:0:
180,280,55101,1,2,1:2:0:0:
353,362,55273,1,2,0:0:0:0:
472,278,55444,1,10,0:0:0:0:
342,352,55616,1,2,0:0:0:0:
507,149,55787,6,0,B|429:132|429:132|408:112|408:112|331:94,1,187.000005706787,2|10,1:2|0:0,0:0:0:0:
134,182,56301,1,2,0:0:0:0:
216,0,56473,2,0,P|236:43|248:88,1,93.5000028533936,2|0,1:2|0:0,0:0:0:0:
20,142,56816,2,0,P|32:96|36:50,1,93.5000028533936,8|2,0:0|0:0,0:0:0:0:
0,272,57159,6,0,B|64:247|67:303|147:273,1,140.25000428009,2|0,1:2|0:0,0:0:0:0:
172,167,57501,2,0,B|161:235|111:209|96:293,1,140.25000428009,10|0,0:0|0:0,0:0:0:0:
178,368,57844,2,0,B|124:324|171:293|105:239,1,140.25000428009,2|0,1:2|0:0,0:0:0:0:
245,296,58187,5,10,0:0:0:0:
79,376,58359,1,2,0:0:0:0:
244,284,58530,1,2,1:2:0:0:
388,372,58701,1,2,0:0:0:0:
492,288,58873,6,0,B|472:234|472:234|476:211|476:211|450:133,1,140.25000428009,10|0,0:0|0:0,0:0:0:0:
473,57,59216,2,0,B|439:59|408:28|408:28|404:67|381:88,1,140.25000428009,2|0,1:2|0:0,0:0:0:0:
276,154,59559,2,0,P|315:154|362:185,1,93.5000028533936,8|2,0:0|0:0,0:0:0:0:
205,47,59901,6,0,P|119:25|54:87,1,187.000005706787,2|10,1:2|0:0,0:0:0:0:
7,200,60416,1,2,0:0:0:0:
157,222,60587,2,0,P|161:173|127:112,1,93.5000028533936,0|0,1:2|0:0,0:0:0:0:
0,320,60930,1,10,0:0:0:0:
32,196,61101,1,2,0:0:0:0:
154,348,61273,6,0,L|261:322,1,93.5000028533936,2|2,1:2|0:0,0:0:0:0:
359,230,61616,2,0,L|252:204,1,93.5000028533936,8|2,0:0|0:0,0:0:0:0:
144,132,61959,1,0,1:2:0:0:
153,125,62301,5,10,0:0:0:0:
164,222,62473,1,2,0:0:0:0:
2,27,62644,6,0,B|68:60|68:60|94:87|94:87|164:117,1,187.000005706787,2|10,1:2|0:0,0:0:0:0:
339,27,63159,2,0,P|277:52|284:161,1,187.000005706787,2|2,0:0|0:0,0:0:0:0:
395,251,63673,1,10,0:0:0:0:
475,150,63844,1,10,0:0:0:0:
461,146,63930,1,8,0:0:0:0:
447,141,64016,5,2,1:2:0:0:
282,159,64187,1,10,0:0:0:0:
364,384,64359,1,0,1:2:0:0:
499,279,64530,1,10,0:0:0:0:
308,236,64701,1,0,1:2:0:0:
149,364,64873,5,8,0:0:0:0:
153,350,64959,1,8,0:0:0:0:
156,336,65045,1,0,1:2:0:0:
25,194,65216,5,8,3:3:0:0:
28,209,65302,1,8,3:3:0:0:
32,222,65387,6,0,B|125:185|59:120|186:87,1,187.000005706787,6|8,1:2|0:0,0:0:0:0:
299,204,65901,2,0,B|282:126|282:126|285:115|285:115|266:21,1,187.000005706787,2|0,0:0|0:0,0:0:0:0:
394,49,66416,5,10,0:0:0:0:
254,5,66587,1,2,0:0:0:0:
166,110,66759,1,2,1:2:0:0:
9,64,66930,2,0,P|46:36|92:31,1,93.5000028533936,2|8,0:0|0:0,0:0:0:0:
178,202,67273,2,0,P|132:196|94:169,1,93.5000028533936,2|0,0:0|1:2,0:0:0:0:
172,96,67616,1,0,0:0:0:0:
274,169,67787,2,0,L|258:279,1,93.5000028533936,10|0,0:0|0:0,0:0:0:0:
495,368,68130,6,0,B|494:304|419:326|432:229,1,140.25000428009,2|0,1:2|0:0,0:0:0:0:
487,173,68473,2,0,B|457:147|450:114|450:114|432:147|401:160,1,140.25000428009,10|0,0:0|0:0,0:0:0:0:
252,66,68816,6,0,B|253:130|328:108|315:205,1,140.25000428009,2|0,1:2|0:0,0:0:0:0:
260,261,69159,2,0,B|289:286|297:320|297:320|314:286|345:273,1,140.25000428009,10|0,0:0|0:0,0:0:0:0:
185,175,69501,6,0,L|163:278,1,93.5000028533936,2|0,1:2|0:0,0:0:0:0:
41,381,69844,2,0,L|21:290,1,93.5000028533936,8|0,0:0|0:0,0:0:0:0:
185,175,70187,5,2,1:2:0:0:
165,266,70359,1,2,0:0:0:0:
41,381,70530,1,10,0:0:0:0:
20,289,70701,1,2,0:0:0:0:
22,97,70873,6,0,B|90:119|90:119|112:138|112:138|201:168,1,187.000005706787,0|8,1:2|0:0,0:0:0:0:
323,87,71387,1,0,0:0:0:0:
200,157,71559,1,2,1:2:0:0:
314,239,71730,1,2,0:0:0:0:
206,149,71901,1,10,0:0:0:0:
400,160,72073,1,2,0:0:0:0:
284,344,72244,6,0,L|387:321,1,93.5000028533936,0|0,1:2|0:0,0:0:0:0:
508,185,72587,1,10,0:0:0:0:
479,326,72759,2,0,B|488:222|396:259|395:154,1,187.000005706787,2|2,0:0|0:0,0:0:0:0:
404,3,73273,1,10,0:0:0:0:
477,94,73444,1,2,0:0:0:0:
300,72,73616,6,0,B|250:59|250:59|229:40|229:40|147:18,1,140.25000428009,2|0,1:2|0:0,0:0:0:0:
153,29,73959,5,8,1:2:0:0:
72,139,74130,1,8,0:0:0:0:
255,224,74301,1,8,1:2:0:0:
194,117,74473,1,8,0:0:0:0:
62,262,74644,1,8,1:2:0:0:
173,317,74816,1,4,1:2:0:0:
170,304,75501,5,0,1:2:0:0:
39,373,75673,1,8,0:0:0:0:
168,290,75844,1,0,1:2:0:0:
299,359,76016,1,8,0:0:0:0:
413,265,76187,1,8,0:0:0:0:
422,274,76273,1,8,0:0:0:0:
431,282,76359,6,0,B|436:185|352:232|360:105,1,170,2|10,1:2|0:0,0:0:0:0:
460,43,76873,1,2,0:0:0:0:
361,114,77044,2,0,P|321:95|266:116,1,85,0|2,1:2|0:0,0:0:0:0:
431,300,77387,2,0,P|468:317|509:308,1,85,10|2,0:0|0:0,0:0:0:0:
287,356,77730,6,0,P|205:364|141:306,1,170,0|10,1:2|0:0,0:0:0:0:
180,168,78244,1,2,0:0:0:0:
239,259,78416,1,2,1:2:0:0:
37,287,78587,1,2,0:0:0:0:
72,183,78759,1,10,0:0:0:0:
0,87,78930,1,2,0:0:0:0:
90,0,79101,6,0,B|162:18|162:18|183:32|183:32|264:50,1,170,0|10,1:2|0:0,0:0:0:0:
367,134,79616,1,2,0:0:0:0:
260,58,79787,1,2,1:2:0:0:
379,4,79959,1,2,0:0:0:0:
461,89,80130,2,0,L|369:122,1,85,10|0,0:0|0:0,0:0:0:0:
182,152,80473,6,0,P|221:165|241:201,1,85,2|2,1:2|0:0,0:0:0:0:
121,223,80816,2,0,P|141:259|180:272,1,85,8|0,0:0|0:0,0:0:0:0:
418,194,81159,6,0,P|376:200|351:233,1,85,2|2,1:2|0:0,0:0:0:0:
467,273,81502,2,0,P|441:305|400:312,1,85,10|8,0:0|0:0,0:0:0:0:
262,371,81759,1,8,0:0:0:0:
258,363,81844,6,0,B|271:278|348:324|351:225,1,170,2|10,1:2|0:0,0:0:0:0:
369,97,82359,1,2,0:0:0:0:
248,200,82530,2,0,P|226:163|226:121,1,85,0|2,1:2|0:0,0:0:0:0:
357,11,82873,2,0,P|378:47|378:89,1,85,10|2,0:0|0:0,0:0:0:0:
222,6,83216,6,0,P|140:4|97:73,1,170,0|10,1:2|0:0,0:0:0:0:
20,182,83730,1,2,0:0:0:0:
142,207,83901,1,0,1:2:0:0:
254,289,84073,1,2,0:0:0:0:
372,179,84244,1,10,0:0:0:0:
496,228,84416,1,2,0:0:0:0:
504,376,84587,6,0,B|434:358|434:358|412:341|412:341|332:315,1,170,2|10,1:2|0:0,0:0:0:0:
231,194,85101,1,2,0:0:0:0:
327,328,85273,2,0,P|340:288|325:249,1,85,2|2,1:2|0:0,0:0:0:0:
157,299,85616,2,0,P|141:337|155:377,1,85,10|2,0:0|0:0,0:0:0:0:
14,174,85959,6,0,L|130:193,1,85,2|2,1:2|0:0,0:0:0:0:
275,45,86301,2,0,L|191:58,1,85,8|2,0:0|0:0,0:0:0:0:
5,158,86644,5,8,0:0:0:0:
110,177,86816,1,10,0:3:0:0:
282,28,86987,1,2,1:2:0:0:
178,46,87159,1,12,0:0:0:0:
256,192,87244,12,0,90073,0:0:0:0:
