osu file format v14

[General]
AudioFilename: audio.mp3
AudioLeadIn: 0
PreviewTime: 73
Countdown: 1
SampleSet: Soft
StackLeniency: 0.7
Mode: 0
LetterboxInBreaks: 0
WidescreenStoryboard: 0

[Editor]
Bookmarks: 41812,111377
DistanceSpacing: 1.2
BeatDivisor: 4
GridSize: 4
TimelineZoom: 2.3

[Metadata]
Title:Winter Wolf
TitleUnicode:Winter Wolf
Artist:Mimi Neko
ArtistUnicode:Mimi Neko
Creator:-Keitaro
Version:not best boy fight me
Source:Camp Buddy
Tags:yoichi yaoi gay bl boys love
BeatmapID:1991001
BeatmapSetID:953575

[Difficulty]
HPDrainRate:5
CircleSize:4
OverallDifficulty:8
ApproachRate:9.6
SliderMultiplier:2.6
SliderTickRate:1

[Events]
//Background and Video events
0,0,"cg_yoichi_1_1.jpg",0,0
//Break Periods
//Storyboard Layer 0 (Background)
//Storyboard Layer 1 (Fail)
//Storyboard Layer 2 (Pass)
//Storyboard Layer 3 (Foreground)
//Storyboard Sound Samples

[TimingPoints]
48,434.782608695652,4,2,0,100,1,0
41787,-125,4,2,0,100,0,0
55700,-100,4,2,0,100,0,0
62656,-83.3333333333333,4,2,0,100,0,0

[Colours]
Combo1 : 160,138,129
Combo2 : 164,32,240
Combo3 : 153,75,49

[HitObjects]
64,117,48,6,0,L|61:197,1,65
164,97,265,2,0,L|154:20,1,65
248,149,482,2,0,L|347:134,2,65
185,213,808,6,0,P|170:280|204:357,1,130
276,305,1134,2,0,P|276:258|251:194,1,65
312,139,1352,1,0,0:0:0:0:
396,151,1461,1,0,0:0:0:0:
493,163,1569,2,0,L|485:80,1,65
348,24,1787,6,0,B|260:20|304:68|200:56,1,130
140,16,2113,1,0,0:0:0:0:
217,186,2221,2,0,B|225:126|225:126|221:98|221:98|229:26,1,130
140,16,2547,1,0,0:0:0:0:
20,204,2656,6,0,B|92:188|68:252|156:220,1,130
306,195,2982,2,0,P|242:155|218:211,1,130
264,308,3308,2,0,L|344:296,1,65
428,220,3526,6,0,L|440:320,1,65
313,130,3743,2,0,L|301:230,1,65
440,56,3961,2,0,L|528:48,2,65
324,8,4287,6,0,B|256:12|280:64|160:48,1,130
92,4,4613,2,0,L|104:104,1,65
24,160,4830,1,0,0:0:0:0:
32,248,4939,1,0,0:0:0:0:
40,336,5047,2,0,L|132:312,1,65
280,204,5265,6,0,B|220:199|220:199|196:208|196:208|115:200,1,130
360,160,5700,2,0,P|372:212|364:256,1,65
304,288,5917,1,0,0:0:0:0:
304,288,6026,6,0,B|352:264|352:264|452:280,1,130
508,292,6352,2,0,L|496:372,1,65
294,223,6569,2,0,L|306:303,1,65
468,72,6787,1,0,0:0:0:0:
468,72,7004,6,0,B|380:60|428:124|300:96,1,130
284,56,7330,1,0,0:0:0:0:
212,100,7439,2,0,P|152:72|92:80,1,65
84,116,7656,1,0,0:0:0:0:
0,64,7765,6,0,L|12:236,1,130
148,248,8091,2,0,L|140:144,1,65
224,288,8308,1,0,0:0:0:0:
308,308,8417,1,0,0:0:0:0:
376,268,8526,2,0,L|368:184,1,65
296,12,8743,6,0,P|260:76|332:124,1,130
368,128,9069,1,0,0:0:0:0:
499,244,9178,2,0,B|423:228|455:284|347:264,1,130
300,228,9504,1,0,0:0:0:0:
312,357,9613,6,0,L|296:193,1,130
160,118,9939,2,0,L|147:247,1,130
236,368,10265,2,0,L|228:280,1,65
60,276,10482,6,0,P|84:320|140:336,1,65
160,118,10700,2,0,P|109:116|68:157,1,65
232,216,10917,1,0,0:0:0:0:
328,208,11026,1,0,0:0:0:0:
428,200,11134,1,0,0:0:0:0:
350,89,11243,6,0,B|318:129|318:129|334:257,1,130
435,264,11569,2,0,L|423:164,1,65
224,280,11787,2,0,L|236:180,1,65
448,376,12004,1,0,0:0:0:0:
448,376,12221,6,0,L|536:368,2,65
380,320,12547,1,0,0:0:0:0:
300,356,12656,2,0,L|216:364,1,65
160,328,12874,2,0,L|80:324,1,65
44,256,13091,5,0,0:0:0:0:
12,180,13200,1,0,0:0:0:0:
96,128,13308,1,0,0:0:0:0:
72,88,13417,1,0,0:0:0:0:
152,20,13526,5,0,0:0:0:0:
160,32,13634,1,0,0:0:0:0:
176,40,13743,1,0,0:0:0:0:
200,40,13852,1,0,0:0:0:0:
284,12,13961,6,0,L|292:118,1,65
361,126,14178,2,0,L|352:204,1,65
402,311,14395,1,0,0:0:0:0:
329,271,14504,2,0,P|296:266|248:278,1,65
212,334,14721,6,0,B|144:341|144:341|131:336|131:336|34:347,1,130
6,326,15047,2,0,P|4:282|24:246,1,65
80,209,15265,1,0,0:0:0:0:
80,209,15374,1,0,0:0:0:0:
80,209,15482,2,0,L|69:123,1,65
116,57,15700,6,0,P|147:69|186:70,1,65
248,31,15917,2,0,P|290:32|330:48,1,65
380,92,16134,1,0,0:0:0:0:
467,78,16243,2,0,L|456:161,1,65
435,223,16461,1,0,0:0:0:0:
380,276,16569,5,0,0:0:0:0:
304,282,16678,1,0,0:0:0:0:
242,237,16787,1,0,0:0:0:0:
205,169,16895,2,0,L|215:87,1,65
96,26,17113,1,0,0:0:0:0:
38,77,17221,1,0,0:0:0:0:
22,153,17330,1,0,0:0:0:0:
36,229,17439,6,0,L|111:220,1,65
42,235,17656,2,0,L|117:226,1,65
228,340,17874,6,0,L|153:331,1,65
222,346,18091,2,0,L|147:337,1,65
205,169,18308,5,0,0:0:0:0:
282,174,18416,1,0,0:0:0:0:
360,180,18525,1,0,0:0:0:0:
438,185,18634,2,0,L|434:110,1,65
343,30,18852,5,0,0:0:0:0:
269,69,18961,1,0,0:0:0:0:
189,29,19069,1,0,0:0:0:0:
121,71,19178,6,0,L|34:77,1,65
113,80,19395,2,0,L|26:86,1,65
205,169,19613,6,0,L|292:175,1,65
213,178,19830,2,0,L|300:184,1,65
52,384,20047,5,0,0:0:0:0:
0,328,20155,1,0,0:0:0:0:
14,254,20264,1,0,0:0:0:0:
82,221,20373,1,0,0:0:0:0:
151,258,20482,1,0,0:0:0:0:
201,299,20590,1,0,0:0:0:0:
264,308,20699,1,0,0:0:0:0:
324,285,20808,1,0,0:0:0:0:
396,209,20917,6,0,L|389:106,1,65
305,138,21134,2,0,L|309:61,1,65
242,8,21352,1,0,0:0:0:0:
193,78,21461,2,0,P|148:101|87:99,1,65
45,43,21678,2,0,L|61:223,1,130
142,213,22004,2,0,L|131:313,1,65
238,170,22221,2,0,L|249:270,1,65
346,231,22439,2,0,L|335:331,1,65
461,365,22656,6,0,B|444:318|444:310|453:261,1,65
499,222,22874,2,0,P|504:172|490:132,1,65
452,81,23091,1,0,0:0:0:0:
452,81,23200,2,0,L|359:93,1,65
305,101,23417,1,0,0:0:0:0:
239,46,23526,5,0,0:0:0:0:
154,39,23634,1,0,0:0:0:0:
85,89,23743,1,0,0:0:0:0:
53,168,23852,2,0,L|74:273,1,65
238,369,24069,1,0,0:0:0:0:
281,297,24178,1,0,0:0:0:0:
277,214,24287,1,0,0:0:0:0:
228,145,24395,6,0,L|138:160,1,65
216,130,24613,2,0,L|126:145,1,65
36,270,24830,6,0,L|126:285,1,65
48,255,25048,2,0,L|138:270,1,65
246,366,25265,5,0,0:0:0:0:
325,354,25374,1,0,0:0:0:0:
403,340,25482,1,0,0:0:0:0:
483,328,25591,2,0,L|469:216,1,65
417,118,25808,1,0,0:0:0:0:
341,83,25917,1,0,0:0:0:0:
256,94,26026,1,0,0:0:0:0:
210,166,26134,6,0,L|223:258,1,65
199,177,26352,2,0,L|212:269,1,65
86,88,26569,6,0,L|73:180,1,65
97,99,26787,2,0,L|84:191,1,65
19,308,27004,5,0,0:0:0:0:
67,248,27112,1,0,0:0:0:0:
142,232,27221,1,0,0:0:0:0:
211,265,27330,1,0,0:0:0:0:
245,334,27439,5,0,0:0:0:0:
305,356,27547,1,0,0:0:0:0:
369,347,27656,1,0,0:0:0:0:
422,311,27765,1,0,0:0:0:0:
476,218,27874,6,0,B|470:157|470:157|455:128|455:128|445:40,1,130
407,19,28200,1,0,0:0:0:0:
407,19,28308,2,0,P|376:57|333:69,2,65
358,159,28634,6,0,B|290:100|180:152,1,130
169,197,28961,2,0,P|168:238|184:288,1,65
247,332,29178,1,0,0:0:0:0:
321,298,29287,1,0,0:0:0:0:
403,314,29395,2,0,L|395:414,1,65
490,241,29613,6,0,P|438:173|472:99,1,130
511,82,29939,1,0,0:0:0:0:
372,18,30047,2,0,B|286:22|334:67|222:62,1,130
167,49,30374,1,0,0:0:0:0:
38,152,30482,6,0,L|29:-7,1,130
159,178,30808,2,0,L|168:19,1,130
222,232,31134,2,0,P|175:259|121:251,1,65
0,292,31352,5,0,0:0:0:0:
56,262,31460,1,0,0:0:0:0:
118,276,31569,1,0,0:0:0:0:
157,327,31678,1,0,0:0:0:0:
181,384,31787,6,0,L|252:371,1,65
378,306,32004,1,0,0:0:0:0:
378,306,32113,2,0,L|291:297,1,65
234,237,32330,1,0,0:0:0:0:
234,237,32439,2,0,P|224:182|234:140,1,65
297,96,32656,2,0,L|382:106,1,65
198,37,32874,2,0,L|100:46,1,65
25,136,33091,5,0,0:0:0:0:
3,195,33199,1,0,0:0:0:0:
27,254,33308,1,0,0:0:0:0:
85,280,33417,1,0,0:0:0:0:
145,259,33526,2,0,L|139:163,1,65
235,111,33743,1,0,0:0:0:0:
285,74,33852,1,0,0:0:0:0:
341,89,33961,6,0,L|350:173,1,65
434,171,34178,2,0,L|425:269,1,65
395,315,34395,1,0,0:0:0:0:
323,362,34504,1,0,0:0:0:0:
229,379,34613,1,0,0:0:0:0:
151,322,34721,1,0,0:0:0:0:
133,211,34830,6,0,L|144:31,1,130
212,33,35156,1,0,0:0:0:0:
212,33,35265,2,0,P|254:30|299:-2,2,65
217,118,35591,2,0,P|252:165|245:285,1,130
183,317,35917,2,0,P|228:305|269:322,1,65
366,375,36134,2,0,P|327:378|283:357,1,65
343,233,36352,2,0,L|350:327,1,65
500,365,36569,6,0,P|438:302|463:232,1,130
499,213,36895,1,0,0:0:0:0:
410,91,37004,2,0,B|326:89|377:144|256:142,1,130
228,93,37330,1,0,0:0:0:0:
112,233,37439,6,0,P|68:197|137:147,1,130
201,207,37765,2,0,B|205:262|205:262|193:295|193:295|201:370,1,130
334,309,38091,2,0,P|308:295|262:318,1,65
408,383,38308,5,0,0:0:0:0:
409,337,38416,1,0,0:0:0:0:
410,292,38525,1,0,0:0:0:0:
412,246,38634,1,0,0:0:0:0:
413,201,38743,2,0,P|361:202|317:219,1,65
274,303,38961,1,0,0:0:0:0:
274,303,39069,6,0,L|267:229,1,65
260,147,39287,1,0,0:0:0:0:
260,147,39395,2,0,P|203:137|154:153,1,65
108,96,39613,1,0,0:0:0:0:
104,160,39721,1,0,0:0:0:0:
101,225,39830,1,0,0:0:0:0:
98,290,39939,5,0,0:0:0:0:
150,349,40047,1,0,0:0:0:0:
225,367,40155,1,0,0:0:0:0:
296,339,40264,1,0,0:0:0:0:
339,275,40373,1,0,0:0:0:0:
338,199,40482,2,0,L|240:194,1,65
193,154,40700,1,0,0:0:0:0:
177,129,40808,1,0,0:0:0:0:
172,99,40917,5,0,0:0:0:0:
232,47,41025,1,0,0:0:0:0:
310,57,41134,1,0,0:0:0:0:
355,122,41243,1,0,0:0:0:0:
339,199,41352,2,0,L|343:280,1,65
416,179,41569,2,0,L|419:259,1,65
426,360,41787,5,0,0:0:0:0:
426,360,41895,2,0,L|304:369,1,104
252,347,42221,1,0,0:0:0:0:
252,347,42330,1,0,0:0:0:0:
157,369,42547,1,0,0:0:0:0:
81,306,42765,1,0,0:0:0:0:
74,216,42982,1,0,0:0:0:0:
138,156,43200,2,0,L|128:87,2,52
206,198,43526,6,0,P|252:198|305:131,1,104
312,92,43852,1,0,0:0:0:0:
312,92,43961,1,0,0:0:0:0:
312,92,44069,1,0,0:0:0:0:
380,51,44287,1,0,0:0:0:0:
458,73,44504,1,0,0:0:0:0:
507,139,44721,1,0,0:0:0:0:
509,224,44939,2,0,L|494:314,2,52
442,185,45265,6,0,P|392:213|318:194,1,104
258,156,45700,1,0,0:0:0:0:
258,156,45808,1,0,0:0:0:0:
158,144,46026,1,0,0:0:0:0:
72,190,46243,1,0,0:0:0:0:
49,286,46461,1,0,0:0:0:0:
98,367,46678,2,0,L|170:365,2,52
5,366,47004,6,0,P|-5:309|25:255,1,104
72,219,47330,1,0,0:0:0:0:
72,219,47439,1,0,0:0:0:0:
72,219,47547,1,0,0:0:0:0:
158,189,47765,1,0,0:0:0:0:
243,221,47982,1,0,0:0:0:0:
278,304,48200,1,0,0:0:0:0:
370,333,48417,2,0,L|371:390,2,52
442,289,48743,6,0,P|466:236|439:170,1,104
402,138,49069,1,0,0:0:0:0:
402,138,49178,2,0,L|405:74,1,52
336,38,49504,1,0,0:0:0:0:
242,25,49721,1,0,0:0:0:0:
162,58,49939,1,0,0:0:0:0:
89,109,50156,2,0,L|32:99,2,52
131,181,50482,6,0,L|262:176,1,104
320,170,50808,1,0,0:0:0:0:
320,170,50917,2,0,L|312:236,1,52
369,293,51243,1,0,0:0:0:0:
455,274,51461,1,0,0:0:0:0:
501,194,51678,1,0,0:0:0:0:
461,100,51895,2,0,L|470:28,2,52
388,140,52221,6,0,P|322:142|259:94,1,104
241,69,52547,1,0,0:0:0:0:
241,69,52656,2,0,L|172:76,1,52
110,49,52874,1,0,0:0:0:0:
110,49,52982,2,0,L|85:120,1,52
4,101,53200,2,0,L|26:158,1,52
6,232,53417,2,0,L|69:241,1,52
135,257,53634,2,0,L|123:324,2,52
205,217,53961,6,0,P|246:209|308:258,1,104
349,296,54287,1,0,0:0:0:0:
349,296,54395,2,0,L|413:318,1,52
466,276,54613,1,0,0:0:0:0:
466,276,54721,2,0,P|470:235|460:196,1,52
426,154,54939,2,0,P|421:119|422:74,1,52
437,22,55156,2,0,L|365:30,1,52
318,78,55374,1,0,0:0:0:0:
243,67,55482,1,0,0:0:0:0:
168,57,55591,1,0,0:0:0:0:
72,43,55700,6,0,L|84:126,1,65
161,156,55917,2,0,L|146:246,1,65
89,301,56134,1,0,0:0:0:0:
170,366,56243,2,0,P|217:358|256:323,1,65
299,281,56461,2,0,L|393:290,1,65
486,187,56678,2,0,L|401:193,1,65
309,157,56895,2,0,P|289:72|318:22,1,130
395,29,57221,1,0,0:0:0:0:
438,102,57330,1,0,0:0:0:0:
420,190,57439,6,0,L|245:186,1,130
200,189,57765,1,0,0:0:0:0:
140,125,57874,1,0,0:0:0:0:
134,36,57982,2,0,P|182:20|232:26,1,65
48,183,58200,6,0,L|33:89,1,65
189,253,58417,2,0,L|204:159,1,65
51,347,58634,2,0,B|97:340|97:340|136:352|136:352|221:338,1,130
261,309,58961,1,0,0:0:0:0:
354,310,59069,1,0,0:0:0:0:
428,356,59178,6,0,L|503:351,1,65
489,247,59395,2,0,L|424:251,1,65
346,204,59613,1,0,0:0:0:0:
316,121,59721,2,0,P|326:81|356:46,1,65
464,48,59939,6,0,P|394:68|296:42,1,130
262,0,60265,1,0,0:0:0:0:
119,46,60374,2,0,L|135:219,1,130
192,240,60700,1,0,0:0:0:0:
274,228,60808,1,0,0:0:0:0:
438,81,60917,6,0,L|449:236,1,130
478,306,61243,1,0,0:0:0:0:
414,366,61352,1,0,0:0:0:0:
324,358,61461,2,0,P|318:310|328:271,1,65
358,126,61678,6,0,P|364:174|354:213,1,65
178,104,61895,2,0,L|270:96,1,65
192,240,62113,2,0,L|100:232,1,65
24,90,62330,1,0,0:0:0:0:
46,167,62439,1,0,0:0:0:0:
14,250,62547,1,0,0:0:0:0:
41,336,62656,6,0,L|141:325,1,77.999997619629
269,248,62874,2,0,L|169:237,1,77.999997619629
316,353,63091,1,0,0:0:0:0:
388,281,63200,2,0,P|401:241|383:184,1,77.999997619629
292,72,63417,6,0,L|280:166,1,77.999997619629
428,31,63634,2,0,L|440:125,1,77.999997619629
279,45,63852,2,0,L|267:139,1,77.999997619629
269,248,64069,1,0,0:0:0:0:
189,194,64178,1,0,0:0:0:0:
94,189,64287,1,0,0:0:0:0:
24,244,64395,6,0,L|39:346,1,77.999997619629
189,194,64613,2,0,L|200:116,1,77.999997619629
158,16,64830,1,0,0:0:0:0:
279,45,64939,2,0,P|323:46|369:19,1,77.999997619629
494,155,65156,6,0,P|452:142|400:153,1,77.999997619629
446,317,65374,2,0,L|441:224,1,77.999997619629
294,382,65592,2,0,L|299:289,1,77.999997619629
275,186,65808,1,0,0:0:0:0:
196,132,65917,1,0,0:0:0:0:
105,132,66026,1,0,0:0:0:0:
26,180,66134,6,0,L|46:288,1,77.999997619629
196,132,66352,2,0,L|210:55,1,77.999997619629
442,105,66569,1,0,0:0:0:0:
384,45,66678,2,0,P|336:42|291:78,1,77.999997619629
461,261,66895,6,0,L|469:163,1,77.999997619629
278,241,67113,2,0,L|270:143,1,77.999997619629
483,276,67330,2,0,L|491:178,1,77.999997619629
379,319,67547,1,0,0:0:0:0:
292,355,67656,1,0,0:0:0:0:
207,321,67765,1,0,0:0:0:0:
142,250,67874,5,0,0:0:0:0:
143,211,67982,1,0,0:0:0:0:
145,172,68091,1,0,0:0:0:0:
147,133,68200,1,0,0:0:0:0:
212,75,68308,5,0,0:0:0:0:
230,83,68417,1,0,0:0:0:0:
255,89,68526,1,0,0:0:0:0:
280,90,68634,1,0,0:0:0:0:
359,52,68743,5,0,0:0:0:0:
434,49,68851,1,0,0:0:0:0:
489,101,68960,1,0,0:0:0:0:
490,177,69069,1,0,0:0:0:0:
438,245,69178,5,0,0:0:0:0:
426,289,69286,1,0,0:0:0:0:
433,335,69395,1,0,0:0:0:0:
459,374,69504,1,0,0:0:0:0:
303,292,69613,5,0,0:0:0:0:
256,192,69721,12,0,74830,0:0:0:0:
