osu file format v14

[General]
AudioFilename: audio.mp3
AudioLeadIn: 0
PreviewTime: 216792
Countdown: 0
SampleSet: Normal
StackLeniency: 0.7
Mode: 0
LetterboxInBreaks: 0
WidescreenStoryboard: 0

[Editor]
Bookmarks: 64542,84792,97542,109542,127542,148542,172542,196542,230292,248292,251667
DistanceSpacing: 3
BeatDivisor: 4
GridSize: 8
TimelineZoom: 1.9

[Metadata]
Title:CANDY MAGIC
TitleUnicode:CANDY MAGIC
Artist:Mimi Meme Mimi
ArtistUnicode:Mimi Meme Mimi
Creator:SolariS
Version:Insane
Source:
Tags:
BeatmapID:2234403
BeatmapSetID:1067231

[Difficulty]
HPDrainRate:5
CircleSize:3.6
OverallDifficulty:7.6
ApproachRate:9
SliderMultiplier:1.6
SliderTickRate:1

[Events]
//Background and Video events
0,0,"o0BKqDa.jpg",0,0
//Break Periods
2,172742,177754
//Storyboard Layer 0 (Background)
//Storyboard Layer 1 (Fail)
//Storyboard Layer 2 (Pass)
//Storyboard Layer 3 (Foreground)
//Storyboard Layer 4 (Overlay)
//Storyboard Sound Samples

[TimingPoints]
1542,375,4,1,0,100,1,0
1542,-133.333333333333,4,2,0,40,0,0
9792,-100,4,1,0,60,0,0
22542,-133.333333333333,4,2,0,40,0,0
64542,-100,4,2,0,80,0,0
97542,-133.333333333333,4,2,0,40,0,0
124542,-100,4,1,0,60,0,0
127542,-100,4,2,0,80,0,0
172542,-100,4,2,0,10,0,0
178542,-133.333333333333,4,2,0,40,0,0
216792,-100,4,1,0,80,0,0

[HitObjects]
167,60,1542,6,0,P|151:73|140:133,1,60.0000022888184
202,206,1917,2,0,P|205:222|175:273,1,60.0000022888184
70,285,2292,2,0,P|60:298|4:314,2,60.0000022888184
9,201,2854,1,0,0:0:0:0:
88,127,3042,6,0,P|115:124|162:130,1,60.0000022888184
251,175,3417,2,0,P|279:180|330:172,1,60.0000022888184
420,143,3792,2,0,P|423:107|418:72,2,60.0000022888184
403,249,4354,1,0,0:0:0:0:
317,315,4542,6,0,P|278:340|188:342,1,120.000004577637
91,302,5104,1,0,0:0:0:0:
52,187,5292,6,0,P|45:146|55:108,1,60.0000022888184
166,106,5667,2,0,P|169:74|156:22,1,60.0000022888184
288,36,6042,6,0,P|349:51|371:125,1,120.000004577637
293,188,6604,1,0,0:0:0:0:
293,188,6792,2,0,B|307:267|299:339|299:339|340:306,1,180.000006866455
435,72,7542,5,0,0:0:0:0:
419,178,7729,1,0,0:0:0:0:
419,178,7917,2,0,P|391:210|351:222,1,60.0000022888184
290,138,8292,2,0,P|248:110|215:103,1,60.0000022888184
159,183,8667,5,0,0:0:0:0:
162,302,8854,1,0,0:0:0:0:
162,302,8948,1,0,0:0:0:0:
162,302,9042,1,0,0:0:0:0:
53,250,9229,1,0,0:0:0:0:
159,183,9417,1,0,0:0:0:0:
162,46,9792,6,0,P|191:40|269:60,1,80
343,122,10167,5,0,0:0:0:0:
352,160,10260,1,0,0:0:0:0:
356,200,10354,1,0,0:0:0:0:
352,240,10448,1,0,0:0:0:0:
342,279,10542,6,0,P|322:288|258:282,1,80
137,273,10917,1,0,0:0:0:0:
100,112,11104,1,0,0:0:0:0:
100,112,11198,1,0,0:0:0:0:
100,112,11292,1,0,0:0:0:0:
248,169,11479,1,0,0:0:0:0:
102,190,11667,2,0,P|95:161|99:112,1,80
248,57,12042,6,0,P|294:49|338:56,1,80
449,90,12417,1,0,0:0:0:0:
399,237,12604,1,0,0:0:0:0:
399,237,12698,1,0,0:0:0:0:
399,237,12792,1,0,0:0:0:0:
248,169,12979,1,0,0:0:0:0:
398,158,13167,2,0,P|403:195|394:252,1,80
157,94,13542,6,0,B|117:72|117:72|134:210,1,160
215,332,14104,1,0,0:0:0:0:
215,332,14198,1,0,0:0:0:0:
215,332,14292,2,0,P|243:339|307:328,1,80
397,213,14667,2,0,P|405:197|394:127,1,80
273,207,15042,6,0,P|264:237|272:287,2,80
400,136,15604,1,0,0:0:0:0:
438,259,15792,2,0,P|432:321|412:345,1,80
268,282,16167,1,0,0:0:0:0:
268,282,16260,1,0,0:0:0:0:
268,282,16354,1,0,0:0:0:0:
100,314,16542,6,0,P|77:300|78:236,1,80
222,179,16917,1,0,0:0:0:0:
122,54,17104,6,0,P|137:39|205:25,1,80
222,179,17479,1,0,0:0:0:0:
421,116,17667,2,0,P|353:156|329:157,1,80
222,179,18042,1,0,0:0:0:0:
392,297,18229,6,0,L|302:334,1,80
222,179,18604,1,0,0:0:0:0:
222,179,18792,2,0,B|184:190|184:190|132:176,1,80
63,129,19167,1,0,0:0:0:0:
63,129,19354,1,0,0:0:0:0:
342,71,19542,5,0,0:0:0:0:
419,210,19729,1,0,0:0:0:0:
395,131,19917,5,0,0:0:0:0:
356,285,20104,1,0,0:0:0:0:
223,132,20292,5,0,0:0:0:0:
261,286,20479,1,0,0:0:0:0:
282,206,20667,5,0,0:0:0:0:
194,339,20854,1,0,0:0:0:0:
64,50,21042,5,0,0:0:0:0:
133,193,21229,1,0,0:0:0:0:
119,108,21417,5,0,0:0:0:0:
74,261,21604,1,0,0:0:0:0:
289,147,21792,5,0,0:0:0:0:
338,298,21979,1,0,0:0:0:0:
342,209,22167,5,0,0:0:0:0:
280,356,22354,1,0,0:0:0:0:
141,226,22542,6,0,P|126:172|144:95,1,120.000004577637
328,106,23292,2,0,P|368:104|403:107,1,60.0000022888184
346,194,23667,2,0,P|295:197|277:195,1,60.0000022888184
219,126,24042,6,0,P|158:116|90:131,2,120.000004577637
248,304,25167,6,0,P|279:310|333:296,1,60.0000022888184
391,275,25542,2,0,P|414:263|440:212,1,60.0000022888184
444,146,25917,2,0,P|444:114|420:77,1,60.0000022888184
345,63,26292,2,0,P|349:99|376:130,1,60.0000022888184
273,139,26667,2,0,P|228:142|193:133,1,60.0000022888184
234,239,27042,6,0,P|301:249|371:233,2,120.000004577637
154,173,28167,2,0,P|149:135|152:96,1,60.0000022888184
242,45,28542,2,0,P|288:35|366:45,1,120.000004577637
418,138,29104,1,0,0:0:0:0:
418,138,29292,6,0,P|428:220|418:280,1,120.000004577637
381,336,29854,1,0,0:0:0:0:
300,288,30042,6,0,B|234:169,1,120.000004577637
137,172,30604,1,0,0:0:0:0:
107,257,30792,2,0,P|113:291|193:345,1,120.000004577637
296,79,31542,6,0,P|310:120|294:207,1,120.000004577637
208,225,32104,1,0,0:0:0:0:
163,139,32292,2,0,B|109:144|72:108|72:108|52:129,1,120.000004577637
87,317,33042,6,0,P|141:321|211:294,1,120.000004577637
276,239,33604,1,0,0:0:0:0:
276,239,33792,2,0,L|348:260,1,60.0000022888184
425,285,34167,1,0,0:0:0:0:
399,94,34542,6,0,L|327:73,1,60.0000022888184
253,115,34917,2,0,L|182:130,1,60.0000022888184
80,87,35292,2,0,L|64:164,1,60.0000022888184
30,227,35667,2,0,L|50:295,1,60.0000022888184
192,256,36042,5,0,0:0:0:0:
306,291,36229,1,0,0:0:0:0:
200,293,36417,5,0,0:0:0:0:
312,251,36604,1,0,0:0:0:0:
247,149,36792,6,0,P|258:113|280:97,1,60.0000022888184
380,156,37167,2,0,P|420:165|447:162,1,60.0000022888184
392,52,37542,5,0,0:0:0:0:
281,97,37729,1,0,0:0:0:0:
299,49,37917,5,0,0:0:0:0:
407,99,38104,1,0,0:0:0:0:
349,204,38292,6,0,B|340:286|340:286|291:252,1,120.000004577637
216,188,38854,1,0,0:0:0:0:
161,48,39042,5,0,0:0:0:0:
42,66,39229,1,0,0:0:0:0:
129,8,39417,5,0,0:0:0:0:
68,111,39604,1,0,0:0:0:0:
80,200,39792,6,0,B|48:223|48:223|145:260,1,120.000004577637
241,264,40354,5,0,0:0:0:0:
241,264,40448,1,0,0:0:0:0:
241,264,40542,2,0,P|294:275|378:257,1,120.000004577637
442,179,41104,1,0,0:0:0:0:
337,120,41292,2,0,P|273:112|195:125,1,120.000004577637
120,337,42042,2,0,B|85:282|85:282|78:213,1,120.000004577637
79,227,42604,1,0,0:0:0:0:
131,118,42792,6,0,L|197:91,1,60.0000022888184
285,164,43167,2,0,L|361:184,1,60.0000022888184
414,276,43542,6,0,P|377:322|303:335,1,120.000004577637
192,133,44104,1,0,0:0:0:0:
192,133,44292,2,0,P|226:192|277:214,1,120.000004577637
438,39,45042,6,0,L|486:113,1,60.0000022888184
396,183,45417,2,0,L|374:251,1,60.0000022888184
377,240,45698,1,0,0:0:0:0:
377,240,45792,1,0,0:0:0:0:
288,320,45979,1,0,0:0:0:0:
167,320,46167,2,0,P|122:322|85:312,1,60.0000022888184
117,60,46542,6,0,L|191:78,1,60.0000022888184
290,108,46917,1,0,0:0:0:0:
395,185,47104,1,0,0:0:0:0:
395,185,47198,1,0,0:0:0:0:
395,185,47292,2,0,L|336:251,1,60.0000022888184
289,330,47667,2,0,L|217:302,1,60.0000022888184
291,105,48042,6,0,L|217:128,1,60.0000022888184
119,159,48417,1,0,0:0:0:0:
229,219,48604,1,0,0:0:0:0:
229,219,48698,1,0,0:0:0:0:
229,219,48792,2,0,L|269:298,1,60.0000022888184
327,369,49167,1,0,0:0:0:0:
421,210,49354,1,0,0:0:0:0:
421,210,49542,6,0,P|435:140|408:85,1,120.000004577637
214,61,50104,5,0,0:0:0:0:
214,61,50198,1,0,0:0:0:0:
214,61,50292,2,0,L|193:143,1,60.0000022888184
88,166,50667,2,0,L|105:81,1,60.0000022888184
222,298,51042,6,0,L|290:315,1,60.0000022888184
393,352,51417,1,0,0:0:0:0:
370,234,51604,1,0,0:0:0:0:
370,234,51698,1,0,0:0:0:0:
370,234,51792,2,0,L|409:163,1,60.0000022888184
451,73,52167,1,0,0:0:0:0:
217,68,52354,5,0,0:0:0:0:
217,68,52542,2,0,P|181:113|186:186,1,120.000004577637
353,219,53104,1,0,0:0:0:0:
353,219,53198,1,0,0:0:0:0:
353,219,53292,6,0,P|387:211|420:220,1,60.0000022888184
379,332,53667,2,0,P|341:338|297:323,1,60.0000022888184
246,273,54042,2,0,P|209:269|172:282,1,60.0000022888184
78,326,54417,1,0,0:0:0:0:
78,326,54604,1,0,0:0:0:0:
78,326,54792,2,0,P|66:268|77:192,1,120.000004577637
292,27,55542,6,0,P|313:78|294:162,1,120.000004577637
305,141,56104,1,0,0:0:0:0:
203,206,56292,2,0,P|135:220|66:192,1,120.000004577637
299,318,57042,6,0,P|354:329|431:315,2,120.000004577637
219,244,58167,1,0,0:0:0:0:
214,214,58260,1,0,0:0:0:0:
212,184,58354,1,0,0:0:0:0:
212,154,58448,1,0,0:0:0:0:
215,124,58542,6,0,P|285:110|357:131,1,120.000004577637
204,323,59292,2,0,P|141:334|67:316,1,120.000004577637
55,208,59854,1,0,0:0:0:0:
72,88,60042,2,0,P|105:58|191:29,2,120.000004577637
177,145,60979,1,0,0:0:0:0:
177,145,61167,2,0,P|215:187|240:192,1,60.0000022888184
295,96,61542,5,0,0:0:0:0:
379,180,61729,1,0,0:0:0:0:
456,109,61917,5,0,0:0:0:0:
292,183,62104,1,0,0:0:0:0:
165,46,62292,5,0,0:0:0:0:
368,97,62479,1,0,0:0:0:0:
304,34,62667,5,0,0:0:0:0:
154,180,62854,1,0,0:0:0:0:
154,180,62948,1,0,0:0:0:0:
154,180,63042,1,0,0:0:0:0:
298,307,63229,1,0,0:0:0:0:
298,307,63417,6,0,P|344:289|367:264,1,60.0000022888184
400,77,63792,2,0,L|325:114,1,60.0000022888184
297,136,64073,1,0,0:0:0:0:
297,136,64167,2,0,L|310:188,3,30.0000011444092
163,70,64542,6,0,P|140:83|121:148,1,80,2|0,0:0|0:0,0:0:0:0:
201,307,64917,2,0,P|225:286|235:214,1,80,8|0,0:0|0:0,0:0:0:0:
225,216,65198,1,0,0:0:0:0:
225,216,65292,2,0,P|277:220|328:212,1,80,2|0,0:0|0:0,0:0:0:0:
447,144,65667,1,8,0:0:0:0:
402,297,65854,1,0,0:0:0:0:
312,30,66042,6,0,P|249:32|225:50,1,80,2|0,0:0|0:0,0:0:0:0:
73,96,66417,5,8,0:0:0:0:
217,164,66604,1,0,0:0:0:0:
115,188,66792,5,2,0:0:0:0:
176,40,66979,1,0,0:0:0:0:
180,265,67167,2,0,P|213:289|227:340,1,80,8|0,0:0|0:0,0:0:0:0:
234,358,67448,1,0,0:0:0:0:
234,358,67542,2,0,P|305:369|326:363,1,80,2|0,0:0|0:0,0:0:0:0:
423,342,67917,2,0,P|426:280|417:248,1,80,8|0,0:0|0:0,0:0:0:0:
495,125,68292,6,0,P|430:113|402:124,1,80,2|0,0:0|0:0,0:0:0:0:
210,104,68667,2,0,P|165:109|130:104,1,80,8|0,0:0|0:0,0:0:0:0:
130,104,68948,1,0,0:0:0:0:
130,104,69042,1,2,0:0:0:0:
103,293,69229,1,0,0:0:0:0:
103,293,69417,2,0,P|151:301|209:286,1,80,8|0,0:0|0:0,0:0:0:0:
360,189,69792,2,0,P|302:181|260:197,1,80,2|0,0:0|0:0,0:0:0:0:
87,167,70167,1,8,0:0:0:0:
250,39,70354,1,0,0:0:0:0:
250,39,70542,6,0,P|241:79|265:138,1,80,2|0,0:0|0:0,0:0:0:0:
446,187,70917,2,0,P|388:183|358:190,1,80,8|0,0:0|0:0,0:0:0:0:
357,211,71198,1,0,0:0:0:0:
357,211,71292,2,0,P|321:221|261:207,1,80,2|0,0:0|0:0,0:0:0:0:
151,208,71667,1,8,0:0:0:0:
249,116,72042,6,0,P|269:82|382:51,2,160,2|8|2,0:0|0:0|0:0,0:0:0:0:
306,229,72979,1,0,0:0:0:0:
306,229,73167,2,0,P|262:235|196:220,1,80,8|0,0:0|0:0,0:0:0:0:
124,273,73542,6,0,P|110:230|122:183,1,80,2|0,0:0|0:0,0:0:0:0:
231,85,73917,2,0,P|239:135|227:187,1,80,8|0,0:0|0:0,0:0:0:0:
391,127,74292,2,0,P|433:117|481:131,1,80,2|0,0:0|0:0,0:0:0:0:
411,273,74667,2,0,P|370:264|316:284,1,80,8|0,0:0|0:0,0:0:0:0:
183,89,75042,5,4,0:0:0:0:
235,273,75229,1,0,0:0:0:0:
324,102,75417,1,8,0:0:0:0:
142,194,75604,1,0,0:0:0:0:
332,224,75792,1,4,0:0:0:0:
332,224,75885,1,0,0:0:0:0:
332,224,75979,1,0,0:0:0:0:
242,163,76167,5,8,0:0:0:0:
219,195,76260,1,0,0:0:0:0:
206,233,76354,1,0,0:0:0:0:
202,273,76448,1,0,0:0:0:0:
208,312,76542,6,0,L|296:339,1,80,2|0,0:0|0:0,0:0:0:0:
445,288,76917,1,8,0:0:0:0:
387,134,77104,1,0,0:0:0:0:
387,134,77198,1,0,0:0:0:0:
387,134,77292,2,0,L|307:103,1,80,2|0,0:0|0:0,0:0:0:0:
160,57,77667,2,0,L|176:140,1,80,8|0,0:0|0:0,0:0:0:0:
104,279,78042,2,0,L|84:189,1,80,2|0,0:0|0:0,0:0:0:0:
247,204,78417,2,0,L|335:188,1,80,8|0,0:0|0:0,0:0:0:0:
382,39,78792,5,2,0:0:0:0:
445,185,78979,1,0,0:0:0:0:
446,104,79167,5,8,0:0:0:0:
364,241,79354,1,0,0:0:0:0:
263,115,79542,6,0,P|217:151|204:187,1,80,2|0,0:0|0:0,0:0:0:0:
229,328,79917,2,0,P|263:303|275:263,1,80,8|0,0:0|0:0,0:0:0:0:
260,235,80198,1,0,0:0:0:0:
260,235,80292,2,0,P|209:222|167:237,1,80,2|0,0:0|0:0,0:0:0:0:
48,314,80667,2,0,P|39:245|46:212,1,80,8|0,0:0|0:0,0:0:0:0:
102,43,81042,5,2,0:0:0:0:
249,188,81229,1,0,0:0:0:0:
280,63,81417,5,8,0:0:0:0:
57,152,81604,1,0,0:0:0:0:
140,252,81792,1,2,0:0:0:0:
140,252,81885,1,0,0:0:0:0:
140,252,81979,1,0,0:0:0:0:
307,315,82167,5,8,0:0:0:0:
346,316,82260,1,0,0:0:0:0:
386,317,82354,1,0,0:0:0:0:
426,316,82448,1,0,0:0:0:0:
466,315,82542,2,0,P|479:264|459:160,1,160,4|0,0:0|0:0,0:0:0:0:
459,160,83104,1,0,0:0:0:0:
301,81,83292,2,0,P|258:72|213:84,1,80
66,130,83667,5,0,0:0:0:0:
60,169,83760,1,0,0:0:0:0:
72,206,83854,1,0,0:0:0:0:
100,235,83948,1,0,0:0:0:0:
138,247,84042,1,4,0:0:0:0:
232,248,84229,1,4,0:0:0:0:
232,248,84417,1,4,0:0:0:0:
425,319,84792,6,0,P|449:303|457:243,1,80
453,123,85167,1,0,0:0:0:0:
428,91,85260,1,0,0:0:0:0:
394,70,85354,1,0,0:0:0:0:
355,60,85448,1,0,0:0:0:0:
316,64,85542,6,0,L|285:143,1,80
245,293,85917,1,0,0:0:0:0:
133,178,86104,1,0,0:0:0:0:
133,178,86198,1,0,0:0:0:0:
133,178,86292,1,0,0:0:0:0:
286,138,86479,1,0,0:0:0:0:
136,255,86667,2,0,P|125:214|143:159,1,80
244,69,87042,6,0,L|288:142,1,80
374,271,87417,1,0,0:0:0:0:
449,130,87604,1,0,0:0:0:0:
449,130,87698,1,0,0:0:0:0:
449,130,87792,1,0,0:0:0:0:
285,137,87979,1,0,0:0:0:0:
446,50,88167,2,0,P|452:90|442:152,1,80
239,49,88542,6,0,P|196:83|201:189,1,160
314,289,89104,1,0,0:0:0:0:
314,289,89198,1,0,0:0:0:0:
314,289,89292,2,0,P|289:328|248:345,1,80
132,359,89667,2,0,P|122:310|137:263,1,80
196,172,90042,6,0,P|205:124|190:83,2,80
75,131,90604,1,0,0:0:0:0:
196,94,90792,2,0,P|233:83|284:95,1,80
388,159,91167,1,0,0:0:0:0:
388,159,91260,1,0,0:0:0:0:
388,159,91354,1,0,0:0:0:0:
303,255,91542,6,0,P|263:221|270:108,1,160
369,52,92104,1,0,0:0:0:0:
486,103,92292,1,0,0:0:0:0:
486,103,92479,1,0,0:0:0:0:
484,231,92667,5,0,0:0:0:0:
474,269,92760,1,0,0:0:0:0:
453,303,92854,1,0,0:0:0:0:
422,328,92948,1,0,0:0:0:0:
385,342,93042,2,0,P|353:351|296:343,1,80
185,304,93417,1,0,0:0:0:0:
281,219,93604,1,0,0:0:0:0:
281,219,93792,2,0,P|287:167|281:129,1,80
128,42,94167,5,0,0:0:0:0:
120,81,94260,1,0,0:0:0:0:
118,121,94354,1,0,0:0:0:0:
121,160,94448,1,0,0:0:0:0:
131,199,94542,2,0,P|186:209|215:204,1,80
401,178,94917,5,0,0:0:0:0:
356,262,95104,1,0,0:0:0:0:
317,179,95292,1,0,0:0:0:0:
273,264,95479,1,0,0:0:0:0:
231,177,95667,1,0,0:0:0:0:
185,261,95854,1,0,0:0:0:0:
99,228,96042,5,0,0:0:0:0:
99,228,96229,1,0,0:0:0:0:
58,135,96417,5,0,0:0:0:0:
58,135,96604,1,0,0:0:0:0:
123,60,96792,6,0,P|165:52|222:62,1,80
289,95,97167,1,0,0:0:0:0:
418,276,97542,6,0,P|367:283|296:275,1,120.000004577637
170,133,98292,2,0,P|165:96|173:57,1,60.0000022888184
252,119,98667,2,0,P|254:149|249:180,1,60.0000022888184
182,246,99042,2,0,P|114:253|59:244,2,120.000004577637
354,221,100167,2,0,P|355:174|348:144,1,60.0000022888184
126,97,100542,6,0,P|175:85|259:103,1,120.000004577637
242,95,101104,1,0,0:0:0:0:
327,272,101292,2,0,P|331:303|325:339,1,60.0000022888184
250,273,101667,2,0,P|242:240|254:205,1,60.0000022888184
327,161,102042,2,0,P|402:151|468:167,2,120.000004577637
236,164,103167,2,0,P|197:166|172:163,1,60.0000022888184
111,67,103542,6,0,P|156:47|232:65,1,120.000004577637
223,59,104104,1,0,0:0:0:0:
219,298,104292,2,0,B|186:309|186:309|206:268|174:224,1,120.000004577637
355,155,105042,6,0,P|351:220|358:289,1,120.000004577637
355,274,105604,1,0,0:0:0:0:
433,218,105792,2,0,P|465:193|479:172,2,60.0000022888184
355,274,106354,1,0,0:0:0:0:
407,125,106542,6,0,P|401:84|384:63,1,60.0000022888184
309,121,106917,2,0,P|288:88|265:79,1,60.0000022888184
203,149,107292,2,0,P|185:174|191:223,1,60.0000022888184
271,240,107667,2,0,P|276:284|290:301,1,60.0000022888184
375,264,108042,6,0,B|401:220|400:146|400:146|359:177|359:177|347:91,1,240.000009155274
349,111,108979,1,0,0:0:0:0:
104,98,109354,5,0,0:0:0:0:
104,98,109448,1,0,0:0:0:0:
104,98,109542,2,0,L|93:169,1,60.0000022888184
79,237,109917,1,0,0:0:0:0:
156,313,110104,1,0,0:0:0:0:
156,313,110292,6,0,P|199:318|232:311,1,60.0000022888184
310,299,110667,2,0,P|344:296|378:303,1,60.0000022888184
417,216,111042,6,0,L|500:217,2,60.0000022888184
328,177,111604,1,0,0:0:0:0:
328,177,111698,1,0,0:0:0:0:
328,177,111792,2,0,P|334:137|319:102,1,60.0000022888184
230,47,112167,2,0,P|227:102|235:118,1,60.0000022888184
63,151,112542,6,0,P|64:183|80:218,1,60.0000022888184
166,285,112917,1,0,0:0:0:0:
197,169,113104,1,0,0:0:0:0:
197,169,113198,1,0,0:0:0:0:
197,169,113292,2,0,L|271:169,1,60.0000022888184
350,93,113667,2,0,L|274:93,1,60.0000022888184
387,22,114042,6,0,P|421:52|416:142,1,120.000004577637
426,123,114604,1,0,0:0:0:0:
473,233,114792,2,0,L|432:283,1,60.0000022888184
341,355,115167,1,0,0:0:0:0:
233,304,115354,1,0,0:0:0:0:
233,304,115448,1,0,0:0:0:0:
233,304,115542,6,0,P|219:249|250:170,1,120.000004577637
426,42,116292,2,0,P|435:89|421:116,1,60.0000022888184
312,84,116667,2,0,P|276:97|246:96,1,60.0000022888184
139,133,117042,2,0,P|85:107|17:119,2,120.000004577637
230,55,117979,1,0,0:0:0:0:
230,55,118167,2,0,P|271:60|309:51,1,60.0000022888184
402,98,118542,6,0,P|414:190|398:241,1,120.000004577637
408,215,119104,1,0,0:0:0:0:
171,245,119292,2,0,P|225:236|296:246,1,120.000004577637
241,353,120042,6,0,P|201:355|156:344,1,60.0000022888184
103,268,120417,2,0,P|69:261|42:248,1,60.0000022888184
74,133,120792,2,0,P|44:91|36:67,1,60.0000022888184
156,50,121167,5,0,0:0:0:0:
185,43,121260,1,0,0:0:0:0:
215,41,121354,1,0,0:0:0:0:
244,43,121448,1,0,0:0:0:0:
274,49,121542,6,0,B|319:102|295:175|295:175|363:158|411:178,1,240.000009155274
495,270,122667,2,0,L|455:349,1,60.0000022888184
428,330,123042,2,0,P|362:300|350:246,1,120.000004577637
415,28,123792,2,0,L|356:77,1,60.0000022888184
277,144,124167,1,0,0:0:0:0:
277,144,124354,1,0,0:0:0:0:
130,77,124542,5,0,0:0:0:0:
190,291,124729,1,0,0:0:0:0:
281,70,124917,5,0,0:0:0:0:
87,182,125104,1,0,0:0:0:0:
190,41,125292,5,0,0:0:0:0:
333,212,125479,1,0,0:0:0:0:
423,99,125667,5,0,0:0:0:0:
210,166,125854,1,0,0:0:0:0:
392,13,126042,5,0,0:0:0:0:
492,212,126229,1,0,0:0:0:0:
393,336,126417,6,0,P|436:310|452:281,1,80
453,124,126792,2,0,P|402:164|396:203,1,80
453,124,127167,2,0,P|431:82|386:60,1,80
141,57,127542,6,0,P|111:88|90:154,1,80
231,205,127917,2,0,L|185:274,1,80
200,307,128198,1,0,0:0:0:0:
200,307,128292,2,0,P|253:313|299:306,1,80
439,309,128667,1,0,0:0:0:0:
439,309,128854,1,0,0:0:0:0:
488,206,129042,6,0,P|493:160|485:123,1,80
252,49,129417,5,0,0:0:0:0:
139,138,129604,1,0,0:0:0:0:
260,158,129792,5,0,0:0:0:0:
92,35,129979,1,0,0:0:0:0:
57,237,130167,2,0,P|65:295|56:329,1,80
85,343,130448,1,0,0:0:0:0:
85,343,130542,6,0,P|129:351|186:335,1,80
338,232,130917,2,0,P|293:220|237:243,1,80
443,328,131292,2,0,P|449:257|439:234,1,80
384,102,131667,2,0,P|338:94|288:109,1,80
305,100,131948,1,0,0:0:0:0:
305,100,132042,1,0,0:0:0:0:
248,249,132229,1,0,0:0:0:0:
248,249,132417,6,0,P|306:257|334:248,1,80
209,140,132792,2,0,P|157:129|117:142,1,80
56,246,133167,1,0,0:0:0:0:
152,353,133354,1,0,0:0:0:0:
152,353,133542,6,0,L|186:250,1,80
319,203,133917,2,0,L|296:288,1,80
326,295,134198,1,0,0:0:0:0:
326,295,134292,2,0,P|390:301|425:295,1,80
402,130,134667,1,0,0:0:0:0:
232,65,135042,6,0,P|187:34|78:34,2,160
187,173,135979,1,0,0:0:0:0:
187,173,136167,2,0,P|245:181|279:171,1,80
406,99,136542,6,0,P|418:164|407:198,1,80
389,334,136917,2,0,P|323:341|302:337,1,80
184,238,137292,2,0,P|240:227|274:242,1,80
121,154,137667,2,0,P|111:108|121:64,1,80
275,54,138042,5,0,0:0:0:0:
370,256,138229,1,0,0:0:0:0:
463,51,138417,5,0,0:0:0:0:
284,185,138604,1,0,0:0:0:0:
471,188,138792,1,0,0:0:0:0:
471,188,138885,1,0,0:0:0:0:
471,188,138979,1,0,0:0:0:0:
376,270,139167,5,0,0:0:0:0:
339,285,139260,1,0,0:0:0:0:
300,295,139354,1,0,0:0:0:0:
260,298,139448,1,0,0:0:0:0:
220,295,139542,6,0,P|196:268|187:207,1,80
180,67,139917,1,0,0:0:0:0:
337,90,140104,1,0,0:0:0:0:
337,90,140198,1,0,0:0:0:0:
337,90,140292,2,0,L|329:172,1,80
436,288,140667,2,0,L|450:202,1,80
478,51,141042,6,0,L|386:70,1,80
292,176,141417,2,0,L|199:153,1,80
85,61,141792,5,0,0:0:0:0:
156,203,141979,1,0,0:0:0:0:
158,123,142167,5,0,0:0:0:0:
82,263,142354,1,0,0:0:0:0:
223,313,142542,6,0,P|279:324|315:314,1,80
433,229,142917,2,0,P|439:180|433:143,1,80
413,115,143198,1,0,0:0:0:0:
413,115,143292,2,0,P|355:110|320:113,1,80
201,202,143667,2,0,P|268:205|295:192,1,80
218,52,144042,5,0,0:0:0:0:
41,160,144229,1,0,0:0:0:0:
101,62,144417,5,0,0:0:0:0:
119,268,144604,1,0,0:0:0:0:
277,131,144792,1,0,0:0:0:0:
277,131,144885,1,0,0:0:0:0:
277,131,144979,1,0,0:0:0:0:
412,130,145167,5,0,0:0:0:0:
422,168,145260,1,0,0:0:0:0:
425,208,145354,1,0,0:0:0:0:
423,248,145448,1,0,0:0:0:0:
413,287,145542,2,0,P|390:293|241:286,1,160
255,290,146104,1,0,0:0:0:0:
136,274,146292,2,0,P|130:219|135:190,1,80
195,91,146667,5,0,0:0:0:0:
234,84,146760,1,0,0:0:0:0:
274,81,146854,1,0,0:0:0:0:
314,84,146948,1,0,0:0:0:0:
353,91,147042,1,0,0:0:0:0:
440,173,147229,1,0,0:0:0:0:
440,173,147417,1,0,0:0:0:0:
440,173,147604,1,0,0:0:0:0:
431,292,147792,2,0,P|406:333|352:341,1,80
272,284,148167,5,0,0:0:0:0:
261,246,148260,1,0,0:0:0:0:
238,214,148354,1,0,0:0:0:0:
206,190,148448,1,0,0:0:0:0:
168,178,148542,6,0,P|149:123|162:82,1,80
52,35,148917,2,0,P|61:92|49:120,1,80
54,240,149292,2,0,P|50:294|63:324,1,80
181,280,149667,1,0,0:0:0:0:
181,280,149854,1,0,0:0:0:0:
348,84,150042,6,0,P|389:113|405:157,1,80
379,265,150417,2,0,P|340:246|316:197,1,80
143,62,150792,5,0,0:0:0:0:
228,196,150979,1,0,0:0:0:0:
265,40,151167,1,0,0:0:0:0:
140,139,151354,2,0,L|139:192,1,40
138,260,151542,6,0,P|159:309|187:328,1,80
338,307,151917,1,0,0:0:0:0:
338,307,152104,1,0,0:0:0:0:
412,164,152292,6,0,P|379:150|315:157,1,80
175,165,152667,1,0,0:0:0:0:
236,312,152854,1,0,0:0:0:0:
236,312,152948,1,0,0:0:0:0:
236,312,153042,6,0,P|293:272|309:235,1,80
314,155,153417,1,0,0:0:0:0:
314,154,153604,2,0,L|375:155,1,40
502,77,153792,2,0,P|447:68|408:80,1,80
463,228,154167,1,0,0:0:0:0:
336,325,154354,1,0,0:0:0:0:
336,325,154448,1,0,0:0:0:0:
336,325,154542,6,0,P|276:318|246:326,1,80
126,229,154917,1,0,0:0:0:0:
273,167,155104,1,0,0:0:0:0:
273,167,155198,1,0,0:0:0:0:
273,167,155292,2,0,P|219:162|161:176,1,80
324,72,155667,2,0,P|371:62|414:75,1,80
469,214,156042,5,0,0:0:0:0:
334,299,156229,1,0,0:0:0:0:
334,299,156323,1,0,0:0:0:0:
334,299,156417,2,0,P|317:245|338:205,1,80
401,84,156792,1,0,0:0:0:0:
243,58,156979,1,0,0:0:0:0:
243,58,157167,2,0,L|237:152,1,80
177,280,157542,6,0,P|137:285|83:273,1,80
96,118,157917,2,0,L|46:118,3,40
129,86,158292,2,0,L|190:86,3,40
189,163,158667,5,0,0:0:0:0:
205,199,158760,1,0,0:0:0:0:
222,235,158854,1,0,0:0:0:0:
238,272,158948,1,0,0:0:0:0:
255,308,159042,6,0,L|285:363,3,40
340,243,159417,6,0,L|314:200,3,40
445,225,159792,6,0,L|475:266,3,40
379,107,160167,5,0,0:0:0:0:
348,81,160260,1,0,0:0:0:0:
313,61,160354,1,0,0:0:0:0:
275,48,160448,1,0,0:0:0:0:
236,42,160542,6,0,B|166:53|166:53|190:86|158:159,1,160
138,290,161104,1,0,0:0:0:0:
138,290,161292,2,0,P|222:315|316:272,1,160
397,177,161854,1,0,0:0:0:0:
397,177,161948,1,0,0:0:0:0:
397,177,162042,6,0,L|294:176,1,80
200,66,162417,2,0,L|284:66,1,80
440,65,162792,1,0,0:0:0:0:
258,320,163167,5,0,0:0:0:0:
185,205,163354,1,0,0:0:0:0:
185,205,163448,1,0,0:0:0:0:
185,205,163542,6,0,P|250:171|331:205,1,160
457,291,164104,1,0,0:0:0:0:
457,291,164292,2,0,P|468:232|459:105,1,160
343,32,164948,1,0,0:0:0:0:
323,40,165042,2,0,P|317:76|332:140,1,80
314,278,165417,2,0,P|260:285|211:273,1,80
77,253,165792,2,0,P|67:221|87:142,1,80
184,62,166167,5,0,0:0:0:0:
223,59,166260,1,0,0:0:0:0:
263,58,166354,1,0,0:0:0:0:
303,59,166448,1,0,0:0:0:0:
343,61,166542,6,0,P|352:119|342:164,1,80
210,219,166917,5,0,0:0:0:0:
271,366,167104,1,0,0:0:0:0:
312,199,167292,5,0,0:0:0:0:
209,321,167479,1,0,0:0:0:0:
76,156,167667,5,0,0:0:0:0:
138,302,167854,1,0,0:0:0:0:
186,160,168042,5,0,0:0:0:0:
68,267,168229,1,0,0:0:0:0:
213,79,168417,5,0,0:0:0:0:
283,222,168604,1,0,0:0:0:0:
353,24,168792,5,0,0:0:0:0:
265,157,168979,1,0,0:0:0:0:
405,145,169167,5,0,0:0:0:0:
414,183,169260,1,0,0:0:0:0:
418,223,169354,1,0,0:0:0:0:
417,263,169448,1,0,0:0:0:0:
409,302,169542,6,0,P|372:309|304:297,1,80
187,232,169917,2,0,P|122:225|85:243,1,80
58,322,170292,5,0,0:0:0:0:
130,127,170479,1,0,0:0:0:0:
271,321,170667,5,0,0:0:0:0:
56,215,170854,1,0,0:0:0:0:
274,114,171042,5,0,0:0:0:0:
256,192,171135,12,0,172542,0:0:0:0:
290,122,178354,5,0,0:0:0:0:
290,122,178542,2,0,P|338:112|411:122,1,120.000004577637
262,247,179292,6,0,P|225:237|128:250,1,120.000004577637
42,285,180042,6,0,B|46:249|31:223|31:223|46:197|40:145,2,120.000004577637
158,101,181167,1,0,0:0:0:0:
310,97,181542,6,0,B|342:128|346:172|346:172|378:108|378:108|401:162|449:174,1,240.000009155274
402,274,182667,1,0,0:0:0:0:
402,274,183042,6,0,B|350:353|350:353|301:272|210:287,1,240.000009155274
113,99,184354,5,0,0:0:0:0:
113,99,184448,1,0,0:0:0:0:
113,99,184542,2,0,P|101:158|104:177,1,60.0000022888184
136,246,184917,2,0,P|170:250|213:246,1,60.0000022888184
269,187,185292,2,0,P|311:186|334:187,1,60.0000022888184
413,232,185667,2,0,P|422:191|414:165,1,60.0000022888184
370,90,186042,6,0,P|335:76|305:73,1,60.0000022888184
248,144,186417,2,0,P|227:141|176:153,1,60.0000022888184
217,239,186792,2,0,P|194:254|171:289,1,60.0000022888184
255,327,187167,2,0,P|268:364|285:383,1,60.0000022888184
388,257,187542,5,0,0:0:0:0:
331,153,187917,1,0,0:0:0:0:
208,182,188292,1,0,0:0:0:0:
135,87,188667,1,0,0:0:0:0:
92,306,189042,6,0,P|137:327|158:328,1,60.0000022888184
208,254,189417,2,0,P|256:255|282:247,1,60.0000022888184
303,163,189792,2,0,P|355:153|366:146,1,60.0000022888184
443,101,190167,1,0,0:0:0:0:
443,101,190354,1,0,0:0:0:0:
443,101,190542,6,0,P|452:180|446:233,1,120.000004577637
412,308,191104,1,0,0:0:0:0:
412,308,191292,2,0,P|352:323|283:307,1,120.000004577637
212,266,191854,1,0,0:0:0:0:
212,266,191948,1,0,0:0:0:0:
212,266,192042,2,0,L|204:181,1,60.0000022888184
198,110,192417,2,0,L|261:110,1,60.0000022888184
354,111,192792,1,0,0:0:0:0:
354,111,192979,1,0,0:0:0:0:
382,203,193167,5,0,0:0:0:0:
381,232,193260,1,0,0:0:0:0:
371,261,193354,1,0,0:0:0:0:
354,285,193448,1,0,0:0:0:0:
330,303,193542,2,0,P|286:313|257:307,1,60.0000022888184
183,272,193917,5,0,0:0:0:0:
187,176,194104,1,0,0:0:0:0:
108,231,194292,1,0,0:0:0:0:
100,135,194479,1,0,0:0:0:0:
26,197,194667,1,0,0:0:0:0:
16,101,194854,1,0,0:0:0:0:
16,101,194948,1,0,0:0:0:0:
16,101,195042,2,0,L|87:101,1,60.0000022888184
370,67,197292,6,0,L|361:135,1,60.0000022888184
361,222,197667,2,0,L|324:273,1,60.0000022888184
237,308,198042,2,0,L|166:309,2,60.0000022888184
328,278,198604,1,0,0:0:0:0:
262,207,198792,6,0,L|188:207,1,60.0000022888184
245,120,199167,2,0,L|321:120,1,60.0000022888184
400,105,199542,5,0,0:0:0:0:
371,196,199729,1,0,0:0:0:0:
466,185,199917,1,0,0:0:0:0:
436,275,200104,1,0,0:0:0:0:
343,302,200292,6,0,L|266:301,1,60.0000022888184
242,214,200667,2,0,L|330:214,1,60.0000022888184
272,122,201042,2,0,L|198:122,2,60.0000022888184
368,122,201604,1,0,0:0:0:0:
308,197,201792,2,0,L|271:265,1,60.0000022888184
225,329,202167,2,0,L|191:274,1,60.0000022888184
122,212,202542,1,0,0:0:0:0:
117,307,202729,1,0,0:0:0:0:
43,244,202917,1,0,0:0:0:0:
34,339,203104,1,0,0:0:0:0:
117,307,203292,6,0,P|180:298|228:250,1,120.000004577637
233,166,203854,1,0,0:0:0:0:
233,166,204042,2,0,P|285:152|371:175,1,120.000004577637
356,273,204792,2,0,P|381:320|463:335,2,120.000004577637
446,239,205729,1,0,0:0:0:0:
446,239,205917,2,0,L|446:158,1,60.0000022888184
407,90,206292,6,0,P|365:57|333:51,1,60.0000022888184
269,89,206667,2,0,P|302:133|321:132,1,60.0000022888184
340,220,207042,2,0,P|348:244|341:291,1,60.0000022888184
283,351,207417,2,0,P|266:326|264:292,1,60.0000022888184
224,208,207792,6,0,B|173:201|160:146|160:146|119:228|25:200,1,240.000009155274
39,203,208729,1,0,0:0:0:0:
44,105,208917,2,0,P|65:63|82:52,1,60.0000022888184
408,78,209292,6,0,P|394:107|351:127,1,60.0000022888184
376,216,209667,2,0,P|334:245|299:244,1,60.0000022888184
249,188,210042,2,0,P|211:203|196:225,2,60.0000022888184
326,246,210604,1,0,0:0:0:0:
388,319,210792,6,0,P|428:317|451:302,1,60.0000022888184
438,211,211167,2,0,P|469:182|475:164,1,60.0000022888184
405,99,211542,5,0,0:0:0:0:
310,113,211729,1,0,0:0:0:0:
348,22,211917,1,0,0:0:0:0:
253,39,212104,1,0,0:0:0:0:
162,70,212292,6,0,P|130:99|125:115,1,60.0000022888184
145,208,212667,2,0,P|143:231|112:265,1,60.0000022888184
209,300,213042,2,0,P|246:303|272:301,2,60.0000022888184
258,217,213604,1,0,0:0:0:0:
353,205,213792,2,0,P|404:184|452:120,1,120.000004577637
445,135,214354,1,0,0:0:0:0:
470,42,214542,2,0,L|410:42,1,60.0000022888184
313,46,214917,1,0,0:0:0:0:
313,46,215104,1,0,0:0:0:0:
161,301,215292,6,0,P|142:267|137:175,1,120.000004577637,4|0,0:0|0:0,0:0:0:0:
163,95,215854,1,0,0:0:0:0:
163,95,216042,2,0,P|183:85|235:84,1,60.0000022888184,4|0,0:0|0:0,0:0:0:0:
256,177,216417,5,0,0:0:0:0:
285,176,216510,1,0,0:0:0:0:
315,175,216604,1,0,0:0:0:0:
345,175,216698,1,0,0:0:0:0:
375,174,216792,1,8,0:0:0:0:
424,292,216979,1,8,0:0:0:0:
501,108,217167,6,0,P|460:60|416:52,1,80,8|0,0:0|0:0,0:0:0:0:
305,131,217542,2,0,P|257:127|211:132,1,80
66,108,217917,2,0,L|56:53,3,40
84,196,218292,6,0,P|94:246|126:279,1,80,2|0,0:0|0:0,0:0:0:0:
233,308,218667,2,0,P|277:315|320:311,1,80,8|0,0:0|0:0,0:0:0:0:
335,294,218948,1,0,0:0:0:0:
335,294,219042,2,0,P|350:237|342:210,1,80,2|0,0:0|0:0,0:0:0:0:
254,85,219417,2,0,P|249:146|264:171,1,80,8|0,0:0|0:0,0:0:0:0:
408,110,219792,2,0,P|365:116|320:104,1,80,2|0,0:0|0:0,0:0:0:0:
178,54,220167,5,8,0:0:0:0:
160,252,220354,1,0,0:0:0:0:
219,175,220542,5,2,0:0:0:0:
56,290,220729,1,0,0:0:0:0:
56,128,220917,6,0,P|103:104|131:100,1,80,8|0,0:0|0:0,0:0:0:0:
151,132,221198,1,0,0:0:0:0:
151,132,221292,2,0,P|198:138|257:131,1,80,2|0,0:0|0:0,0:0:0:0:
419,98,221667,2,0,P|427:148|425:181,1,80,8|0,0:0|0:0,0:0:0:0:
357,357,222042,2,0,P|332:352|289:313,1,80,2|0,0:0|0:0,0:0:0:0:
233,133,222417,2,0,P|189:165|183:205,1,80,8|0,0:0|0:0,0:0:0:0:
182,187,222698,1,0,0:0:0:0:
182,187,222792,1,2,0:0:0:0:
373,197,222979,1,0,0:0:0:0:
373,197,223167,6,0,P|374:140|371:109,1,80,8|0,0:0|0:0,0:0:0:0:
201,27,223542,2,0,P|270:24|291:29,1,80,2|0,0:0|0:0,0:0:0:0:
362,39,223917,1,8,0:0:0:0:
467,198,224104,1,0,0:0:0:0:
467,198,224292,6,0,P|471:245|464:296,1,80,2|0,0:0|0:0,0:0:0:0:
364,168,224667,2,0,P|366:205|362:262,1,80,8|0,0:0|0:0,0:0:0:0:
357,279,224948,1,0,0:0:0:0:
357,279,225042,2,0,P|326:286|255:266,1,80,2|0,0:0|0:0,0:0:0:0:
218,130,225417,1,8,0:0:0:0:
77,190,225792,6,0,P|49:239|83:350,2,160,2|8|2,0:0|0:0|0:0,0:0:0:0:
219,262,226729,1,0,0:0:0:0:
219,262,226917,2,0,P|280:226|294:200,1,80,8|0,0:0|0:0,0:0:0:0:
353,75,227292,6,0,P|387:90|411:136,1,80,2|0,0:0|0:0,0:0:0:0:
416,290,227667,2,0,P|416:227|443:199,1,80,8|0,0:0|0:0,0:0:0:0:
353,75,228042,2,0,P|314:66|248:88,1,80,2|0,0:0|0:0,0:0:0:0:
223,213,228417,2,0,P|273:222|312:208,1,80,8|0,0:0|0:0,0:0:0:0:
44,86,228792,5,2,0:0:0:0:
93,303,228979,1,0,0:0:0:0:
175,90,229167,5,8,0:0:0:0:
7,237,229354,1,0,0:0:0:0:
231,221,229542,1,2,0:0:0:0:
231,221,229635,1,0,0:0:0:0:
231,221,229729,1,0,0:0:0:0:
389,294,229917,5,8,0:0:0:0:
414,263,230010,1,0,0:0:0:0:
430,226,230104,1,0,0:0:0:0:
435,187,230198,1,0,0:0:0:0:
430,147,230292,6,0,P|391:113|270:105,1,160
185,242,230854,1,0,0:0:0:0:
185,242,230948,1,0,0:0:0:0:
185,242,231042,2,0,P|215:269|239:320,1,80
337,160,231417,6,0,P|335:206|355:255,1,80
412,299,231698,1,0,0:0:0:0:
433,298,231792,2,0,P|443:255|422:197,1,80
376,71,232167,6,0,P|328:41|291:37,1,80
212,167,232542,2,0,P|180:190|121:191,2,80
114,39,233104,1,0,0:0:0:0:
114,39,233198,1,0,0:0:0:0:
114,39,233292,6,0,P|106:105|119:131,1,80
212,239,233667,2,0,P|267:201|279:169,1,80
385,76,234042,2,0,P|450:81|471:98,1,80
405,238,234417,2,0,P|414:185|405:150,1,80
408,159,234698,1,0,0:0:0:0:
408,159,234792,5,0,0:0:0:0:
206,203,234979,1,0,0:0:0:0:
294,162,235167,5,0,0:0:0:0:
91,118,235354,1,0,0:0:0:0:
222,125,235542,5,0,0:0:0:0:
21,160,235729,1,0,0:0:0:0:
292,62,235917,5,0,0:0:0:0:
300,101,236010,1,0,0:0:0:0:
304,140,236104,1,0,0:0:0:0:
303,180,236198,1,0,0:0:0:0:
298,220,236292,6,0,P|221:228|213:224,1,80
158,81,236667,2,0,P|158:144|162:165,1,80
69,292,237042,2,0,P|67:227|69:198,1,80
158,81,237417,2,0,P|198:73|245:85,1,80
427,197,237792,6,0,P|430:229|407:290,1,80
329,147,238167,2,0,P|333:172|322:230,1,80
239,361,238542,5,0,0:0:0:0:
171,216,238729,1,0,0:0:0:0:
325,225,238917,1,0,0:0:0:0:
185,303,239104,1,0,0:0:0:0:
185,303,239198,1,0,0:0:0:0:
185,303,239292,2,0,P|131:305|85:298,1,80
67,146,239667,5,0,0:0:0:0:
270,238,239854,1,0,0:0:0:0:
332,143,240042,5,0,0:0:0:0:
122,220,240229,1,0,0:0:0:0:
209,131,240417,5,0,0:0:0:0:
419,205,240604,1,0,0:0:0:0:
419,205,240698,1,0,0:0:0:0:
419,205,240792,2,0,P|421:243|415:319,1,80
195,271,241167,2,0,P|271:273|300:269,1,80
270,48,241542,5,0,0:0:0:0:
94,186,241729,1,0,0:0:0:0:
315,151,241917,1,0,0:0:0:0:
105,72,242104,1,0,0:0:0:0:
81,303,242292,6,0,P|112:313|175:311,2,80
94,186,242854,1,0,0:0:0:0:
94,186,243042,6,0,P|56:166|-12:167,1,80
219,222,243417,2,0,P|222:156|216:122,1,80
227,114,243698,1,0,0:0:0:0:
227,114,243792,6,0,P|281:109|329:133,1,80
352,269,244167,1,0,0:0:0:0:
352,269,244542,2,0,L|355:360,1,80
465,280,244917,5,0,0:0:0:0:
474,241,245010,1,0,0:0:0:0:
477,201,245104,1,0,0:0:0:0:
474,161,245198,1,0,0:0:0:0:
464,122,245292,6,0,P|439:75|403:54,1,80
234,21,245667,5,0,0:0:0:0:
283,238,245854,1,0,0:0:0:0:
312,92,246042,5,0,0:0:0:0:
180,272,246229,1,0,0:0:0:0:
212,133,246417,5,0,0:0:0:0:
297,339,246604,1,0,0:0:0:0:
297,339,246698,1,0,0:0:0:0:
297,339,246792,1,0,0:0:0:0:
407,172,246979,5,0,0:0:0:0:
106,172,247167,1,0,0:0:0:0:
324,42,247542,6,0,P|260:57|241:81,1,80
323,154,247917,5,0,0:0:0:0:
329,193,248010,1,0,0:0:0:0:
330,233,248104,1,0,0:0:0:0:
327,273,248198,1,0,0:0:0:0:
318,312,248292,6,0,P|257:320|214:306,1,80
104,230,248667,1,0,0:0:0:0:
248,162,248854,1,0,0:0:0:0:
248,162,248948,1,0,0:0:0:0:
248,162,249042,1,0,0:0:0:0:
240,316,249229,1,0,0:0:0:0:
173,173,249417,2,0,P|203:159|269:178,1,80
444,86,249792,6,0,P|459:132|445:171,1,80
400,313,250167,1,0,0:0:0:0:
291,195,250354,1,0,0:0:0:0:
291,195,250448,1,0,0:0:0:0:
291,195,250542,1,0,0:0:0:0:
451,161,250729,1,0,0:0:0:0:
326,262,250917,2,0,P|297:225|290:170,1,80
242,40,251292,6,0,P|194:42|141:139,1,160
297,157,251854,1,0,0:0:0:0:
297,157,251948,1,0,0:0:0:0:
297,157,252042,2,0,P|301:228|293:262,1,80
139,235,252417,2,0,P|196:224|235:238,1,80
349,318,252792,6,0,P|411:325|440:317,2,80
382,161,253354,1,0,0:0:0:0:
382,161,253542,2,0,P|336:167|274:153,1,80
163,83,253917,2,0,P|213:72|264:91,1,80
211,235,254292,6,0,P|212:299|103:321,1,160
62,193,254854,1,0,0:0:0:0:
178,82,255042,2,0,P|225:73|277:91,1,80
366,195,255417,2,0,P|372:132|363:108,1,80
502,31,255792,2,0,P|495:79|507:120,1,80
512,258,256167,2,0,P|516:297|494:349,1,80
348,176,256542,5,0,0:0:0:0:
314,380,256729,1,0,0:0:0:0:
438,213,256917,5,0,0:0:0:0:
242,283,257104,1,0,0:0:0:0:
179,84,257292,6,0,B|171:136|171:136|208:114|282:155,1,160
430,182,257854,1,0,0:0:0:0:
430,182,257948,1,0,0:0:0:0:
430,182,258042,2,0,P|372:232|343:238,1,80
215,273,258417,2,0,P|261:302|312:310,1,80
317,322,258698,1,0,0:0:0:0:
317,322,258792,6,0,L|331:231,1,80
295,86,259167,2,0,L|281:170,1,80
125,200,259542,1,0,0:0:0:0:
125,200,259635,1,0,0:0:0:0:
125,200,259729,1,0,0:0:0:0:
216,67,259917,5,0,0:0:0:0:
255,58,260010,1,0,0:0:0:0:
294,56,260104,1,0,0:0:0:0:
334,58,260198,1,0,0:0:0:0:
373,67,260292,6,0,P|380:122|376:155,1,80
372,306,260667,1,0,0:0:0:0:
237,220,260854,1,0,0:0:0:0:
237,220,260948,1,0,0:0:0:0:
237,220,261042,1,0,0:0:0:0:
386,164,261229,1,0,0:0:0:0:
231,140,261417,2,0,P|233:205|240:229,1,80
119,328,261792,6,0,P|114:273|119:232,1,80
156,93,262167,1,0,0:0:0:0:
265,209,262354,1,0,0:0:0:0:
265,209,262448,1,0,0:0:0:0:
265,209,262542,1,0,0:0:0:0:
110,248,262729,1,0,0:0:0:0:
263,293,262917,2,0,P|271:251|258:187,1,80
305,58,263292,6,0,B|346:38|346:38|364:157,1,160
394,302,263854,1,0,0:0:0:0:
394,302,263948,1,0,0:0:0:0:
394,302,264042,2,0,P|433:278|451:239,1,80
441,88,264417,2,0,P|411:131|412:162,1,80
261,214,264792,6,0,P|253:168|270:118,2,80
171,365,265354,1,0,0:0:0:0:
79,218,265542,2,0,P|71:173|89:117,1,80
179,32,265917,1,0,0:0:0:0:
179,32,266010,1,0,0:0:0:0:
179,32,266104,1,0,0:0:0:0:
338,50,266292,6,0,L|387:132,1,80
246,196,266667,1,0,0:0:0:0:
385,273,266854,6,0,P|374:286|298:333,1,80
246,196,267229,1,0,0:0:0:0:
152,326,267417,6,0,P|121:309|102:249,1,80
246,196,267792,1,0,0:0:0:0:
110,111,267979,6,0,P|115:83|179:66,1,80
246,196,268354,1,0,0:0:0:0:
246,196,268542,6,0,P|277:207|345:185,1,80
442,90,268917,2,0,P|421:83|333:111,1,80
75,47,269292,5,2,0:0:0:0:
148,188,269479,1,0,0:0:0:0:
131,103,269667,5,2,0:0:0:0:
87,256,269854,1,0,0:0:0:0:
61,181,270042,5,2,0:0:0:0:
153,310,270229,1,0,0:0:0:0:
181,223,270417,5,2,0:0:0:0:
79,346,270604,1,0,0:0:0:0:
195,77,270792,5,2,0:0:0:0:
313,247,270979,1,0,0:0:0:0:
323,123,271167,5,2,0:0:0:0:
223,304,271354,1,0,0:0:0:0:
245,156,271542,5,2,0:0:0:0:
338,341,271729,1,0,0:0:0:0:
384,43,271917,5,2,0:0:0:0:
313,247,272104,1,4,0:0:0:0:
