osu file format v14

[General]
AudioFilename: audio_little.mp3
AudioLeadIn: 0
PreviewTime: 46250
Countdown: 0
SampleSet: Soft
StackLeniency: 0.2
Mode: 0
LetterboxInBreaks: 0
WidescreenStoryboard: 0

[Editor]
Bookmarks: 46555
DistanceSpacing: 2.7
BeatDivisor: 4
GridSize: 4
TimelineZoom: 1

[Metadata]
Title:Little Adventure
TitleUnicode:リトルアドベンチャー
Artist:Mimi (CV: Hidaka Rina), Misogi (CV: Morohoshi Sumire), Kyouka (CV: Ogura Yui)
ArtistUnicode:ミミ (CV: 日高里菜), ミソギ (CV: 諸星すみれ), キョウカ (CV: 小倉唯)
Creator:Riana
Version:Little Lyrical
Source:プリンセスコネクト!Re:Dive
Tags:プリコネR princess connect redive 全ストーリーイベント エンディングテーマ ed ending priconne character song 05 japanese video game cygames リトル リリカル アドベンチャーズ リトル・リリカル・アドベンチャーズ lyrical adventures japanese video game never_log_off mimari left island 23456789 miyohashikoori
BeatmapID:2071740
BeatmapSetID:974356

[Difficulty]
HPDrainRate:6
CircleSize:3.8
OverallDifficulty:9
ApproachRate:9.5
SliderMultiplier:1.7
SliderTickRate:1

[Events]
//Background and Video events
Video,0,"Little_Adventure.mp4"
0,0,"4554454545.jpg",0,0
//Break Periods
//Storyboard Layer 0 (Background)
//Storyboard Layer 1 (Fail)
//Storyboard Layer 2 (Pass)
//Storyboard Layer 3 (Foreground)
//Storyboard Layer 4 (Overlay)
//Storyboard Sound Samples

[TimingPoints]
1555,405.405405405405,4,2,2,60,1,0
2365,-66.6666666666667,4,2,2,80,0,0
3379,-66.6666666666667,4,2,2,60,0,0
3987,-50,4,2,2,80,0,0
5203,-50,4,2,2,60,0,0
5609,-66.6666666666667,4,2,2,80,0,0
6622,-50,4,2,2,85,0,0
6723,-50,4,2,2,5,0,0
6825,-50,4,2,2,85,0,0
6926,-50,4,2,2,5,0,0
7027,-50,4,2,2,85,0,0
7129,-50,4,2,2,5,0,0
7230,-50,4,2,2,85,0,0
7332,-50,4,2,2,5,0,0
7433,-50,4,2,2,75,0,0
8041,-66.6666666666667,4,2,2,90,0,0
10473,-50,4,2,2,90,0,0
11284,-66.6666666666667,4,2,2,90,0,0
13919,-50,4,2,2,90,0,0
14325,-66.6666666666667,4,2,2,90,0,0
15541,-50,4,2,2,90,0,0
15946,-66.6666666666667,4,2,2,90,0,0
17163,-50,4,2,2,90,0,0
17568,-66.6666666666667,4,2,2,90,0,0
17771,-58.8235294117647,4,2,2,90,0,0
18582,-76.9230769230769,4,2,2,90,0,0
19392,-50,4,2,2,90,0,0
21014,-66.6666666666667,4,2,2,70,0,0
21825,-83.3333333333333,4,2,2,70,0,0
23041,-66.6666666666667,4,2,2,70,0,0
23446,-83.3333333333333,4,2,2,70,0,0
24663,-66.6666666666667,4,2,2,70,0,0
25068,-83.3333333333333,4,2,2,70,0,0
27095,-66.6666666666667,4,2,2,75,0,0
30744,-60.6060606060606,4,2,2,75,0,0
32365,-50,4,2,2,80,0,0
33886,-66.6666666666667,4,2,2,75,0,0
43717,-66.6666666666667,4,2,2,70,0,0
44527,-80,4,2,2,85,0,0
44832,-57.1428571428571,4,2,2,85,0,0
45136,-66.6666666666667,4,2,2,85,0,0
45744,-76.9230769230769,4,2,2,80,0,0
46960,-50,4,2,2,100,0,1
49392,-66.6666666666667,4,2,2,100,0,1
49798,-50,4,2,2,100,0,1
50203,-133.333333333333,4,2,2,100,0,1
50609,-66.6666666666667,4,2,2,100,0,1
50811,-50,4,2,2,100,0,1
53446,-66.6666666666667,4,2,2,90,0,0
58514,-50,4,2,2,90,0,0
59933,-50,4,2,2,100,0,1
62365,-66.6666666666667,4,2,2,100,0,1
62771,-50,4,2,2,100,0,1
63176,-133.333333333333,4,2,2,100,0,1
63582,-66.6666666666667,4,2,2,100,0,1
63784,-50,4,2,2,100,0,1
66419,-50,4,2,2,90,0,0
71487,-66.6666666666667,4,2,2,60,0,0
72095,-50,4,2,2,80,0,0
72906,-50,4,2,2,60,0,0
73717,-66.6666666666667,4,2,2,80,0,0
74730,-66.6666666666667,4,2,2,60,0,0
75338,-50,4,2,2,80,0,0
76554,-50,4,2,2,60,0,0
76960,-66.6666666666667,4,2,2,80,0,0
77973,-50,4,2,2,85,0,0
78075,-50,4,2,2,5,0,0
78176,-50,4,2,2,85,0,0
78277,-50,4,2,2,5,0,0
78379,-50,4,2,2,85,0,0
78480,-50,4,2,2,5,0,0
78582,-50,4,2,2,85,0,0
78683,-50,4,2,2,5,0,0
78987,-50,4,2,2,85,0,0
79088,-50,4,2,2,5,0,0
79190,-50,4,2,2,85,0,0
79291,-50,4,2,2,5,0,0
79392,-50,4,2,2,85,0,0
79494,-50,4,2,2,5,0,0
79595,-50,4,2,2,85,0,0
79696,-50,4,2,2,5,0,0

[Colours]
Combo1 : 255,168,125
Combo2 : 255,215,255
Combo3 : 255,187,221

[HitObjects]
480,200,1555,5,2,1:2:0:0:
480,200,1960,1,2,1:2:0:0:
480,200,2365,2,0,P|475:125|402:73,1,127.500004863739,2|0,1:0|0:0,0:0:0:0:
366,128,2669,6,0,P|299:94|218:132,1,127.500004863739,2|0,1:0|0:0,0:0:0:0:
236,189,2973,6,0,P|174:230|166:320,1,127.500004863739,2|0,1:0|0:0,0:0:0:0:
335,354,3379,6,0,L|201:370,2,127.500004863739,2|2|2,0:0|0:0|0:0,0:0:0:0:
457,186,3987,6,0,P|394:233|209:126,1,255,2|0,1:0|0:0,0:0:0:0:
224,283,4392,2,0,P|155:181|32:174,1,255,2|0,1:0|0:0,0:0:0:0:
108,76,4798,5,2,1:2:0:0:
108,76,5203,5,2,1:2:0:0:
108,76,5609,6,0,P|154:126|154:206,1,127.500004863739,2|0,1:0|0:0,0:0:0:0:
253,170,5913,6,0,P|233:234|164:274,1,127.500004863739,2|0,1:0|0:0,0:0:0:0:
238,343,6217,6,0,P|172:357|103:317,1,127.500004863739,2|0,1:0|0:0,0:0:0:0:
253,170,6622,6,0,P|235:190|262:175,1,85,2|0,1:0|0:0,0:0:0:0:
344,222,6825,6,0,P|358:245|352:215,1,85,2|0,1:0|0:0,0:0:0:0:
410,142,7027,6,0,P|436:135|405:132,1,85,2|0,1:0|0:0,0:0:0:0:
368,46,7230,6,0,P|370:19|357:46,1,85,2|0,1:0|0:0,0:0:0:0:
95,0,7433,5,2,1:2:0:0:
42,62,7534,1,2,1:2:0:0:
80,128,7636,1,2,1:2:0:0:
52,187,7737,1,2,1:2:0:0:
73,234,7838,1,2,1:2:0:0:
58,279,7940,1,2,1:2:0:0:
89,381,8041,6,0,P|105:291|208:294,1,191.250007295609,4|0,1:2|0:2,0:2:0:0:
275,301,8446,2,0,P|216:225|250:154,1,127.500004863739,8|0,0:2|0:2,0:2:0:0:
386,89,8750,5,0,0:2:0:0:
367,40,8852,2,0,P|293:12|243:38,1,127.500004863739,0|0,1:2|0:2,0:2:0:0:
84,98,9257,2,0,P|158:126|208:100,1,127.500004863739,8|0,0:2|0:2,0:2:0:0:
367,40,9663,6,0,P|309:112|358:236,1,191.250007295609,4|0,1:2|0:2,0:2:0:0:
395,150,10068,2,0,P|331:124|309:133,1,63.7500024318696,8|0,0:2|0:2,0:2:0:0:
273,74,10271,2,0,P|218:116|215:139,1,63.7500024318696,0|0,0:2|0:2,0:2:0:0:
150,157,10473,1,0,1:2:0:0:
29,64,10676,6,0,P|82:65|134:128,1,85,0|0,0:2|0:2,0:2:0:0:
5,202,10879,2,0,P|-19:166|36:61,1,170,8|0,0:2|0:2,0:2:0:0:
116,345,11284,6,0,P|175:271|278:274,1,191.250007295609,4|0,1:2|0:2,0:2:0:0:
406,292,11690,1,8,0:2:0:0:
361,269,11791,2,0,P|333:225|340:169,1,63.7500024318696,0|0,0:2|0:2,0:2:0:0:
356,70,11994,5,0,0:2:0:0:
405,89,12095,2,0,P|433:163|407:213,1,127.500004863739,0|0,1:2|0:2,0:2:0:0:
251,183,12500,1,8,0:2:0:0:
251,183,12703,5,0,1:2:0:0:
181,220,12804,1,0,1:2:0:0:
152,294,12906,2,0,P|53:307|-1:257,1,127.500004863739,6|0,1:2|0:2,0:2:0:0:
35,114,13210,2,0,P|92:194|75:266,1,127.500004863739,2|0,1:2|0:2,0:2:0:0:
250,384,13514,6,0,P|254:303|341:248,1,191.250007295609,2|0,1:2|0:2,0:2:0:0:
168,138,13919,6,0,P|169:85|232:33,1,85,0|0,1:2|0:2,0:2:0:0:
315,85,14122,2,0,P|317:127|298:165,1,85,8|0,0:2|0:2,0:2:0:0:
142,284,14325,5,0,1:2:0:0:
177,353,14426,1,0,1:2:0:0:
250,384,14527,2,0,P|313:371|346:335,1,63.7500024318696,4|0,1:2|0:2,0:2:0:0:
414,384,14730,2,0,P|434:322|419:276,1,63.7500024318696,0|0,0:2|0:2,0:2:0:0:
510,230,14933,2,0,P|468:153|397:141,1,127.500004863739,8|0,0:2|0:2,0:2:0:0:
359,94,15338,5,0,1:0:0:0:
359,94,15440,1,0,0:0:0:0:
430,43,15541,2,0,P|388:9|308:24,1,85,0|0,0:2|0:2,0:2:0:0:
282,136,15744,2,0,P|312:164|354:174,1,85,8|0,0:2|0:2,0:2:0:0:
361,260,15946,2,0,P|405:244|442:184,1,63.7500024318696,0|0,0:2|0:2,0:2:0:0:
282,326,16149,6,0,P|222:302|195:261,1,63.7500024318696,4|0,1:2|0:2,0:2:0:0:
114,285,16352,2,0,P|104:221|127:178,1,63.7500024318696,0|0,0:2|0:2,0:2:0:0:
50,132,16554,2,0,P|104:63|176:63,1,127.500004863739,8|0,0:2|0:2,0:2:0:0:
281,137,16960,5,0,1:2:0:0:
281,137,17061,1,0,0:2:0:0:
349,91,17163,2,0,P|366:141|324:211,1,85,0|0,0:2|0:2,0:2:0:0:
212,192,17365,2,0,P|195:153|200:111,1,85,8|0,0:2|0:2,0:2:0:0:
139,56,17568,2,0,P|179:31|249:42,1,63.7500024318696,0|0,0:2|0:2,0:2:0:0:
288,251,17771,6,0,P|208:283|153:260,1,144.500002756119,4|0,1:2|0:2,0:2:0:0:
0,170,18075,1,0,0:2:0:0:
78,159,18176,2,0,P|138:202|81:370,1,216.750004134178,8|0,0:2|0:2,0:2:0:0:
46,370,18582,6,0,P|110:344|207:412,1,165.749992412568,0|0,1:2|0:2,0:2:0:0:
248,321,18987,1,8,0:2:0:0:
374,158,19190,5,0,1:2:0:0:
454,128,19291,1,0,1:2:0:0:
512,190,19392,6,0,P|420:208|374:104,1,170,6|0,1:2|0:2,0:2:0:0:
399,299,19696,2,0,P|318:278|247:321,1,170,2|0,1:2|0:2,0:2:0:0:
192,183,20000,2,0,P|61:102|73:-9,1,255,2|0,1:2|0:2,0:2:0:0:
61,16,20406,6,0,P|81:87|68:131,1,85,0|0,1:2|0:2,0:2:0:0:
110,215,20609,1,8,0:2:0:0:
110,215,20811,5,0,1:2:0:0:
110,215,20913,1,0,1:2:0:0:
192,183,21014,5,4,1:2:0:0:
283,93,21217,1,2,0:2:0:0:
333,108,21318,1,0,0:2:0:0:
397,56,21419,6,0,L|483:43,1,63.7500024318696,10|0,0:2|0:2,0:2:0:0:
449,128,21622,2,0,L|535:115,1,63.7500024318696,2|0,0:2|0:2,0:2:0:0:
264,186,21825,6,0,P|257:141|289:87,1,101.999996887207,0|0,1:2|0:2,0:2:0:0:
344,251,22230,1,8,0:2:0:0:
344,251,22433,1,0,0:2:0:0:
205,314,22636,2,0,P|148:285|118:231,1,101.999996887207,0|2,1:2|0:2,0:2:0:0:
103,19,22940,5,0,0:2:0:0:
181,59,23041,2,0,L|190:126,1,63.7500024318696,10|0,0:2|0:2,0:2:0:0:
101,106,23244,2,0,L|110:173,1,63.7500024318696,2|0,0:2|0:2,0:2:0:0:
111,295,23446,6,0,P|161:289|224:346,1,101.999996887207,0|0,1:2|0:2,0:2:0:0:
352,266,23852,1,8,0:2:0:0:
352,266,23953,1,0,0:2:0:0:
352,266,24054,2,0,P|385:267|412:255,1,50.9999984436036
451,190,24257,5,4,1:2:0:0:
344,84,24460,1,2,0:2:0:0:
294,99,24561,1,0,0:2:0:0:
230,47,24663,6,0,L|144:34,1,63.7500024318696,10|0,0:2|0:2,0:2:0:0:
178,119,24865,2,0,L|92:106,1,63.7500024318696,2|0,0:2|0:2,0:2:0:0:
261,243,25068,5,0,1:2:0:0:
344,84,25271,1,0,0:2:0:0:
261,287,25473,5,8,0:2:0:0:
178,119,25676,2,0,P|235:122|286:171,1,101.999996887207,0|0,0:2|1:2,0:2:0:0:
83,310,26082,5,2,0:2:0:0:
134,320,26183,1,0,0:2:0:0:
184,330,26284,1,8,0:2:0:0:
261,371,26386,5,2,0:2:0:0:
313,365,26487,2,0,L|371:356,1,50.9999984436036,0|0,0:2|0:2,0:2:0:0:
442,164,26690,5,2,1:2:0:0:
440,187,26791,1,0,0:2:0:0:
438,207,26892,1,0,0:2:0:0:
505,254,26994,5,2,0:2:0:0:
512,298,27095,2,0,L|370:279,1,127.500004863739,8|0,0:2|0:2,0:2:0:0:
202,330,27500,6,0,P|243:270|233:232,1,63.7500024318696,4|0,1:2|0:2,0:2:0:0:
167,123,27703,1,0,0:2:0:0:
167,123,27804,1,0,0:2:0:0:
134,198,27906,2,0,P|171:263|208:274,1,63.7500024318696,8|0,0:2|0:2,0:2:0:0:
285,213,28109,2,0,P|211:200|179:221,1,63.7500024318696,0|0,0:2|0:2,0:2:0:0:
87,345,28311,6,0,P|156:285|121:188,1,191.250007295609,0|0,1:2|0:2,0:2:0:0:
10,242,28717,2,0,P|68:258|94:250,1,63.7500024318696,8|0,0:2|0:2,0:2:0:0:
134,198,28919,2,0,P|176:155|182:129,1,63.7500024318696,0|0,0:2|0:2,0:2:0:0:
258,47,29122,6,0,P|282:119|359:136,1,127.500004863739,4|0,1:2|0:2,0:2:0:0:
512,155,29426,1,0,0:2:0:0:
461,91,29527,2,0,P|429:87|376:145,1,63.7500024318696,8|0,0:2|0:2,0:2:0:0:
389,241,29730,2,0,P|399:219|375:144,1,63.7500024318696,0|0,0:2|0:2,0:2:0:0:
314,292,29933,6,0,P|379:328|461:290,1,127.500004863739,0|0,1:2|0:2,0:2:0:0:
310,200,30338,1,8,0:2:0:0:
309,354,30541,2,0,P|317:311|310:282,1,63.7500024318696,0|0,0:2|0:2,0:2:0:0:
93,206,30744,6,0,P|158:250|199:239,1,70.1250006687641,4|0,1:2|0:2,0:2:0:0:
310,200,30946,1,0,0:2:0:0:
310,200,31048,1,0,0:2:0:0:
235,149,31149,2,0,P|157:177|137:214,1,70.1250006687641,8|0,0:2|0:2,0:2:0:0:
211,300,31352,2,0,P|224:218|201:183,1,70.1250006687641,0|0,0:2|0:2,0:2:0:0:
62,204,31554,5,0,1:2:0:0:
176,377,31757,1,0,0:2:0:0:
195,62,31960,5,8,0:2:0:0:
128,19,32061,1,8,0:2:0:0:
126,99,32163,1,8,0:2:0:0:
126,99,32365,6,0,P|187:41|302:53,1,170,2|0,1:0|0:2,0:2:0:0:
293,119,32669,2,0,P|373:142|420:248,1,170,2|0,1:0|0:2,0:2:0:0:
352,269,32973,6,0,P|371:350|334:412,1,85,2|0,1:0|0:2,0:2:0:0:
363,381,33176,2,0,P|343:299|380:237,1,85,2|0,1:0|0:2,0:2:0:0:
431,77,33379,5,2,1:2:0:0:
461,164,33480,1,2,1:2:0:0:
424,237,33582,1,2,1:2:0:0:
352,269,33683,1,2,0:2:0:0:
279,252,33784,1,2,0:2:0:0:
239,189,33886,6,0,P|170:142|46:237,1,255.000009727478,6|0,1:2|0:2,0:2:0:0:
59,329,34392,1,10,0:2:0:0:
117,310,34494,1,2,0:2:0:0:
153,254,34595,2,0,P|149:221|135:194,1,63.7500024318696,2|0,0:2|0:2,0:2:0:0:
137,17,34798,6,0,P|200:6|259:41,1,127.500004863739,0|0,1:2|0:2,0:2:0:0:
412,70,35203,2,0,P|423:132|393:196,1,127.500004863739,8|0,0:2|0:2,0:2:0:0:
239,189,35609,6,0,P|270:185|300:194,1,63.7500024318696,4|0,1:2|0:2,0:2:0:0:
464,364,35811,1,2,0:2:0:0:
402,373,35913,1,2,0:2:0:0:
352,336,36014,2,0,P|344:304|347:272,1,63.7500024318696,10|0,0:2|0:2,0:2:0:0:
485,149,36217,2,0,P|493:179|489:210,1,63.7500024318696,0|0,0:2|0:2,0:2:0:0:
314,98,36419,6,0,P|258:132|240:206,1,127.500004863739,0|0,1:2|0:2,0:2:0:0:
124,228,36723,1,0,0:0:0:0:
124,228,36825,2,0,P|151:301|183:320,2,63.7500024318696,10|2|0,0:2|0:2|0:2,0:2:0:0:
226,82,37230,6,0,P|201:63|171:53,1,63.7500024318696,4|0,1:2|0:2,0:2:0:0:
298,248,37433,1,2,0:2:0:0:
337,207,37534,1,2,0:2:0:0:
345,151,37636,2,0,P|334:120|313:97,1,63.7500024318696,10|0,0:2|0:2,0:2:0:0:
171,219,37838,2,0,P|191:242|219:257,1,63.7500024318696,0|0,0:3|0:3,0:3:0:0:
314,98,38041,6,0,P|358:58|432:51,1,127.500004863739,0|0,1:2|0:2,0:2:0:0:
302,281,38446,2,0,P|260:228|267:131,1,127.500004863739,8|0,0:2|0:2,0:2:0:0:
197,323,38852,6,0,P|103:338|31:250,1,191.250007295609,4|0,1:2|0:2,0:2:0:0:
35,240,39257,2,0,P|71:302|61:370,1,127.500004863739,8|0,0:2|0:2,0:2:0:0:
204,43,39663,6,0,P|264:116|223:222,1,191.250007295609,0|0,1:2|0:2,0:2:0:0:
213,224,40068,2,0,P|249:161|312:135,1,127.500004863739,8|0,0:2|0:2,0:2:0:0:
241,352,40473,5,6,1:2:0:0:
161,143,40676,1,2,0:2:0:0:
350,264,40879,1,2,1:2:0:0:
13,338,41082,1,10,0:2:0:0:
96,384,41487,5,2,1:2:0:0:
161,143,41690,1,2,1:2:0:0:
96,384,41892,1,10,0:2:0:0:
127,267,42298,5,2,1:2:0:0:
62,26,42500,1,2,1:2:0:0:
127,267,42703,2,0,P|214:264|276:140,1,191.250007295609,10|0,0:2|0:2,0:2:0:0:
349,233,43109,5,0,1:2:0:0:
169,172,43311,1,8,0:2:0:0:
241,44,43514,5,0,1:2:0:0:
241,44,43615,1,0,1:2:0:0:
263,70,43717,2,0,P|206:28|239:79,2,191.250007295609,0|0|0,1:2|0:2|0:2,0:2:0:0:
27,276,44527,6,0,L|146:269,1,106.25,2|0,1:2|0:2,0:2:0:0:
157,299,44832,2,0,L|316:289,1,148.750001418591,2|0,1:2|0:2,0:2:0:0:
330,317,45136,2,0,L|479:309,1,127.500004863739,2|0,1:2|0:2,0:2:0:0:
399,83,45541,5,0,1:2:0:0:
399,83,45744,2,0,P|366:166|491:103,1,331.499984825135,6|0,1:2|0:2,0:2:0:0:
467,30,46453,5,0,1:2:0:0:
393,0,46554,2,0,P|338:22|322:41,1,55.2499974708558,0|0,1:2|0:0,0:0:0:0:
219,142,46757,1,0,1:2:0:0:
301,186,46859,1,0,1:2:0:0:
367,121,46960,6,0,P|312:97|211:157,1,170,4|0,1:2|0:2,0:2:0:0:
222,235,47264,1,0,0:2:0:0:
305,266,47365,2,0,P|314:216|287:174,1,85,8|0,0:2|0:2,0:2:0:0:
144,253,47568,2,0,P|187:256|234:217,1,85,0|0,0:2|0:2,0:2:0:0:
356,37,47771,6,0,L|371:147,1,85,0|0,1:2|0:2,0:2:0:0:
499,40,47973,2,0,L|514:150,1,85,0|0,0:2|0:2,0:2:0:0:
305,266,48176,6,0,L|290:376,1,85,8|0,0:2|0:2,0:2:0:0:
123,266,48379,2,0,L|108:376,1,85,0|0,0:2|0:2,0:2:0:0:
66,195,48582,6,0,P|176:191|205:282,1,170,4|0,1:2|0:2,0:2:0:0:
173,101,48886,1,0,0:2:0:0:
173,101,48987,2,0,P|190:53|234:30,1,85,8|0,0:2|0:2,0:2:0:0:
318,170,49190,2,0,P|279:151|258:93,1,85,0|0,0:2|0:2,0:2:0:0:
400,144,49392,5,0,1:2:0:0:
396,1,49595,2,0,P|379:28|375:59,1,63.7500024318696,0|0,0:2|0:2,0:2:0:0:
485,183,49798,6,0,P|431:228|390:231,1,85,8|0,0:2|0:2,0:2:0:0:
318,170,50000,2,0,P|279:151|258:93,1,85,0|0,0:2|0:2,0:2:0:0:
159,21,50203,6,0,L|168:80,1,31.8750012159348,6|0,1:2|0:2,0:2:0:0:
171,95,50406,1,2,0:2:0:0:
179,139,50507,1,0,0:2:0:0:
196,221,50609,6,0,P|176:256|130:281,1,63.7500024318696,10|0,0:2|0:2,0:2:0:0:
35,203,50811,2,0,P|62:189|132:204,1,85,0|0,0:2|0:2,0:2:0:0:
206,345,51014,2,0,P|176:358|108:343,1,85,0|0,1:2|0:2,0:2:0:0:
259,149,51217,5,0,0:2:0:0:
259,149,51318,1,0,0:2:0:0:
356,192,51419,2,0,P|382:259|351:331,1,85,8|0,0:2|0:2,0:2:0:0:
224,311,51622,2,0,P|198:244|229:172,1,85,0|0,0:2|0:2,0:2:0:0:
232,70,51825,5,6,0:2:0:0:
0,181,52027,5,2,0:2:0:0:
56,127,52129,1,2,0:2:0:0:
135,121,52230,1,10,0:2:0:0:
194,177,52332,1,2,0:2:0:0:
267,221,52433,1,2,0:2:0:0:
350,196,52534,1,2,0:2:0:0:
400,120,52636,1,2,1:2:0:0:
400,120,52838,5,2,0:2:0:0:
322,78,52940,1,2,0:2:0:0:
235,92,53041,1,10,0:2:0:0:
173,158,53142,1,2,0:2:0:0:
172,247,53244,1,2,0:2:0:0:
221,322,53345,1,2,0:2:0:0:
308,348,53446,6,0,P|394:312|416:240,1,127.500004863739,4|0,1:2|0:2,0:2:0:0:
368,127,53750,1,0,0:2:0:0:
313,185,53852,2,0,P|315:235|355:277,1,63.7500024318696,8|0,0:2|0:2,0:2:0:0:
449,139,54054,6,0,L|520:130,1,63.7500024318696,2|0,0:2|0:2,0:2:0:0:
472,295,54257,2,0,L|409:286,1,63.7500024318696,2|0,1:2|0:2,0:2:0:0:
368,40,54460,5,2,0:2:0:0:
282,50,54561,1,0,0:2:0:0:
236,122,54663,2,0,P|238:168|275:207,1,63.7500024318696,8|0,0:2|0:2,0:2:0:0:
408,285,54865,2,0,P|406:239|369:200,1,63.7500024318696,0|0,0:2|0:2,0:2:0:0:
142,294,55068,6,0,P|221:305|284:242,1,127.500004863739,4|0,1:2|0:2,0:2:0:0:
236,122,55372,1,0,0:2:0:0:
158,106,55473,2,0,P|118:129|103:182,1,63.7500024318696,8|0,0:2|0:2,0:2:0:0:
337,219,55676,6,0,L|327:148,1,63.7500024318696,2|0,0:2|0:2,0:2:0:0:
410,44,55879,2,0,L|401:108,1,63.7500024318696,2|0,1:2|0:2,0:2:0:0:
227,231,56082,5,2,0:2:0:0:
241,317,56183,1,0,0:2:0:0:
314,359,56284,2,0,P|359:365|404:335,1,63.7500024318696,8|0,0:2|0:2,0:2:0:0:
460,245,56487,2,0,P|414:238|369:268,1,63.7500024318696,0|0,0:2|0:2,0:2:0:0:
314,359,56690,6,0,P|373:362|434:279,1,127.500004863739,4|0,1:2|0:2,0:2:0:0:
365,138,56994,1,0,0:2:0:0:
279,124,57095,2,0,P|239:147|224:200,1,63.7500024318696,8|0,0:2|0:2,0:2:0:0:
97,275,57298,5,0,0:2:0:0:
97,275,57399,1,0,0:2:0:0:
179,288,57500,2,0,P|178:242|140:202,1,63.7500024318696,0|0,1:2|0:2,0:2:0:0:
144,144,57703,5,0,0:2:0:0:
144,144,57804,1,0,0:2:0:0:
169,227,57906,2,0,P|208:203|223:150,1,63.7500024318696,8|0,0:2|0:2,0:2:0:0:
384,188,58109,2,0,P|383:142|345:102,1,63.7500024318696,0|0,0:2|0:2,0:2:0:0:
390,271,58311,6,0,P|429:293|483:280,1,63.7500024318696,4|0,1:2|0:2,0:2:0:0:
512,72,58514,6,0,P|472:45|432:45,1,85,2|0,1:2|0:2,0:2:0:0:
290,105,58717,1,8,0:2:0:0:
307,302,58919,5,2,0:2:0:0:
307,302,59021,1,2,0:2:0:0:
307,302,59122,1,2,1:2:0:0:
307,302,59325,5,2,1:2:0:0:
193,350,59426,1,2,1:2:0:0:
84,307,59527,1,2,1:2:0:0:
31,209,59629,1,2,1:2:0:0:
63,104,59730,1,2,1:2:0:0:
138,41,59832,1,2,1:2:0:0:
236,38,59933,6,0,P|293:54|332:165,1,170,6|0,1:2|0:2,0:2:0:0:
269,218,60237,1,0,0:2:0:0:
186,190,60338,2,0,P|211:151|258:131,1,85,8|0,0:2|0:2,0:2:0:0:
317,281,60541,2,0,P|282:255|271:195,1,85,0|0,0:2|0:2,0:2:0:0:
478,292,60744,6,0,L|367:306,1,85,0|0,1:2|0:2,0:2:0:0:
278,361,60946,2,0,L|167:375,1,85,0|0,0:2|0:2,0:2:0:0:
269,218,61149,6,0,L|158:203,1,85,8|0,0:2|0:2,0:2:0:0:
93,129,61352,2,0,L|-18:113,1,85,0|0,0:2|0:2,0:2:0:0:
319,0,61554,6,0,P|322:110|231:139,1,170,4|0,1:2|0:2,0:2:0:0:
417,118,61859,1,0,0:2:0:0:
417,118,61960,2,0,P|464:135|487:179,1,85,8|0,0:2|0:2,0:2:0:0:
348,263,62163,2,0,P|366:224|424:203,1,85,0|0,0:2|0:2,0:2:0:0:
313,356,62365,5,0,1:2:0:0:
324,206,62568,2,0,P|344:235|342:287,1,63.7500024318696,0|0,0:2|0:2,0:2:0:0:
89,359,62771,6,0,P|137:307|197:305,1,85,8|0,0:2|0:2,0:2:0:0:
233,337,62973,2,0,P|296:344|335:383,1,85,0|0,0:2|0:2,0:2:0:0:
383,191,63176,6,0,L|329:202,1,31.8750012159348,6|0,1:2|0:2,0:2:0:0:
324,206,63379,1,2,0:2:0:0:
299,215,63480,1,0,0:2:0:0:
219,250,63582,6,0,P|187:225|176:190,1,63.7500024318696,10|0,0:2|0:2,0:2:0:0:
240,32,63784,2,0,P|253:60|238:129,1,85,0|0,0:2|0:2,0:2:0:0:
112,255,63987,2,0,P|98:226|113:157,1,85,0|0,1:2|0:2,0:2:0:0:
364,181,64190,5,2,0:2:0:0:
364,181,64291,1,2,0:2:0:0:
448,243,64392,5,10,0:2:0:0:
441,284,64494,1,2,0:2:0:0:
281,243,64595,5,2,0:2:0:0:
273,197,64696,1,2,0:2:0:0:
359,288,64798,6,0,P|261:328|187:233,1,170,6|0,1:2|0:2,0:2:0:0:
223,98,65102,5,0,0:2:0:0:
231,0,65203,2,0,P|305:51|308:103,1,85,10|0,0:2|0:2,0:2:0:0:
137,133,65406,2,0,P|144:43|187:14,1,85,2|0,0:2|0:2,0:2:0:0:
210,187,65609,6,0,L|22:164,1,170,2|0,1:2|0:2,0:2:0:0:
281,243,66014,2,0,L|469:220,1,170,8|0,0:2|0:2,0:2:0:0:
223,98,66419,5,4,1:2:0:0:
424,91,66622,1,0,0:2:0:0:
325,0,66825,2,0,P|308:38|324:105,2,85,10|2|2,0:2|0:2|0:2,0:2:0:0:
424,91,67230,6,0,P|317:117|313:236,1,170,0|0,1:2|0:2,0:2:0:0:
312,314,67534,1,0,0:2:0:0:
403,303,67636,2,0,P|389:264|300:222,1,85,8|0,0:2|0:2,0:2:0:0:
158,215,67838,5,0,1:2:0:0:
108,275,67940,1,0,1:2:0:0:
186,288,68041,1,4,1:2:0:0:
92,3,68244,1,0,1:2:0:0:
0,357,68446,5,8,0:2:0:0:
94,39,68649,1,4,1:2:0:0:
247,341,69054,5,0,1:2:0:0:
247,341,69257,1,8,0:2:0:0:
78,217,69460,5,0,1:2:0:0:
0,198,69561,1,0,1:2:0:0:
22,274,69663,2,0,P|61:307|199:266,1,170,4|0,1:2|0:2,0:2:0:0:
286,178,69967,5,0,0:2:0:0:
327,102,70068,2,0,P|287:91|247:103,1,85,8|0,0:2|0:2,0:2:0:0:
247,253,70271,2,0,P|287:263|327:252,1,85,0|0,0:2|0:2,0:2:0:0:
402,35,70473,6,0,P|352:98|374:177,1,170,0|0,1:2|0:2,0:2:0:0:
509,237,70777,1,0,0:2:0:0:
512,154,70879,2,0,P|481:128|383:135,1,85,8|0,0:2|0:2,0:2:0:0:
327,252,71082,5,8,0:2:0:0:
327,252,71487,6,0,L|311:386,2,127.500004863739,2|0|0,0:0|0:0|0:0,0:0:0:0:
389,120,72095,6,0,P|357:192|144:193,1,255,2|0,1:0|0:0,0:0:0:0:
235,321,72500,2,0,P|123:267|14:323,1,255,2|0,1:0|0:0,0:0:0:0:
32,200,72906,5,2,1:2:0:0:
32,200,73311,1,2,1:2:0:0:
32,200,73717,2,0,P|37:125|110:73,1,127.500004863739,2|0,1:0|0:0,0:0:0:0:
146,128,74021,6,0,P|213:94|294:132,1,127.500004863739,2|0,1:0|0:0,0:0:0:0:
276,189,74325,6,0,P|338:230|346:320,1,127.500004863739,2|0,1:0|0:0,0:0:0:0:
177,354,74730,6,0,L|311:370,2,127.500004863739,2|0|0,0:0|0:0|0:0,0:0:0:0:
55,186,75338,6,0,P|118:233|303:126,1,255,2|0,1:0|0:0,0:0:0:0:
288,283,75744,2,0,P|357:181|480:174,1,255,2|0,1:0|0:0,0:0:0:0:
404,76,76149,5,2,1:2:0:0:
404,76,76554,5,2,1:2:0:0:
404,76,76960,6,0,P|358:126|358:206,1,127.500004863739,2|0,1:0|0:0,0:0:0:0:
259,170,77264,6,0,P|279:234|348:274,1,127.500004863739,2|0,1:0|0:0,0:0:0:0:
274,343,77568,6,0,P|340:357|409:317,1,127.500004863739,2|0,1:0|0:0,0:0:0:0:
160,276,77973,6,0,P|146:299|152:269,1,85,2|0,1:0|0:0,0:0:0:0:
82,206,78176,6,0,P|55:199|86:196,1,85,2|0,1:0|0:0,0:0:0:0:
138,119,78379,6,0,P|135:92|148:119,1,85,2|0,1:0|0:0,0:0:0:0:
242,129,78582,6,0,P|266:118|244:139,1,85,2|0,1:0|0:0,0:0:0:0:
416,285,78987,6,0,P|433:305|406:290,1,85,2|0,1:0|0:0,0:0:0:0:
325,337,79190,6,0,P|311:360|317:330,1,85,2|0,1:0|0:0,0:0:0:0:
259,257,79392,6,0,P|232:250|263:247,1,85,2|0,1:0|0:0,0:0:0:0:
301,161,79595,6,0,P|298:134|311:161,1,85,2|0,1:0|0:0,0:0:0:0:
