osu file format v14

[General]
AudioFilename: audio_little.mp3
AudioLeadIn: 0
PreviewTime: 46250
Countdown: 0
SampleSet: Soft
StackLeniency: 0.3
Mode: 0
LetterboxInBreaks: 0
WidescreenStoryboard: 1

[Editor]
Bookmarks: 46555
DistanceSpacing: 2.7
BeatDivisor: 4
GridSize: 4
TimelineZoom: 1

[Metadata]
Title:Little Adventure
TitleUnicode:リトルアドベンチャー
Artist:Mimi (CV: Hidaka Rina), Misogi (CV: Morohoshi Sumire), Kyouka (CV: Ogura Yui)
ArtistUnicode:ミミ (CV: 日高里菜), ミソギ (CV: 諸星すみれ), キョウカ (CV: 小倉唯)
Creator:Riana
Version:Insane
Source:プリンセスコネクト!Re:Dive
Tags:プリコネR princess connect redive 全ストーリーイベント エンディングテーマ ed ending priconne character song 05 japanese video game cygames リトル リリカル アドベンチャーズ リトル・リリカル・アドベンチャーズ lyrical adventures japanese video game never_log_off mimari left island 23456789 miyohashikoori
BeatmapID:2203353
BeatmapSetID:974356

[Difficulty]
HPDrainRate:5
CircleSize:4
OverallDifficulty:7
ApproachRate:8.5
SliderMultiplier:2.2
SliderTickRate:1

[Events]
//Background and Video events
Video,0,"Little_Adventure.mp4"
0,0,"99926e9433fb211bdcf210668f16c182.jpg",0,0
//Break Periods
//Storyboard Layer 0 (Background)
//Storyboard Layer 1 (Fail)
//Storyboard Layer 2 (Pass)
//Storyboard Layer 3 (Foreground)
//Storyboard Layer 4 (Overlay)
//Storyboard Sound Samples

[TimingPoints]
1555,405.405405405405,4,2,2,60,1,0
2365,-100,4,2,2,80,0,0
3379,-100,4,2,2,60,0,0
3987,-100,4,2,2,80,0,0
5203,-100,4,2,2,60,0,0
5609,-100,4,2,2,80,0,0
6622,-100,4,2,2,85,0,0
7433,-100,4,2,2,75,0,0
8041,-100,4,2,2,90,0,0
12906,-83.3333333333333,4,2,2,90,0,0
13919,-100,4,2,2,90,0,0
19392,-80,4,2,2,90,0,0
20203,-100,4,2,2,90,0,0
21014,-133.333333333333,4,2,2,70,0,0
27095,-133.333333333333,4,2,2,75,0,0
27500,-117.647058823529,4,2,2,75,0,0
32365,-100,4,2,2,80,0,0
33886,-105.263157894737,4,2,2,80,0,0
33987,-105.263157894737,4,2,2,75,0,0
43717,-105.263157894737,4,2,2,70,0,0
44527,-100,4,2,2,85,0,0
45744,-100,4,2,2,80,0,0
46960,-83.3333333333333,4,2,2,100,0,1
53446,-90.9090909090909,4,2,2,90,0,0
59933,-83.3333333333333,4,2,2,100,0,1
66419,-100,4,2,2,90,0,0
71284,-100,4,2,2,90,0,0
71487,-100,4,2,2,60,0,0
72095,-100,4,2,2,80,0,0
72906,-100,4,2,2,60,0,0
73717,-100,4,2,2,80,0,0
74730,-100,4,2,2,60,0,0
75338,-100,4,2,2,80,0,0
76554,-100,4,2,2,60,0,0
76960,-100,4,2,2,80,0,0
77973,-100,4,2,2,85,0,0

[Colours]
Combo1 : 255,168,125
Combo2 : 255,215,255
Combo3 : 255,187,221

[HitObjects]
18,210,1555,6,0,P|82:190|136:217,1,110,2|0,1:2|0:0,0:0:0:0:
173,139,1960,1,2,1:2:0:0:
224,337,2365,5,2,1:0:0:0:
120,203,2669,1,2,1:0:0:0:
293,176,2973,1,2,1:0:0:0:
293,176,3379,5,2,0:0:0:0:
366,125,3582,1,2,0:0:0:0:
449,166,3784,1,2,0:0:0:0:
402,281,3987,6,0,P|394:199|469:63,1,220,2|2,1:0|1:0,0:0:0:0:
495,215,4798,6,0,P|431:195|377:222,1,110,2|0,1:2|0:0,0:0:0:0:
340,144,5203,1,2,1:2:0:0:
289,342,5609,5,2,1:0:0:0:
393,208,5913,1,2,1:0:0:0:
220,181,6217,1,2,1:0:0:0:
220,181,6622,5,2,1:0:0:0:
180,51,6825,1,2,1:0:0:0:
100,306,7027,1,2,1:0:0:0:
53,159,7230,1,2,1:0:0:0:
64,171,7433,5,2,1:2:0:0:
64,171,7534,1,2,1:2:0:0:
64,171,7636,1,2,1:2:0:0:
64,193,7737,1,2,1:2:0:0:
79,211,7838,1,2,1:2:0:0:
101,216,7940,1,2,1:2:0:0:
123,208,8041,6,0,P|197:191|278:253,1,165,4|0,1:2|0:2,0:0:0:0:
291,271,8446,2,0,L|312:143,1,110,8|0,0:2|0:2,0:0:0:0:
342,138,8750,1,0,0:2:0:0:
342,138,8852,1,0,1:2:0:0:
512,177,9054,1,0,0:2:0:0:
512,177,9257,2,0,P|453:204|407:196,1,110,8|0,0:2|0:2,0:0:0:0:
286,58,9663,6,0,P|244:138|260:189,1,110,4|0,1:2|0:0,0:0:0:0:
267,194,9967,1,0,0:2:0:0:
267,194,10068,1,8,0:2:0:0:
390,287,10271,1,0,0:2:0:0:
341,137,10473,1,0,1:2:0:0:
262,371,10676,1,0,0:2:0:0:
498,303,10879,1,8,0:2:0:0:
498,303,11284,6,0,P|430:288|347:365,1,165,4|0,1:2|0:2,0:0:0:0:
352,384,11690,1,8,0:2:0:0:
352,384,11791,1,0,0:2:0:0:
234,273,11994,2,0,L|240:208,1,55,0|0,0:2|1:2,0:0:0:0:
424,65,12298,1,0,0:2:0:0:
333,242,12500,1,8,0:2:0:0:
230,127,12703,5,0,1:2:0:0:
230,127,12804,1,0,1:2:0:0:
230,127,12906,2,0,P|307:108|395:204,2,197.99999395752,6|2|2,1:2|1:2|1:2,0:0:0:0:
230,127,13919,1,0,1:2:0:0:
384,346,14122,1,8,0:2:0:0:
486,202,14325,5,0,1:2:0:0:
486,202,14426,1,0,1:2:0:0:
486,202,14527,2,0,P|478:133|444:88,1,110,4|0,1:2|0:2,0:0:0:0:
339,273,14933,2,0,P|382:218|389:162,1,110,8|0,0:2|0:2,0:0:0:0:
244,246,15338,5,0,1:2:0:0:
244,246,15440,1,0,0:2:0:0:
244,246,15541,2,0,P|217:210|172:193,1,55,0|0,0:2|0:2,0:0:0:0:
190,167,15744,2,0,P|145:172|108:202,1,55,8|0,0:2|0:2,0:0:0:0:
92,169,15946,1,0,0:2:0:0:
0,141,16149,6,0,P|41:85|93:63,1,110,4|0,1:2|0:2,0:0:0:0:
91,275,16554,2,0,P|80:206|102:154,1,110,8|0,0:2|0:2,0:0:0:0:
187,300,16960,5,0,1:2:0:0:
187,300,17061,1,0,0:2:0:0:
187,300,17163,2,0,P|228:282|275:290,1,55,0|0,0:2|0:2,0:0:0:0:
273,258,17365,2,0,P|309:285|326:330,1,55,8|0,0:2|0:2,0:0:0:0:
357,309,17568,1,0,0:2:0:0:
478,212,17771,6,0,P|432:127|460:21,1,165,4|0,1:2|0:2,0:0:0:0:
464,22,18176,1,8,0:2:0:0:
352,68,18379,1,0,0:0:0:0:
357,177,18582,2,0,P|306:94|200:65,1,165,0|0,1:2|0:2,0:0:0:0:
199,69,18987,1,8,0:2:0:0:
314,292,19190,5,0,1:2:0:0:
314,292,19291,1,0,1:2:0:0:
314,292,19392,2,0,P|347:235|503:225,2,206.25,6|2|2,1:2|1:2|1:2,0:0:0:0:
314,292,20406,1,0,1:2:0:0:
202,79,20609,1,8,0:2:0:0:
93,184,20811,5,0,1:2:0:0:
93,184,20913,1,0,1:2:0:0:
93,184,21014,2,0,P|161:192|186:220,1,82.5000031471254,4|2,1:2|0:2,0:0:0:0:
189,239,21318,1,0,0:2:0:0:
189,239,21419,1,10,0:2:0:0:
249,155,21622,1,2,0:2:0:0:
336,254,21825,2,0,P|307:213|316:82,1,165.000006294251,0|8,1:2|0:2,0:0:0:0:
383,55,22433,1,0,0:2:0:0:
497,215,22636,6,0,P|430:230|397:212,1,82.5000031471254,0|2,1:2|0:2,0:0:0:0:
386,195,22940,1,0,0:2:0:0:
386,195,23041,1,10,0:2:0:0:
298,140,23244,1,2,0:2:0:0:
298,140,23446,2,0,P|326:180|325:285,1,123.750004720688,0|0,1:2|0:0,0:0:0:0:
353,293,23852,2,0,P|345:315|316:343,2,41.2500015735627,8|0|0,0:2|0:2|0:0,0:0:0:0:
298,140,24257,6,0,P|243:180|235:217,1,82.5000031471254,4|2,1:2|0:2,0:0:0:0:
242,235,24561,1,0,0:2:0:0:
242,235,24663,1,10,0:2:0:0:
159,186,24865,1,2,0:2:0:0:
133,323,25068,2,0,P|128:281|97:245,2,82.5000031471254,0|0|8,1:2|0:2|0:2,0:0:0:0:
16,258,25676,2,0,P|21:216|52:180,1,82.5000031471254,0|0,0:2|1:2,0:0:0:0:
242,235,26082,6,0,P|308:226|341:186,1,82.5000031471254,2|8,0:2|0:2,0:0:0:0:
359,229,26386,2,0,P|384:167|366:118,1,82.5000031471254,2|0,0:2|0:2,0:0:0:0:
416,125,26690,2,0,P|375:72|324:63,1,82.5000031471254,2|0,1:2|0:2,0:0:0:0:
350,32,26994,1,2,0:2:0:0:
350,32,27095,1,8,0:2:0:0:
54,161,27500,6,0,P|116:130|172:140,1,93.500001783371,4|0,1:2|0:2,0:0:0:0:
179,150,27804,1,0,0:2:0:0:
179,150,27906,1,8,0:2:0:0:
103,44,28109,1,0,0:2:0:0:
129,226,28311,2,0,P|211:265|301:217,1,187.000003566742,0|8,1:2|0:2,0:0:0:0:
315,118,28919,1,0,0:2:0:0:
462,207,29122,6,0,P|493:269|483:325,1,93.500001783371,4|0,1:2|0:2,0:0:0:0:
473,332,29426,1,0,0:2:0:0:
473,332,29527,1,8,0:2:0:0:
283,304,29730,1,0,0:2:0:0:
283,304,29933,2,0,P|319:242|438:240,1,187.000003566742,0|8,1:2|0:2,0:0:0:0:
379,318,30541,1,0,0:2:0:0:
296,119,30744,6,0,P|282:171|302:218,1,93.500001783371,4|0,1:2|0:2,0:0:0:0:
321,237,31048,1,0,0:2:0:0:
321,237,31149,1,8,0:2:0:0:
372,166,31352,1,0,0:2:0:0:
226,66,31554,1,0,1:2:0:0:
212,255,31757,1,0,0:2:0:0:
381,83,31960,1,8,0:2:0:0:
381,83,32061,1,8,0:2:0:0:
381,83,32163,1,8,0:2:0:0:
459,276,32365,6,0,P|396:222|312:243,2,165,2|2|2,1:0|1:0|1:0,0:0:0:0:
374,313,33176,1,2,1:0:0:0:
320,236,33379,2,0,L|325:176,1,55,2|2,1:2|1:2,0:0:0:0:
314,157,33582,1,2,1:2:0:0:
296,137,33683,1,2,0:2:0:0:
271,125,33784,1,2,0:2:0:0:
246,122,33886,6,0,P|178:150|98:92,1,156.749995814324,6|0,0:2|0:0,0:0:0:0:
27,10,34392,1,10,0:2:0:0:
27,10,34494,2,0,P|7:67|20:110,1,104.499997209549,2|0,0:2|0:2,0:0:0:0:
36,146,34798,2,0,L|22:264,1,104.499997209549,0|0,1:2|0:2,0:0:0:0:
113,384,35203,2,0,L|101:272,1,104.499997209549,8|0,0:2|0:2,0:0:0:0:
204,184,35609,5,4,1:2:0:0:
315,290,35811,1,2,0:2:0:0:
315,290,35913,1,2,0:2:0:0:
315,290,36014,2,0,P|247:290|200:247,1,104.499997209549,10|0,0:2|0:2,0:0:0:0:
394,205,36419,2,0,L|405:328,1,104.499997209549,0|0,1:2|0:2,0:0:0:0:
482,384,36825,1,8,0:2:0:0:
482,384,36926,2,0,L|489:302,1,52.2499986047745,0|0,0:0|0:2,0:0:0:0:
505,99,37230,5,4,1:2:0:0:
394,205,37433,1,2,0:2:0:0:
394,205,37534,1,2,0:2:0:0:
394,205,37636,2,0,P|462:205|509:162,1,104.499997209549,10|0,0:2|0:2,0:0:0:0:
315,120,38041,2,0,L|304:243,1,104.499997209549,0|0,1:2|0:2,0:0:0:0:
227,348,38446,2,0,L|217:243,1,104.499997209549,8|0,0:2|0:2,0:0:0:0:
142,147,38852,6,0,P|197:168|240:155,2,104.499997209549,4|0|8,1:2|0:0|0:2,0:0:0:0:
108,63,39460,1,0,0:2:0:0:
336,27,39663,2,0,P|375:92|356:166,1,156.749995814324,0|0,1:2|0:2,0:0:0:0:
326,196,40068,2,0,L|342:340,1,104.499997209549,8|0,0:2|0:2,0:0:0:0:
369,317,40372,5,0,0:0:0:0:
369,317,40473,1,6,1:2:0:0:
459,155,40676,1,2,0:2:0:0:
210,203,40879,1,2,1:2:0:0:
412,238,41082,1,10,0:2:0:0:
412,238,41487,5,2,1:2:0:0:
256,109,41690,1,2,1:2:0:0:
227,314,41892,1,10,0:2:0:0:
227,314,42298,5,2,1:2:0:0:
356,130,42500,1,2,1:2:0:0:
227,314,42703,2,0,P|139:322|66:214,1,208.999994419098,10|0,0:2|1:2,0:0:0:0:
227,314,43311,1,8,0:2:0:0:
121,112,43514,5,0,1:2:0:0:
121,112,43615,1,0,1:2:0:0:
121,112,43717,2,0,P|89:183|135:289,2,156.749995814324,0|0|0,1:2|0:2|0:2,0:0:0:0:
310,17,44527,5,2,1:2:0:0:
261,309,44832,1,2,1:2:0:0:
23,108,45136,1,2,1:2:0:0:
202,149,45541,5,0,1:2:0:0:
202,149,45744,2,0,P|138:228|26:182,1,220,6|0,1:2|0:0,0:0:0:0:
110,139,46352,1,0,0:2:0:0:
110,139,46554,1,0,1:2:0:0:
105,180,46656,1,0,1:2:0:0:
100,221,46757,1,0,1:2:0:0:
96,262,46859,1,0,1:2:0:0:
91,303,46960,6,0,P|161:282|241:343,1,131.99999597168,4|0,1:2|0:2,0:0:0:0:
238,345,47264,1,0,0:2:0:0:
238,345,47365,1,8,0:2:0:0:
188,121,47568,1,0,0:2:0:0:
286,144,47771,1,0,1:2:0:0:
217,214,47973,1,0,0:2:0:0:
64,159,48176,2,0,P|125:127|248:138,1,131.99999597168,8|0,0:2|0:2,0:0:0:0:
377,54,48582,6,0,P|382:163|347:209,1,131.99999597168,4|0,1:2|0:2,0:0:0:0:
347,208,48886,1,0,0:2:0:0:
347,208,48987,1,8,0:2:0:0:
153,6,49190,2,0,P|343:58|360:113,1,263.99999194336,0|0,0:2|0:2,0:0:0:0:
222,243,49798,1,8,0:2:0:0:
249,143,50000,1,0,0:2:0:0:
4,210,50203,6,0,P|99:209|161:146,1,131.99999597168,6|2,1:2|0:2,0:0:0:0:
154,166,50507,1,0,0:2:0:0:
154,166,50609,1,10,0:2:0:0:
4,210,50811,1,0,0:2:0:0:
310,359,51014,2,0,P|326:264|265:154,1,197.99999395752,0|0,1:2|0:2,0:0:0:0:
249,143,51419,1,8,0:2:0:0:
141,286,51622,1,0,0:2:0:0:
415,221,51825,5,6,0:2:0:0:
261,67,52027,1,2,0:2:0:0:
261,67,52129,1,2,0:2:0:0:
261,67,52230,2,0,P|250:103|253:139,3,65.9999979858399,10|2|2|2,0:2|0:2|0:2|0:2,0:0:0:0:
285,173,52636,1,2,1:2:0:0:
407,33,52838,1,2,0:2:0:0:
493,124,53041,1,10,0:2:0:0:
456,120,53142,1,2,0:2:0:0:
419,116,53244,1,2,0:2:0:0:
382,112,53345,1,2,0:2:0:0:
345,108,53446,5,4,1:2:0:0:
239,254,53649,1,0,0:2:0:0:
239,254,53750,1,0,0:2:0:0:
239,254,53852,1,8,0:2:0:0:
359,365,54054,2,0,P|347:281|306:251,1,121.000003692627,2|2,0:2|1:2,0:0:0:0:
137,340,54460,2,0,P|176:355|199:345,2,60.5000018463135,2|0|8,0:2|0:2|0:2,0:0:0:0:
137,340,54764,1,0,0:2:0:0:
137,340,54865,1,0,0:2:0:0:
61,120,55068,5,4,1:2:0:0:
167,266,55271,1,0,0:2:0:0:
167,266,55372,1,0,0:2:0:0:
167,266,55473,1,8,0:2:0:0:
47,377,55676,2,0,P|59:293|100:263,1,121.000003692627,2|2,0:2|1:2,0:0:0:0:
269,352,56082,2,0,P|229:367|206:357,2,60.5000018463135,2|0|8,0:2|0:2|0:2,0:0:0:0:
269,352,56386,1,0,0:2:0:0:
269,352,56487,1,0,0:2:0:0:
280,63,56690,6,0,P|307:172|351:205,1,121.000003692627,4|0,1:2|0:2,0:0:0:0:
344,209,56994,1,0,0:2:0:0:
344,209,57095,2,0,P|236:177|185:199,1,121.000003692627,8|0,0:2|0:2,0:0:0:0:
117,158,57500,2,0,P|90:267|46:300,1,121.000003692627,0|0,1:2|0:2,0:0:0:0:
53,304,57804,1,0,0:2:0:0:
53,304,57906,2,0,P|160:272|211:294,1,121.000003692627,8|0,0:2|0:2,0:0:0:0:
306,373,58311,5,4,1:2:0:0:
394,282,58514,2,0,L|387:342,2,60.5000018463135,2|0|8,1:2|0:2|0:2,0:0:0:0:
447,116,58919,1,2,0:2:0:0:
344,209,59122,1,2,1:2:0:0:
344,209,59325,1,2,1:2:0:0:
303,204,59426,1,2,1:2:0:0:
262,199,59527,1,2,1:2:0:0:
220,193,59629,1,2,1:2:0:0:
179,188,59730,1,2,1:2:0:0:
138,183,59832,1,2,1:2:0:0:
97,179,59933,6,0,P|76:249|137:329,1,131.99999597168,6|0,1:2|0:2,0:0:0:0:
139,326,60237,1,0,0:2:0:0:
139,326,60338,1,8,0:2:0:0:
221,60,60541,1,0,0:2:0:0:
123,83,60744,1,0,1:2:0:0:
192,153,60946,1,0,0:2:0:0:
345,98,61149,2,0,P|284:66|161:77,1,131.99999597168,8|0,0:2|0:2,0:0:0:0:
238,322,61554,6,0,P|305:235|302:178,1,131.99999597168,4|0,1:2|0:2,0:0:0:0:
301,179,61859,1,0,0:2:0:0:
301,179,61960,1,8,0:2:0:0:
31,250,62163,2,0,P|221:299|263:260,1,263.99999194336,0|0,0:2|0:2,0:0:0:0:
211,76,62771,1,8,0:2:0:0:
182,170,62973,1,0,0:2:0:0:
405,225,63176,6,0,P|310:225|248:289,1,131.99999597168,6|2,1:2|0:2,0:0:0:0:
255,269,63480,1,0,0:2:0:0:
255,269,63582,1,10,0:2:0:0:
404,218,63784,1,0,0:2:0:0:
148,190,63987,2,0,P|132:285|166:353,1,131.99999597168,0|2,1:2|0:2,0:0:0:0:
161,342,64291,1,2,0:2:0:0:
187,363,64392,1,10,0:2:0:0:
216,377,64494,1,2,0:2:0:0:
249,384,64595,1,2,0:2:0:0:
255,118,64798,6,0,P|193:192|189:268,1,131.99999597168,6|0,1:2|0:2,0:0:0:0:
361,124,65203,1,10,0:2:0:0:
152,106,65406,1,2,0:2:0:0:
369,316,65609,2,0,P|340:232|278:197,1,131.99999597168,2|0,1:2|0:2,0:0:0:0:
40,357,66014,2,0,P|127:373|188:337,1,131.99999597168,8|0,0:2|0:2,0:0:0:0:
255,118,66419,5,4,1:2:0:0:
186,224,66622,1,0,0:2:0:0:
338,339,66825,2,0,P|341:307|321:263,2,55,10|2|2,0:2|0:2|0:2,0:0:0:0:
452,368,67230,2,0,P|486:294|469:238,1,110,0|0,1:2|0:2,0:0:0:0:
456,233,67534,1,0,0:2:0:0:
456,233,67636,1,8,0:2:0:0:
254,319,67838,5,0,1:2:0:0:
254,319,67940,1,0,1:2:0:0:
254,319,68041,1,4,1:2:0:0:
384,171,68244,1,0,1:2:0:0:
452,368,68446,1,8,0:2:0:0:
183,132,68649,1,4,1:2:0:0:
183,132,69054,5,0,1:2:0:0:
95,236,69257,1,8,0:2:0:0:
172,344,69460,5,0,1:2:0:0:
172,344,69561,1,0,1:2:0:0:
172,344,69663,2,0,P|160:271|97:223,1,110,4|0,1:2|0:2,0:0:0:0:
95,236,69967,1,0,0:2:0:0:
95,236,70068,1,8,0:2:0:0:
63,332,70271,1,0,0:2:0:0:
238,232,70473,2,0,P|258:167|223:101,1,110,0|0,1:2|0:2,0:0:0:0:
212,106,70777,1,0,0:2:0:0:
212,106,70879,1,8,0:2:0:0:
371,229,71082,1,8,0:2:0:0:
371,229,71487,6,0,L|384:349,2,110,2|0|0,0:0|0:0|0:0,0:0:0:0:
416,126,72095,2,0,P|349:202|218:165,1,220,2|2,1:0|1:0,0:0:0:0:
169,32,72906,6,0,P|189:96|162:150,1,110,2|0,1:2|0:0,0:0:0:0:
240,187,73311,1,2,1:2:0:0:
42,238,73717,5,2,1:0:0:0:
176,134,74021,1,2,1:0:0:0:
203,307,74325,1,2,1:0:0:0:
203,307,74730,5,2,0:0:0:0:
276,256,74933,1,0,0:0:0:0:
359,297,75136,1,0,0:0:0:0:
240,384,75338,6,0,P|232:302|307:166,1,220,2|2,1:0|1:0,0:0:0:0:
203,307,76149,6,0,P|139:287|85:314,1,110,2|0,1:2|0:0,0:0:0:0:
34,236,76554,1,2,1:2:0:0:
225,71,76960,5,2,1:0:0:0:
56,47,77264,1,2,1:0:0:0:
120,211,77568,1,2,1:0:0:0:
120,211,77973,5,2,1:0:0:0:
280,162,78176,1,2,1:0:0:0:
175,367,78379,1,2,1:0:0:0:
332,319,78582,1,2,1:0:0:0:
348,101,78987,5,2,1:0:0:0:
495,179,79190,1,2,1:0:0:0:
276,250,79392,1,2,1:0:0:0:
421,327,79595,1,2,1:0:0:0:
