osu file format v14

[General]
AudioFilename: audio.mp3
AudioLeadIn: 0
PreviewTime: 46257
Countdown: 0
SampleSet: Normal
StackLeniency: 0.7
Mode: 1
LetterboxInBreaks: 0
WidescreenStoryboard: 1

[Editor]
Bookmarks: 27507,33893,40480,53453,59940,67237
DistanceSpacing: 0.9
BeatDivisor: 4
GridSize: 4
TimelineZoom: 1

[Metadata]
Title:Little Adventure
TitleUnicode:リトルアドベンチャー
Artist:Mimi (CV: Hidaka Rina), Misogi (CV: Morohoshi Sumire), Kyouka (CV: Ogura Yui)
ArtistUnicode:ミミ (CV: 日高里菜)、ミソギ (CV: 諸星すみれ)、キョウカ (CV: 小倉唯)
Creator:Faputa
Version:10186's Oni
Source:プリンセスコネクト!Re:Dive
Tags:jacky10186 プリコネR princess connect redive 全ストーリーイベント エンディングテーマ ed ending short version ver. gacha purikone priconne character insert song 05 cygames リトル リリカル アドベンチャーズ リトル・リリカル・アドベンチャーズ lyrical adventures japanese video game anime
BeatmapID:2346060
BeatmapSetID:1122100

[Difficulty]
HPDrainRate:5.5
CircleSize:5
OverallDifficulty:5.5
ApproachRate:5
SliderMultiplier:1.4
SliderTickRate:1

[Events]
//Background and Video events
0,0,"BG.jpg",0,8
Video,1080,"video.mp4"
//Break Periods
//Storyboard Layer 0 (Background)
//Storyboard Layer 1 (Fail)
//Storyboard Layer 2 (Pass)
//Storyboard Layer 3 (Foreground)
//Storyboard Layer 4 (Overlay)
//Storyboard Sound Samples

[TimingPoints]
1562,405.405405405405,4,1,0,85,1,0
8048,-100,4,1,0,80,0,0
21021,-100,4,1,0,70,0,0
44534,-100,4,1,0,85,0,0
46967,-100,4,1,0,90,0,1
71089,-100,4,1,0,85,0,0
79399,405.405405405405,4,1,0,85,1,8
79602,405.405405405405,4,1,0,85,1,0

[HitObjects]
198,188,1562,5,0,0:0:0:0:
193,162,2372,1,0,0:0:0:0:
216,104,2676,1,0,0:0:0:0:
216,104,2980,1,8,0:0:0:0:
248,118,3994,1,12,0:0:0:0:
248,118,4399,1,12,0:0:0:0:
248,118,4805,1,0,0:0:0:0:
248,118,5616,1,0,0:0:0:0:
248,118,5920,1,0,0:0:0:0:
248,118,6224,1,8,0:0:0:0:
248,118,6629,1,12,0:0:0:0:
248,118,6832,1,12,0:0:0:0:
248,118,7034,1,0,0:0:0:0:
206,171,7237,1,12,0:0:0:0:
231,248,7643,1,8,0:0:0:0:
200,166,8048,1,4,0:0:0:0:
381,151,8453,1,8,0:0:0:0:
300,175,8555,1,8,0:0:0:0:
381,151,8757,1,0,0:0:0:0:
203,154,9061,1,0,0:0:0:0:
245,102,9264,1,8,0:0:0:0:
357,181,9467,1,8,0:0:0:0:
363,179,9568,1,8,0:0:0:0:
234,171,9670,1,0,0:0:0:0:
160,92,9974,1,8,0:0:0:0:
362,152,10075,1,8,0:0:0:0:
342,189,10278,1,0,0:0:0:0:
271,118,10480,1,8,0:0:0:0:
289,121,10886,1,8,0:0:0:0:
284,120,11291,1,0,0:0:0:0:
255,259,11697,1,0,0:0:0:0:
231,120,11798,1,8,0:0:0:0:
289,121,12001,1,8,0:0:0:0:
194,122,12305,1,0,0:0:0:0:
194,122,12507,1,8,0:0:0:0:
215,115,12609,1,0,0:0:0:0:
215,115,12710,1,8,0:0:0:0:
194,122,12913,1,4,0:0:0:0:
216,106,13217,1,0,0:0:0:0:
199,124,13521,1,12,0:0:0:0:
199,124,13926,1,0,0:0:0:0:
199,124,14129,1,8,0:0:0:0:
248,111,14332,1,8,0:0:0:0:
248,111,14433,1,8,0:0:0:0:
248,111,14534,1,0,0:0:0:0:
248,111,14737,1,0,0:0:0:0:
248,111,14940,1,8,0:0:0:0:
270,130,15345,1,8,0:0:0:0:
270,130,15447,1,0,0:0:0:0:
207,135,15548,1,0,0:0:0:0:
270,130,15649,1,8,0:0:0:0:
272,141,15953,1,0,0:0:0:0:
272,141,16359,1,0,0:0:0:0:
272,141,16561,1,8,0:0:0:0:
133,148,16967,1,0,0:0:0:0:
193,164,17068,1,8,0:0:0:0:
333,236,17170,1,8,0:0:0:0:
193,164,17271,1,0,0:0:0:0:
193,164,17575,1,8,0:0:0:0:
264,127,17778,1,8,0:0:0:0:
205,156,17879,1,8,0:0:0:0:
223,148,18082,1,0,0:0:0:0:
298,171,18183,1,0,0:0:0:0:
264,127,18386,1,0,0:0:0:0:
264,127,18589,1,8,0:0:0:0:
229,95,18994,1,8,0:0:0:0:
359,240,19197,1,8,0:0:0:0:
166,120,19298,1,8,0:0:0:0:
229,95,19399,1,4,0:0:0:0:
230,99,19703,1,0,0:0:0:0:
230,99,20007,1,12,0:0:0:0:
230,99,20413,1,0,0:0:0:0:
230,99,20616,1,8,0:0:0:0:
268,134,21021,1,4,0:0:0:0:
425,215,21426,1,0,0:0:0:0:
201,109,21832,1,8,0:0:0:0:
229,112,22237,1,8,0:0:0:0:
261,215,22440,1,0,0:0:0:0:
229,112,22643,1,0,0:0:0:0:
200,43,23048,1,8,0:0:0:0:
200,43,23453,1,0,0:0:0:0:
234,102,23859,1,8,0:0:0:0:
234,102,24264,1,4,0:0:0:0:
234,102,24467,1,0,0:0:0:0:
234,102,24670,1,8,0:0:0:0:
234,102,25075,1,4,0:0:0:0:
214,97,25278,1,8,0:0:0:0:
234,102,25480,1,0,0:0:0:0:
234,102,25683,1,4,0:0:0:0:
234,115,26089,1,8,0:0:0:0:
268,131,26291,1,0,0:0:0:0:
313,129,26393,1,8,0:0:0:0:
222,35,26595,1,0,0:0:0:0:
284,85,26697,1,8,0:0:0:0:
284,85,26899,1,0,0:0:0:0:
284,85,27001,1,8,0:0:0:0:
393,189,27102,1,8,0:0:0:0:
293,116,27203,1,0,0:0:0:0:
208,158,27507,1,4,0:0:0:0:
244,131,27710,1,0,0:0:0:0:
271,131,27811,1,0,0:0:0:0:
244,131,27913,1,8,0:0:0:0:
224,122,28116,1,0,0:0:0:0:
372,271,28318,1,8,0:0:0:0:
330,279,28724,1,8,0:0:0:0:
215,117,28926,1,0,0:0:0:0:
342,277,29129,1,8,0:0:0:0:
197,108,29230,1,8,0:0:0:0:
276,143,29332,1,0,0:0:0:0:
154,237,29433,1,8,0:0:0:0:
302,130,29737,1,0,0:0:0:0:
302,130,30143,1,0,0:0:0:0:
299,217,30345,1,8,0:0:0:0:
297,132,30751,1,0,0:0:0:0:
320,138,30953,1,0,0:0:0:0:
378,204,31055,1,0,0:0:0:0:
288,160,31156,1,8,0:0:0:0:
328,134,31561,1,0,0:0:0:0:
328,134,31764,1,0,0:0:0:0:
378,204,31866,1,0,0:0:0:0:
328,134,31967,1,8,0:0:0:0:
276,70,32170,1,0,0:0:0:0:
267,97,32372,1,4,0:0:0:0:
267,97,32676,1,12,0:0:0:0:
267,97,32980,1,4,0:0:0:0:
267,97,33183,1,12,0:0:0:0:
240,264,33589,1,8,0:0:0:0:
233,108,33893,1,4,0:0:0:0:
165,126,34298,1,0,0:0:0:0:
249,119,34399,1,8,0:0:0:0:
249,122,34602,1,0,0:0:0:0:
249,121,34805,1,8,0:0:0:0:
384,224,35007,1,8,0:0:0:0:
281,116,35109,1,0,0:0:0:0:
281,116,35311,1,0,0:0:0:0:
324,276,35514,1,8,0:0:0:0:
247,135,35818,1,0,0:0:0:0:
218,50,35920,1,8,0:0:0:0:
304,127,36224,1,0,0:0:0:0:
303,124,36426,1,8,0:0:0:0:
217,61,36629,1,8,0:0:0:0:
276,136,36730,1,8,0:0:0:0:
286,128,36832,1,0,0:0:0:0:
250,126,36933,1,0,0:0:0:0:
331,261,37136,1,8,0:0:0:0:
277,135,37440,1,0,0:0:0:0:
276,123,37541,1,8,0:0:0:0:
247,178,37845,1,0,0:0:0:0:
336,260,38048,1,8,0:0:0:0:
426,168,38251,1,8,0:0:0:0:
351,228,38352,1,0,0:0:0:0:
139,137,38453,1,0,0:0:0:0:
245,75,38555,1,8,0:0:0:0:
362,181,38757,1,8,0:0:0:0:
248,104,38859,1,0,0:0:0:0:
252,141,39061,1,0,0:0:0:0:
250,85,39163,1,0,0:0:0:0:
310,251,39264,1,8,0:0:0:0:
297,168,39467,1,0,0:0:0:0:
321,120,39670,1,8,0:0:0:0:
212,92,39771,1,0,0:0:0:0:
321,120,39872,1,8,0:0:0:0:
400,184,40075,1,0,0:0:0:0:
393,160,40480,1,4,0:0:0:0:
340,173,40886,1,0,0:0:0:0:
391,242,41089,1,12,0:0:0:0:
286,187,41494,1,0,0:0:0:0:
231,116,41697,1,0,0:0:0:0:
231,116,41798,1,0,0:0:0:0:
273,166,41899,1,12,0:0:0:0:
253,135,42305,1,0,0:0:0:0:
265,145,42507,1,8,0:0:0:0:
265,145,42710,1,4,0:0:0:0:
265,145,43116,1,0,0:0:0:0:
265,145,43318,1,8,0:0:0:0:
265,145,43521,1,8,0:0:0:0:
265,145,43622,1,8,0:0:0:0:
265,145,43724,1,0,0:0:0:0:
265,145,44534,1,4,0:0:0:0:
265,145,44839,1,4,0:0:0:0:
265,145,45143,1,12,0:0:0:0:
203,124,45548,1,0,0:0:0:0:
256,192,45751,12,0,46561,0:0:0:0:
216,146,46967,5,4,0:0:0:0:
480,181,47271,1,8,0:0:0:0:
253,194,47372,1,8,0:0:0:0:
430,238,47575,1,8,0:0:0:0:
241,134,47778,1,0,0:0:0:0:
241,134,47980,1,0,0:0:0:0:
266,134,48082,1,0,0:0:0:0:
241,134,48183,1,8,0:0:0:0:
250,121,48589,1,0,0:0:0:0:
181,103,48893,1,8,0:0:0:0:
215,141,48994,1,0,0:0:0:0:
213,74,49197,1,8,0:0:0:0:
213,30,49602,1,0,0:0:0:0:
213,35,49805,1,8,0:0:0:0:
223,166,49906,1,0,0:0:0:0:
213,37,50007,1,0,0:0:0:0:
213,40,50210,1,8,0:0:0:0:
324,301,50514,1,0,0:0:0:0:
466,257,50616,1,8,0:0:0:0:
261,153,50818,1,0,0:0:0:0:
240,238,51021,1,8,0:0:0:0:
258,121,51325,1,0,0:0:0:0:
232,128,51426,1,0,0:0:0:0:
483,214,51629,1,8,0:0:0:0:
249,211,51832,1,0,0:0:0:0:
256,192,52237,12,0,53048,0:0:0:0:
454,195,53453,5,8,0:0:0:0:
356,196,53555,1,8,0:0:0:0:
224,40,53757,1,0,0:0:0:0:
325,241,54061,1,8,0:0:0:0:
223,153,54467,1,0,0:0:0:0:
218,141,54670,1,8,0:0:0:0:
280,160,54771,1,8,0:0:0:0:
218,141,54872,1,0,0:0:0:0:
218,141,55075,1,0,0:0:0:0:
232,72,55176,1,0,0:0:0:0:
232,72,55379,1,8,0:0:0:0:
364,228,55683,1,0,0:0:0:0:
184,176,56089,1,0,0:0:0:0:
216,152,56190,1,0,0:0:0:0:
468,192,56291,1,8,0:0:0:0:
392,168,56697,1,0,0:0:0:0:
172,60,57001,1,0,0:0:0:0:
280,128,57102,1,8,0:0:0:0:
240,56,57305,1,8,0:0:0:0:
240,56,57507,1,0,0:0:0:0:
240,56,57811,1,8,0:0:0:0:
260,88,57913,1,0,0:0:0:0:
240,56,58116,1,8,0:0:0:0:
240,56,58318,1,0,0:0:0:0:
196,156,58521,1,0,0:0:0:0:
224,56,58622,1,0,0:0:0:0:
368,236,58724,1,8,0:0:0:0:
300,192,58926,1,0,0:0:0:0:
464,124,59129,1,8,0:0:0:0:
464,124,59332,1,8,0:0:0:0:
456,204,59433,1,8,0:0:0:0:
464,124,59534,1,0,0:0:0:0:
248,164,59636,1,0,0:0:0:0:
432,228,59737,1,8,0:0:0:0:
308,176,59940,1,4,0:0:0:0:
408,236,60244,1,8,0:0:0:0:
408,236,60345,1,8,0:0:0:0:
392,204,60548,1,8,0:0:0:0:
152,128,60751,1,0,0:0:0:0:
168,128,60953,1,0,0:0:0:0:
168,128,61055,1,0,0:0:0:0:
168,128,61156,1,8,0:0:0:0:
232,80,61561,1,0,0:0:0:0:
224,156,61663,1,0,0:0:0:0:
300,172,61866,1,8,0:0:0:0:
300,172,61967,1,0,0:0:0:0:
304,152,62170,1,8,0:0:0:0:
176,180,62575,1,0,0:0:0:0:
200,136,62676,1,8,0:0:0:0:
360,176,62778,1,8,0:0:0:0:
232,152,62879,1,0,0:0:0:0:
232,184,62980,1,0,0:0:0:0:
344,144,63183,1,8,0:0:0:0:
272,160,63487,1,0,0:0:0:0:
272,152,63589,1,8,0:0:0:0:
260,124,63791,1,8,0:0:0:0:
260,124,63994,1,0,0:0:0:0:
156,124,64095,1,0,0:0:0:0:
200,128,64298,1,8,0:0:0:0:
200,220,64399,1,0,0:0:0:0:
200,128,64602,1,8,0:0:0:0:
224,120,64805,1,0,0:0:0:0:
256,192,65210,12,0,66021,0:0:0:0:
376,216,66426,5,0,0:0:0:0:
360,236,66629,1,0,0:0:0:0:
200,80,66730,1,0,0:0:0:0:
200,124,66832,1,8,0:0:0:0:
200,124,67034,1,8,0:0:0:0:
216,80,67237,1,0,0:0:0:0:
216,80,67541,1,8,0:0:0:0:
168,132,67643,1,8,0:0:0:0:
216,80,67845,1,0,0:0:0:0:
248,200,68048,1,12,0:0:0:0:
176,116,68251,1,8,0:0:0:0:
176,116,68453,1,0,0:0:0:0:
176,116,68656,1,12,0:0:0:0:
328,136,69061,1,0,0:0:0:0:
328,136,69264,1,8,0:0:0:0:
304,192,69366,1,0,0:0:0:0:
328,136,69467,1,8,0:0:0:0:
328,136,69670,1,0,0:0:0:0:
248,32,69974,1,8,0:0:0:0:
176,248,70075,1,0,0:0:0:0:
248,32,70278,1,8,0:0:0:0:
248,32,70480,1,0,0:0:0:0:
60,180,70784,1,8,0:0:0:0:
400,256,70886,1,0,0:0:0:0:
236,132,70987,1,0,0:0:0:0:
248,32,71089,1,8,0:0:0:0:
176,136,71494,1,0,0:0:0:0:
204,136,71697,1,8,0:0:0:0:
204,136,71899,1,8,0:0:0:0:
212,100,72102,1,4,0:0:0:0:
212,100,72507,1,4,0:0:0:0:
198,188,72913,1,0,0:0:0:0:
193,162,73724,1,0,0:0:0:0:
216,104,74028,1,0,0:0:0:0:
216,104,74332,1,8,0:0:0:0:
248,118,75345,1,12,0:0:0:0:
248,118,75751,1,12,0:0:0:0:
248,118,76156,1,0,0:0:0:0:
248,118,76967,1,0,0:0:0:0:
248,118,77271,1,0,0:0:0:0:
248,118,77575,1,8,0:0:0:0:
248,118,77980,1,12,0:0:0:0:
248,118,78183,1,12,0:0:0:0:
248,118,78386,1,0,0:0:0:0:
206,171,78589,1,12,0:0:0:0:
224,104,78994,1,12,0:0:0:0:
224,104,79197,1,12,0:0:0:0:
232,104,79399,1,0,0:0:0:0:
312,216,79602,1,4,0:0:0:0:
