osu file format v14

[General]
AudioFilename: audio.mp3
AudioLeadIn: 0
PreviewTime: 46937
Countdown: 0
SampleSet: Normal
StackLeniency: 0.7
Mode: 1
LetterboxInBreaks: 0
WidescreenStoryboard: 1

[Editor]
Bookmarks: 6021,24687,35354,40687,68688
DistanceSpacing: 0.8
BeatDivisor: 2
GridSize: 32
TimelineZoom: 0.8999999

[Metadata]
Title:Trick Holic
TitleUnicode:トリックホリック
Artist:Mimi (CV: Hidaka Rina), Kyoka (CV: Ogura Yui), Misogi (CV: Morohoshi Sumire)
ArtistUnicode:ミミ (CV: 日高里菜)、キョウカ (CV: 小倉唯)、ミソギ (CV: 諸星すみれ)
Creator:Faputa
Version:Tyis' Futsuu
Source:プリンセスコネクト!Re:Dive
Tags:Tyistiana プリコネr princess connect redive Cygames Purikone PRICONNE CHARACTER SONG 12 リトル・ブレイブ・ハロウィンナイト! Little Brave Halloween Night Event Short Cut Version Ver. edテーマ ending theme jpop j-pop pop Kyouka Cute Girl Voice Japanese Video Game Gacha
BeatmapID:2565908
BeatmapSetID:1200819

[Difficulty]
HPDrainRate:7
CircleSize:2
OverallDifficulty:4
ApproachRate:10
SliderMultiplier:1.4
SliderTickRate:1

[Events]
//Background and Video events
0,0,"BG.jpg",0,0
Video,-875,"Video.mp4"
//Break Periods
//Storyboard Layer 0 (Background)
//Storyboard Layer 1 (Fail)
//Storyboard Layer 2 (Pass)
//Storyboard Layer 3 (Foreground)
//Storyboard Layer 4 (Overlay)
//Storyboard Sound Samples

[TimingPoints]
688,333.333333333333,4,1,0,95,1,0
688,-111.111111111111,4,1,0,95,0,0
11521,-111.111111111111,4,1,0,85,0,0
13854,-111.111111111111,4,1,0,95,0,0
14021,333.333333333333,4,1,0,95,1,0
14021,-111.111111111111,4,1,0,95,0,0
24604,-111.111111111111,4,1,0,100,0,0
35271,-111.111111111111,4,1,0,90,0,0
46021,-111.111111111111,4,1,0,40,0,0
46937,-111.111111111111,4,1,0,95,0,0
47354,333.333333333333,4,1,0,100,1,1
47354,-111.111111111111,4,1,0,100,0,1
68020,-111.111111111111,4,1,0,95,0,0
73937,-111.111111111111,4,1,0,85,0,0

[HitObjects]
256,192,688,5,0,0:0:0:0:
256,192,1021,1,8,0:0:0:0:
256,192,1187,1,0,0:0:0:0:
256,192,1354,1,0,0:0:0:0:
256,192,1687,1,8,0:0:0:0:
256,192,2021,1,0,0:0:0:0:
256,192,2354,1,8,0:0:0:0:
256,192,2687,1,0,0:0:0:0:
256,192,3354,1,0,0:0:0:0:
256,192,3687,1,8,0:0:0:0:
256,192,3854,1,0,0:0:0:0:
256,192,4021,1,0,0:0:0:0:
256,192,4354,1,8,0:0:0:0:
256,192,4687,1,0,0:0:0:0:
256,192,6021,5,4,0:0:0:0:
256,192,6354,1,8,0:0:0:0:
256,192,6521,1,8,0:0:0:0:
256,192,6687,1,8,0:0:0:0:
256,192,7021,1,8,0:0:0:0:
256,192,7354,1,0,0:0:0:0:
256,192,7521,1,8,0:0:0:0:
256,192,7854,1,8,0:0:0:0:
256,192,8354,1,8,0:0:0:0:
256,192,8687,1,0,0:0:0:0:
256,192,8854,1,0,0:0:0:0:
256,192,9021,1,8,0:0:0:0:
256,192,9354,1,8,0:0:0:0:
256,192,10021,1,8,0:0:0:0:
256,192,10354,1,0,0:0:0:0:
256,192,10687,1,8,0:0:0:0:
256,192,10854,1,8,0:0:0:0:
256,192,11021,1,8,0:0:0:0:
256,192,11354,1,0,0:0:0:0:
256,192,14021,5,4,0:0:0:0:
256,192,14354,1,0,0:0:0:0:
256,192,14687,1,8,0:0:0:0:
256,192,15021,1,8,0:0:0:0:
256,192,15354,1,0,0:0:0:0:
256,192,16021,1,8,0:0:0:0:
256,192,16687,1,8,0:0:0:0:
256,192,17021,1,0,0:0:0:0:
256,192,17354,1,8,0:0:0:0:
256,192,17687,1,0,0:0:0:0:
256,192,18021,1,8,0:0:0:0:
256,192,18687,1,8,0:0:0:0:
256,192,19354,1,0,0:0:0:0:
256,192,19687,1,0,0:0:0:0:
256,192,20021,1,8,0:0:0:0:
256,192,20687,1,0,0:0:0:0:
256,192,21021,1,0,0:0:0:0:
256,192,21354,1,8,0:0:0:0:
256,192,21687,1,0,0:0:0:0:
256,192,22021,1,8,0:0:0:0:
256,192,22354,1,0,0:0:0:0:
256,192,22687,1,0,0:0:0:0:
256,192,23021,1,0,0:0:0:0:
256,192,23354,1,8,0:0:0:0:
256,192,23854,1,0,0:0:0:0:
256,192,24021,1,8,0:0:0:0:
256,192,24187,1,8,0:0:0:0:
256,192,24354,1,8,0:0:0:0:
256,192,24687,5,12,0:0:0:0:
256,192,25021,1,0,0:0:0:0:
256,192,25354,1,8,0:0:0:0:
256,192,25687,1,0,0:0:0:0:
256,192,25854,1,0,0:0:0:0:
256,192,26021,1,0,0:0:0:0:
256,192,26354,1,0,0:0:0:0:
256,192,26687,1,8,0:0:0:0:
256,192,27354,1,8,0:0:0:0:
256,192,27687,1,0,0:0:0:0:
256,192,28021,1,8,0:0:0:0:
256,192,28354,1,0,0:0:0:0:
256,192,28521,1,0,0:0:0:0:
256,192,28687,1,0,0:0:0:0:
256,192,29021,1,0,0:0:0:0:
256,192,29354,1,8,0:0:0:0:
256,192,30021,5,4,0:0:0:0:
256,192,30354,1,0,0:0:0:0:
256,192,30687,1,8,0:0:0:0:
256,192,31021,1,8,0:0:0:0:
256,192,31354,1,0,0:0:0:0:
256,192,31687,1,0,0:0:0:0:
256,192,32021,1,8,0:0:0:0:
256,192,32354,1,8,0:0:0:0:
256,192,32687,1,0,0:0:0:0:
256,192,33021,1,8,0:0:0:0:
256,192,33354,1,0,0:0:0:0:
256,192,33687,1,8,0:0:0:0:
256,192,34021,1,0,0:0:0:0:
256,192,34187,1,0,0:0:0:0:
256,192,34354,1,8,0:0:0:0:
256,192,34687,1,0,0:0:0:0:
256,192,35021,1,8,0:0:0:0:
256,192,35354,5,4,0:0:0:0:
256,192,38021,1,4,0:0:0:0:
256,192,39187,1,12,0:0:0:0:
256,192,39521,1,0,0:0:0:0:
256,192,39687,1,8,0:0:0:0:
256,192,40021,1,0,0:0:0:0:
256,192,40187,1,0,0:0:0:0:
256,192,40354,1,0,0:0:0:0:
256,192,40687,5,4,0:0:0:0:
256,192,41354,1,8,0:0:0:0:
256,192,41687,1,0,0:0:0:0:
256,192,42021,1,0,0:0:0:0:
256,192,42354,1,0,0:0:0:0:
256,192,42687,1,8,0:0:0:0:
256,192,43021,1,0,0:0:0:0:
256,192,43354,1,8,0:0:0:0:
256,192,43687,1,0,0:0:0:0:
256,192,43854,1,0,0:0:0:0:
256,192,44021,1,0,0:0:0:0:
256,192,44354,1,0,0:0:0:0:
256,192,44687,1,8,0:0:0:0:
256,192,45021,1,0,0:0:0:0:
256,192,45187,1,0,0:0:0:0:
256,192,45354,1,8,0:0:0:0:
256,192,45687,1,0,0:0:0:0:
256,192,45854,1,8,0:0:0:0:
256,192,47021,1,8,0:0:0:0:
256,192,47354,5,4,0:0:0:0:
256,192,47520,1,0,0:0:0:0:
256,192,47687,1,8,0:0:0:0:
256,192,48021,1,0,0:0:0:0:
256,192,48354,1,8,0:0:0:0:
256,192,48687,1,0,0:0:0:0:
256,192,49187,1,8,0:0:0:0:
256,192,49854,1,8,0:0:0:0:
256,192,50021,1,0,0:0:0:0:
256,192,50354,1,8,0:0:0:0:
256,192,50687,1,0,0:0:0:0:
256,192,51021,1,8,0:0:0:0:
256,192,51354,1,0,0:0:0:0:
256,192,51854,1,8,0:0:0:0:
256,192,52021,1,8,0:0:0:0:
256,192,52354,1,12,0:0:0:0:
256,192,52687,5,0,0:0:0:0:
256,192,52854,1,0,0:0:0:0:
256,192,53021,1,8,0:0:0:0:
256,192,53187,1,8,0:0:0:0:
256,192,53354,1,0,0:0:0:0:
256,192,53687,1,8,0:0:0:0:
256,192,53854,1,0,0:0:0:0:
256,192,54021,1,0,0:0:0:0:
256,192,54354,1,0,0:0:0:0:
256,192,54521,1,8,0:0:0:0:
256,192,55187,1,8,0:0:0:0:
256,192,55354,1,0,0:0:0:0:
256,192,55687,1,8,0:0:0:0:
256,192,56021,1,0,0:0:0:0:
256,192,56354,1,8,0:0:0:0:
256,192,56687,1,0,0:0:0:0:
256,192,57187,1,8,0:0:0:0:
256,192,57687,1,8,0:0:0:0:
256,192,58021,5,4,0:0:0:0:
256,192,58687,1,8,0:0:0:0:
256,192,59521,1,0,0:0:0:0:
256,192,59687,1,8,0:0:0:0:
256,192,59854,1,0,0:0:0:0:
256,192,60187,1,8,0:0:0:0:
256,192,60354,1,0,0:0:0:0:
256,192,60521,1,8,0:0:0:0:
256,192,60854,1,8,0:0:0:0:
256,192,61021,1,0,0:0:0:0:
256,192,61354,1,8,0:0:0:0:
256,192,61521,1,0,0:0:0:0:
256,192,61687,1,0,0:0:0:0:
256,192,61854,1,8,0:0:0:0:
256,192,62687,5,0,0:0:0:0:
256,192,63021,1,8,0:0:0:0:
256,192,63354,1,4,0:0:0:0:
256,192,63687,1,0,0:0:0:0:
256,192,63854,1,0,0:0:0:0:
256,192,64021,1,8,0:0:0:0:
256,192,64354,1,0,0:0:0:0:
256,192,64687,1,8,0:0:0:0:
256,192,65021,1,0,0:0:0:0:
256,192,65187,1,0,0:0:0:0:
256,192,65354,1,8,0:0:0:0:
256,192,65687,1,0,0:0:0:0:
256,192,66021,1,8,0:0:0:0:
256,192,66354,1,0,0:0:0:0:
256,192,66687,1,8,0:0:0:0:
256,192,67021,1,8,0:0:0:0:
256,192,67354,1,0,0:0:0:0:
256,192,67521,1,8,0:0:0:0:
256,192,67687,1,0,0:0:0:0:
256,192,67854,1,0,0:0:0:0:
256,192,68021,1,8,0:0:0:0:
256,192,68687,5,4,0:0:0:0:
256,192,69021,1,8,0:0:0:0:
256,192,69187,1,0,0:0:0:0:
256,192,69354,1,0,0:0:0:0:
256,192,69687,1,8,0:0:0:0:
256,192,70021,1,0,0:0:0:0:
256,192,70187,1,8,0:0:0:0:
256,192,70354,1,8,0:0:0:0:
256,192,70687,1,0,0:0:0:0:
256,192,71021,1,8,0:0:0:0:
256,192,71354,5,4,0:0:0:0:
256,192,71687,1,8,0:0:0:0:
256,192,71853,1,0,0:0:0:0:
256,192,72021,1,0,0:0:0:0:
256,192,72354,1,8,0:0:0:0:
256,192,72687,1,0,0:0:0:0:
256,192,73021,1,8,0:0:0:0:
256,192,73354,1,0,0:0:0:0:
256,192,73687,1,8,0:0:0:0:
256,192,74021,5,0,0:0:0:0:
256,192,76687,1,8,0:0:0:0:
