osu file format v14

[General]
AudioFilename: audio.mp3
AudioLeadIn: 0
PreviewTime: 46937
Countdown: 0
SampleSet: Normal
StackLeniency: 0.7
Mode: 1
LetterboxInBreaks: 0
WidescreenStoryboard: 0

[Editor]
Bookmarks: 6021,24687,35354,40687,68688
DistanceSpacing: 0.8
BeatDivisor: 4
GridSize: 32
TimelineZoom: 1.5

[Metadata]
Title:Trick Holic
TitleUnicode:トリックホリック
Artist:Mimi (CV: Hidaka Rina), Kyoka (CV: Ogura Yui), Misogi (CV: Morohoshi Sumire)
ArtistUnicode:ミミ (CV: 日高里菜)、キョウカ (CV: 小倉唯)、ミソギ (CV: 諸星すみれ)
Creator:Faputa
Version:Lyrical Oni
Source:プリンセスコネクト!Re:Dive
Tags:Tyistiana プリコネr princess connect redive Cygames Purikone PRICONNE CHARACTER SONG 12 リトル・ブレイブ・ハロウィンナイト! Little Brave Halloween Night Event Short Cut Version Ver. edテーマ ending theme jpop j-pop pop Kyouka Cute Girl Voice Japanese Video Game Gacha
BeatmapID:2500721
BeatmapSetID:1200819

[Difficulty]
HPDrainRate:6
CircleSize:2
OverallDifficulty:6
ApproachRate:10
SliderMultiplier:1.4
SliderTickRate:1

[Events]
//Background and Video events
0,0,"BG.jpg",0,0
Video,-875,"Video.mp4"
//Break Periods
//Storyboard Layer 0 (Background)
//Storyboard Layer 1 (Fail)
//Storyboard Layer 2 (Pass)
//Storyboard Layer 3 (Foreground)
//Storyboard Layer 4 (Overlay)
//Storyboard Sound Samples

[TimingPoints]
688,333.333333333333,4,1,0,95,1,0
688,-111.111111111111,4,1,0,95,0,0
5271,-108.695652173913,4,1,0,95,0,0
5437,-106.382978723404,4,1,0,95,0,0
5604,-104.166666666667,4,1,0,95,0,0
5743,-103.092783505155,4,1,0,95,0,0
5799,-102.040816326531,4,1,0,95,0,0
5854,-101.010101010101,4,1,0,95,0,0
5937,-100,4,1,0,95,0,0
11521,-102.040816326531,4,1,0,85,0,0
11854,-104.166666666667,4,1,0,85,0,0
12187,-106.382978723404,4,1,0,85,0,0
12521,-108.695652173913,4,1,0,85,0,0
12854,-111.111111111111,4,1,0,85,0,0
13187,-113.636363636364,4,1,0,85,0,0
13521,-116.279069767442,4,1,0,85,0,0
13854,-117.647058823529,4,1,0,95,0,0
14021,333.333333333333,4,1,0,95,1,0
14021,-117.647058823529,4,1,0,95,0,0
23270,-117.647058823529,4,1,0,95,0,0
23437,-115.834588208039,4,1,0,95,0,0
23604,-114.077116130504,4,1,0,95,0,0
23770,-111.111111111111,4,1,0,95,0,0
23937,-109.89010989011,4,1,0,95,0,0
24020,-108.695652173913,4,1,0,95,0,0
24104,-107.181136120043,4,1,0,95,0,0
24187,-106.382978723404,4,1,0,95,0,0
24270,-105.263157894737,4,1,0,95,0,0
24354,-104.166666666667,4,1,0,95,0,0
24520,-102.040816326531,4,1,0,95,0,0
24604,-100,4,1,0,100,0,0
35271,-100,4,1,0,90,0,0
35520,-103.092783505155,4,1,0,90,0,0
35687,-105.263157894737,4,1,0,90,0,0
35854,-111.111111111111,4,1,0,90,0,0
37937,-107.52688172043,4,1,0,90,0,0
39104,-104.166666666667,4,1,0,90,0,0
40187,-103.092783505155,4,1,0,90,0,0
40354,-102.040816326531,4,1,0,90,0,0
40437,-101.522842639594,4,1,0,90,0,0
40520,-101.010101010101,4,1,0,90,0,0
40687,-100,4,1,0,90,0,0
43354,-100,4,1,0,90,0,0
43520,-99.3538028661585,4,1,0,90,0,0
43604,-99.0338259936064,4,1,0,90,0,0
43687,-98.7159035269218,4,1,0,90,0,0
43770,-98.4000157440025,4,1,0,90,0,0
43854,-98.0861431743815,4,1,0,90,0,0
43937,-97.7742665952263,4,1,0,90,0,0
44020,-97.4643670274148,4,1,0,90,0,0
44104,-97.156425731685,4,1,0,90,0,0
44187,-96.850424204858,4,1,0,90,0,0
44270,-96.5463441761314,4,1,0,90,0,0
44354,-96.2441676034432,4,1,0,90,0,0
44437,-95.9438766699032,4,1,0,90,0,0
44520,-95.6454537802909,4,1,0,90,0,0
44687,-95.0540524869467,4,1,0,90,0,0
44770,-94.7611308793359,4,1,0,90,0,0
44854,-94.4700090785679,4,1,0,90,0,0
44937,-94.1806705475382,4,1,0,90,0,0
45020,-93.8930989511202,4,1,0,90,0,0
45104,-93.607278153091,4,1,0,90,0,0
45187,-93.3231922131128,4,1,0,90,0,0
45270,-93.0408253837701,4,1,0,90,0,0
45354,-92.7601621076593,4,1,0,90,0,0
45465,-92.3885678386157,4,1,0,90,0,0
45576,-92.0199388803566,4,1,0,90,0,0
45687,-91.6542398793097,4,1,0,90,0,0
45798,-91.2914360416764,4,1,0,90,0,0
45909,-90.9314931223965,4,1,0,90,0,0
45965,-90.9090909090909,4,1,0,40,0,0
46937,-90.9090909090909,4,1,0,95,0,0
47354,333.333333333333,4,1,0,100,1,1
47354,-90.9090909090909,4,1,0,100,0,1
58187,-95.2380952380952,4,1,0,100,0,1
62687,-95.2380952380952,4,1,0,100,0,1
62770,-94.6802930544431,4,1,0,100,0,1
62853,-94.1290754359823,4,1,0,100,0,1
62937,-93.5841513368028,4,1,0,100,0,1
63020,-93.0455867547746,4,1,0,100,0,1
63103,-92.5130998549395,4,1,0,100,0,1
63187,-91.9867575863779,4,1,0,100,0,1
63353,-90.9090909090909,4,1,0,100,0,1
67520,-91.743119266055,4,1,0,100,0,1
67853,-93.4579439252336,4,1,0,100,0,1
68020,-94.3396226415094,4,1,0,95,0,0
68353,-97.0873786407767,4,1,0,95,0,0
68687,-100,4,1,0,95,0,0
73937,-100,4,1,0,85,0,0
74187,-101.010101010101,4,1,0,85,0,0
74521,-102.040816326531,4,1,0,85,0,0
74854,-103.092783505155,4,1,0,85,0,0
75187,-104.166666666667,4,1,0,85,0,0
75521,-105.263157894737,4,1,0,85,0,0
75854,-106.382978723404,4,1,0,85,0,0
76187,-107.181136120043,4,1,0,85,0,0
76521,-108.695652173913,4,1,0,85,0,0
76854,-109.89010989011,4,1,0,85,0,0
77187,-111.111111111111,4,1,0,85,0,0
77521,-112.359550561798,4,1,0,85,0,0
77854,-113.636363636364,4,1,0,85,0,0
78187,-114.942528735632,4,1,0,85,0,0
78521,-116.279069767442,4,1,0,85,0,0
78854,-117.647058823529,4,1,0,85,0,0

[HitObjects]
256,192,688,5,4,0:0:0:0:
256,192,854,1,0,0:0:0:0:
256,192,1021,1,8,0:0:0:0:
256,192,1187,1,0,0:0:0:0:
256,192,1354,1,8,0:0:0:0:
256,192,1521,1,8,0:0:0:0:
256,192,1687,1,0,0:0:0:0:
256,192,1854,1,0,0:0:0:0:
256,192,2021,1,8,0:0:0:0:
256,192,2187,1,0,0:0:0:0:
256,192,2354,1,8,0:0:0:0:
256,192,2521,1,0,0:0:0:0:
256,192,2687,1,8,0:0:0:0:
256,192,2854,1,8,0:0:0:0:
256,192,3021,1,0,0:0:0:0:
256,192,3187,1,0,0:0:0:0:
256,192,3271,1,0,0:0:0:0:
256,192,3354,1,0,0:0:0:0:
256,192,3521,1,0,0:0:0:0:
256,192,3687,1,8,0:0:0:0:
256,192,3854,1,0,0:0:0:0:
256,192,4021,1,0,0:0:0:0:
256,192,4187,1,8,0:0:0:0:
256,192,4354,1,8,0:0:0:0:
256,192,4521,1,0,0:0:0:0:
256,192,4604,1,0,0:0:0:0:
256,192,4687,1,8,0:0:0:0:
256,192,5021,1,8,0:0:0:0:
256,192,5354,1,0,0:0:0:0:
256,192,5521,1,0,0:0:0:0:
256,192,5687,1,8,0:0:0:0:
256,192,5743,1,8,0:0:0:0:
256,192,5799,1,8,0:0:0:0:
256,192,5854,1,0,0:0:0:0:
256,192,6021,1,12,0:0:0:0:
256,192,6354,1,8,0:0:0:0:
256,192,6521,1,0,0:0:0:0:
256,192,6604,1,0,0:0:0:0:
256,192,6687,1,0,0:0:0:0:
256,192,6854,1,0,0:0:0:0:
256,192,7021,1,8,0:0:0:0:
256,192,7187,1,0,0:0:0:0:
256,192,7354,1,0,0:0:0:0:
256,192,7521,1,8,0:0:0:0:
256,192,7604,1,0,0:0:0:0:
256,192,7687,1,8,0:0:0:0:
256,192,7854,1,0,0:0:0:0:
256,192,8021,1,8,0:0:0:0:
256,192,8187,1,0,0:0:0:0:
256,192,8271,1,0,0:0:0:0:
256,192,8354,1,8,0:0:0:0:
256,192,8521,1,0,0:0:0:0:
256,192,8687,1,0,0:0:0:0:
256,192,8854,1,0,0:0:0:0:
256,192,9021,1,8,0:0:0:0:
256,192,9187,1,8,0:0:0:0:
256,192,9271,1,8,0:0:0:0:
256,192,9354,1,0,0:0:0:0:
256,192,9521,1,0,0:0:0:0:
256,192,9687,1,8,0:0:0:0:
256,192,9771,1,8,0:0:0:0:
256,192,9854,1,0,0:0:0:0:
256,192,9937,1,0,0:0:0:0:
256,192,10021,1,8,0:0:0:0:
256,192,10187,1,0,0:0:0:0:
256,192,10271,1,0,0:0:0:0:
256,192,10354,1,8,0:0:0:0:
256,192,10521,1,0,0:0:0:0:
256,192,10604,1,0,0:0:0:0:
256,192,10687,1,8,0:0:0:0:
256,192,10771,1,8,0:0:0:0:
256,192,10854,1,0,0:0:0:0:
256,192,10937,1,0,0:0:0:0:
256,192,11021,1,8,0:0:0:0:
256,192,11104,1,0,0:0:0:0:
256,192,11187,1,8,0:0:0:0:
256,192,11271,1,8,0:0:0:0:
256,192,11354,1,0,0:0:0:0:
256,192,11687,1,8,0:0:0:0:
256,192,12021,1,8,0:0:0:0:
256,192,12354,1,0,0:0:0:0:
256,192,12687,1,0,0:0:0:0:
256,192,13021,1,8,0:0:0:0:
256,192,13354,1,8,0:0:0:0:
256,192,13687,1,0,0:0:0:0:
256,192,14021,1,4,0:0:0:0:
256,192,14187,1,0,0:0:0:0:
256,192,14354,1,8,0:0:0:0:
256,192,14521,1,0,0:0:0:0:
256,192,14604,1,0,0:0:0:0:
256,192,14687,1,0,0:0:0:0:
256,192,14854,1,0,0:0:0:0:
256,192,15021,1,8,0:0:0:0:
256,192,15187,1,8,0:0:0:0:
256,192,15521,1,0,0:0:0:0:
256,192,15687,1,8,0:0:0:0:
256,192,15854,1,0,0:0:0:0:
256,192,15937,1,0,0:0:0:0:
256,192,16021,1,0,0:0:0:0:
256,192,16187,1,8,0:0:0:0:
256,192,16354,1,0,0:0:0:0:
256,192,16521,1,8,0:0:0:0:
256,192,16687,1,0,0:0:0:0:
256,192,16854,1,0,0:0:0:0:
256,192,16937,1,0,0:0:0:0:
256,192,17021,1,8,0:0:0:0:
256,192,17187,1,8,0:0:0:0:
256,192,17354,1,0,0:0:0:0:
256,192,17521,1,0,0:0:0:0:
256,192,17687,1,8,0:0:0:0:
256,192,17854,1,8,0:0:0:0:
256,192,18187,1,8,0:0:0:0:
256,192,18354,1,0,0:0:0:0:
256,192,18437,1,0,0:0:0:0:
256,192,18521,1,8,0:0:0:0:
256,192,18687,1,0,0:0:0:0:
256,192,18854,1,0,0:0:0:0:
256,192,19021,1,8,0:0:0:0:
256,192,19187,1,8,0:0:0:0:
256,192,19271,1,8,0:0:0:0:
256,192,19354,1,0,0:0:0:0:
256,192,19521,1,0,0:0:0:0:
256,192,19687,1,8,0:0:0:0:
256,192,19854,1,8,0:0:0:0:
256,192,19937,1,0,0:0:0:0:
256,192,20021,1,8,0:0:0:0:
256,192,20187,1,0,0:0:0:0:
256,192,20354,1,8,0:0:0:0:
256,192,20687,1,0,0:0:0:0:
256,192,20854,1,0,0:0:0:0:
256,192,20937,1,8,0:0:0:0:
256,192,21021,1,0,0:0:0:0:
256,192,21187,1,8,0:0:0:0:
256,192,21354,1,0,0:0:0:0:
256,192,21521,1,0,0:0:0:0:
256,192,21687,1,8,0:0:0:0:
256,192,21854,1,0,0:0:0:0:
256,192,21937,1,0,0:0:0:0:
256,192,22021,1,8,0:0:0:0:
256,192,22354,1,8,0:0:0:0:
256,192,22521,1,8,0:0:0:0:
256,192,22687,1,0,0:0:0:0:
256,192,22771,1,0,0:0:0:0:
256,192,22854,1,0,0:0:0:0:
256,192,23021,1,8,0:0:0:0:
256,192,23187,1,0,0:0:0:0:
256,192,23354,1,8,0:0:0:0:
256,192,23521,1,8,0:0:0:0:
256,192,23687,1,0,0:0:0:0:
256,192,23854,1,8,0:0:0:0:
256,192,23937,1,0,0:0:0:0:
256,192,24021,1,8,0:0:0:0:
256,192,24104,1,0,0:0:0:0:
256,192,24187,1,0,0:0:0:0:
256,192,24271,1,8,0:0:0:0:
256,192,24354,1,8,0:0:0:0:
256,192,24521,1,8,0:0:0:0:
256,192,24687,1,4,0:0:0:0:
256,192,24854,1,0,0:0:0:0:
256,192,24937,1,0,0:0:0:0:
256,192,25021,1,8,0:0:0:0:
256,192,25187,1,0,0:0:0:0:
256,192,25271,1,0,0:0:0:0:
256,192,25354,1,8,0:0:0:0:
256,192,25437,1,0,0:0:0:0:
256,192,25521,1,8,0:0:0:0:
256,192,25687,1,0,0:0:0:0:
256,192,25854,1,8,0:0:0:0:
256,192,26021,1,0,0:0:0:0:
256,192,26187,1,0,0:0:0:0:
256,192,26354,1,8,0:0:0:0:
256,192,26521,1,0,0:0:0:0:
256,192,26604,1,8,0:0:0:0:
256,192,26687,1,8,0:0:0:0:
256,192,26854,1,8,0:0:0:0:
256,192,26937,1,0,0:0:0:0:
256,192,27021,1,0,0:0:0:0:
256,192,27187,1,8,0:0:0:0:
256,192,27354,1,4,0:0:0:0:
256,192,27521,1,0,0:0:0:0:
256,192,27604,1,0,0:0:0:0:
256,192,27687,1,8,0:0:0:0:
256,192,27854,1,0,0:0:0:0:
256,192,27937,1,0,0:0:0:0:
256,192,28021,1,8,0:0:0:0:
256,192,28104,1,0,0:0:0:0:
256,192,28187,1,8,0:0:0:0:
256,192,28354,1,0,0:0:0:0:
256,192,28521,1,8,0:0:0:0:
256,192,28604,1,0,0:0:0:0:
256,192,28687,1,8,0:0:0:0:
256,192,28854,1,0,0:0:0:0:
256,192,28937,1,0,0:0:0:0:
256,192,29021,1,8,0:0:0:0:
256,192,29187,1,8,0:0:0:0:
256,192,29271,1,0,0:0:0:0:
256,192,29354,1,8,0:0:0:0:
256,192,29437,1,8,0:0:0:0:
256,192,29521,1,0,0:0:0:0:
256,192,29604,1,0,0:0:0:0:
256,192,29687,1,8,0:0:0:0:
256,192,29854,1,0,0:0:0:0:
256,192,30021,1,12,0:0:0:0:
256,192,30187,1,0,0:0:0:0:
256,192,30271,1,0,0:0:0:0:
256,192,30354,1,8,0:0:0:0:
256,192,30521,1,8,0:0:0:0:
256,192,30604,1,8,0:0:0:0:
256,192,30687,1,0,0:0:0:0:
256,192,30771,1,8,0:0:0:0:
256,192,30854,1,0,0:0:0:0:
256,192,31021,1,8,0:0:0:0:
256,192,31187,1,0,0:0:0:0:
256,192,31271,1,0,0:0:0:0:
256,192,31354,1,8,0:0:0:0:
256,192,31521,1,0,0:0:0:0:
256,192,31604,1,8,0:0:0:0:
256,192,31687,1,8,0:0:0:0:
256,192,31854,1,8,0:0:0:0:
256,192,31937,1,0,0:0:0:0:
256,192,32021,1,0,0:0:0:0:
256,192,32104,1,8,0:0:0:0:
256,192,32187,1,0,0:0:0:0:
256,192,32354,1,8,0:0:0:0:
256,192,32521,1,0,0:0:0:0:
256,192,32604,1,8,0:0:0:0:
256,192,32687,1,0,0:0:0:0:
256,192,32854,1,8,0:0:0:0:
256,192,32937,1,8,0:0:0:0:
256,192,33021,1,0,0:0:0:0:
256,192,33187,1,0,0:0:0:0:
256,192,33271,1,0,0:0:0:0:
256,192,33354,1,8,0:0:0:0:
256,192,33437,1,8,0:0:0:0:
256,192,33521,1,0,0:0:0:0:
256,192,33604,1,0,0:0:0:0:
256,192,33687,1,8,0:0:0:0:
256,192,33854,1,0,0:0:0:0:
256,192,33937,1,0,0:0:0:0:
256,192,34021,1,0,0:0:0:0:
256,192,34187,1,8,0:0:0:0:
256,192,34354,1,8,0:0:0:0:
256,192,34521,1,0,0:0:0:0:
256,192,34604,1,0,0:0:0:0:
256,192,34687,1,8,0:0:0:0:
256,192,34771,1,0,0:0:0:0:
256,192,34854,1,8,0:0:0:0:
256,192,35021,1,0,0:0:0:0:
256,192,35104,1,8,0:0:0:0:
256,192,35187,1,8,0:0:0:0:
256,192,35354,1,4,0:0:0:0:
256,192,35521,1,0,0:0:0:0:
256,192,35687,1,0,0:0:0:0:
256,192,36021,1,8,0:0:0:0:
256,192,36354,1,8,0:0:0:0:
256,192,36687,1,0,0:0:0:0:
256,192,37021,1,0,0:0:0:0:
256,192,37354,1,8,0:0:0:0:
256,192,37687,1,8,0:0:0:0:
256,192,37854,1,0,0:0:0:0:
256,192,38021,1,4,0:0:0:0:
256,192,38354,1,0,0:0:0:0:
256,192,38521,1,8,0:0:0:0:
256,192,38687,1,8,0:0:0:0:
256,192,39021,1,0,0:0:0:0:
256,192,39187,1,12,0:0:0:0:
256,192,39521,1,0,0:0:0:0:
256,192,39604,1,0,0:0:0:0:
256,192,39687,1,8,0:0:0:0:
256,192,39854,1,0,0:0:0:0:
256,192,39937,1,8,0:0:0:0:
256,192,40021,1,8,0:0:0:0:
256,192,40187,1,8,0:0:0:0:
256,192,40354,1,0,0:0:0:0:
256,192,40437,1,0,0:0:0:0:
256,192,40521,1,0,0:0:0:0:
256,192,40687,1,8,0:0:0:0:
256,192,40854,1,0,0:0:0:0:
256,192,40937,1,0,0:0:0:0:
256,192,41021,1,8,0:0:0:0:
256,192,41187,1,0,0:0:0:0:
256,192,41354,1,8,0:0:0:0:
256,192,41437,1,8,0:0:0:0:
256,192,41521,1,0,0:0:0:0:
256,192,41604,1,0,0:0:0:0:
256,192,41687,1,8,0:0:0:0:
256,192,41854,1,0,0:0:0:0:
256,192,42021,1,8,0:0:0:0:
256,192,42104,1,8,0:0:0:0:
256,192,42187,1,0,0:0:0:0:
256,192,42354,1,8,0:0:0:0:
256,192,42521,1,0,0:0:0:0:
256,192,42604,1,0,0:0:0:0:
256,192,42687,1,8,0:0:0:0:
256,192,42771,1,8,0:0:0:0:
256,192,42854,1,0,0:0:0:0:
256,192,42937,1,0,0:0:0:0:
256,192,43021,1,8,0:0:0:0:
256,192,43187,1,0,0:0:0:0:
256,192,43354,1,8,0:0:0:0:
256,192,43521,1,0,0:0:0:0:
256,192,43604,1,0,0:0:0:0:
256,192,43687,1,8,0:0:0:0:
256,192,43771,1,0,0:0:0:0:
256,192,43854,1,8,0:0:0:0:
256,192,43937,1,0,0:0:0:0:
256,192,44021,1,8,0:0:0:0:
256,192,44104,1,8,0:0:0:0:
256,192,44187,1,0,0:0:0:0:
256,192,44271,1,0,0:0:0:0:
256,192,44354,1,8,0:0:0:0:
256,192,44437,1,0,0:0:0:0:
256,192,44521,1,8,0:0:0:0:
256,192,44687,1,8,0:0:0:0:
256,192,44771,1,8,0:0:0:0:
256,192,44854,1,0,0:0:0:0:
256,192,44937,1,8,0:0:0:0:
256,192,45021,1,0,0:0:0:0:
256,192,45104,1,0,0:0:0:0:
256,192,45187,1,8,0:0:0:0:
256,192,45271,1,0,0:0:0:0:
256,192,45354,1,8,0:0:0:0:
256,192,45465,1,8,0:0:0:0:
256,192,45576,1,8,0:0:0:0:
256,192,45687,1,0,0:0:0:0:
256,192,45799,1,0,0:0:0:0:
256,192,45910,1,8,0:0:0:0:
256,192,46021,12,0,46854,0:0:0:0:
256,192,47021,5,0,0:0:0:0:
256,192,47187,1,0,0:0:0:0:
256,192,47354,1,12,0:0:0:0:
256,192,47521,1,8,0:0:0:0:
256,192,47604,1,0,0:0:0:0:
256,192,47687,1,8,0:0:0:0:
256,192,47854,1,0,0:0:0:0:
256,192,47937,1,0,0:0:0:0:
256,192,48021,1,8,0:0:0:0:
256,192,48187,1,0,0:0:0:0:
256,192,48354,1,8,0:0:0:0:
256,192,48604,1,0,0:0:0:0:
256,192,48687,1,0,0:0:0:0:
256,192,48854,1,0,0:0:0:0:
256,192,49021,1,8,0:0:0:0:
256,192,49187,1,8,0:0:0:0:
256,192,49271,1,8,0:0:0:0:
256,192,49354,1,0,0:0:0:0:
256,192,49437,1,8,0:0:0:0:
256,192,49521,1,0,0:0:0:0:
256,192,49687,1,8,0:0:0:0:
256,192,49854,1,0,0:0:0:0:
256,192,49937,1,0,0:0:0:0:
256,192,50021,1,8,0:0:0:0:
256,192,50187,1,0,0:0:0:0:
256,192,50354,1,8,0:0:0:0:
256,192,50521,1,0,0:0:0:0:
256,192,50604,1,8,0:0:0:0:
256,192,50687,1,8,0:0:0:0:
256,192,50771,1,8,0:0:0:0:
256,192,50854,1,0,0:0:0:0:
256,192,51021,1,8,0:0:0:0:
256,192,51187,1,8,0:0:0:0:
256,192,51354,1,0,0:0:0:0:
256,192,51521,1,0,0:0:0:0:
256,192,51687,1,8,0:0:0:0:
256,192,51854,1,0,0:0:0:0:
256,192,51937,1,0,0:0:0:0:
256,192,52021,1,8,0:0:0:0:
256,192,52104,1,8,0:0:0:0:
256,192,52187,1,0,0:0:0:0:
256,192,52354,1,12,0:0:0:0:
256,192,52687,1,4,0:0:0:0:
256,192,52854,1,0,0:0:0:0:
256,192,53021,1,8,0:0:0:0:
256,192,53187,1,0,0:0:0:0:
256,192,53271,1,8,0:0:0:0:
256,192,53354,1,0,0:0:0:0:
256,192,53521,1,0,0:0:0:0:
256,192,53687,1,8,0:0:0:0:
256,192,53937,1,8,0:0:0:0:
256,192,54021,1,0,0:0:0:0:
256,192,54187,1,0,0:0:0:0:
256,192,54271,1,0,0:0:0:0:
256,192,54354,1,8,0:0:0:0:
256,192,54521,1,0,0:0:0:0:
256,192,54687,1,8,0:0:0:0:
256,192,54771,1,8,0:0:0:0:
256,192,54854,1,0,0:0:0:0:
256,192,54937,1,0,0:0:0:0:
256,192,55021,1,8,0:0:0:0:
256,192,55187,1,8,0:0:0:0:
256,192,55271,1,0,0:0:0:0:
256,192,55354,1,0,0:0:0:0:
256,192,55521,1,0,0:0:0:0:
256,192,55687,1,8,0:0:0:0:
256,192,55937,1,0,0:0:0:0:
256,192,56021,1,8,0:0:0:0:
256,192,56187,1,0,0:0:0:0:
256,192,56354,1,8,0:0:0:0:
256,192,56521,1,8,0:0:0:0:
256,192,56604,1,8,0:0:0:0:
256,192,56687,1,0,0:0:0:0:
256,192,56854,1,0,0:0:0:0:
256,192,56937,1,0,0:0:0:0:
256,192,57021,1,8,0:0:0:0:
256,192,57187,1,0,0:0:0:0:
256,192,57354,1,8,0:0:0:0:
256,192,57437,1,8,0:0:0:0:
256,192,57521,1,0,0:0:0:0:
256,192,57604,1,0,0:0:0:0:
256,192,57687,1,8,0:0:0:0:
256,192,57771,1,0,0:0:0:0:
256,192,57854,1,0,0:0:0:0:
256,192,58021,1,12,0:0:0:0:
256,192,58354,1,0,0:0:0:0:
256,192,58521,1,0,0:0:0:0:
256,192,58687,1,8,0:0:0:0:
256,192,58854,1,8,0:0:0:0:
256,192,59021,1,0,0:0:0:0:
256,192,59187,1,8,0:0:0:0:
256,192,59271,1,0,0:0:0:0:
256,192,59354,1,0,0:0:0:0:
256,192,59521,1,8,0:0:0:0:
256,192,59687,1,0,0:0:0:0:
256,192,59854,1,0,0:0:0:0:
256,192,60021,1,8,0:0:0:0:
256,192,60187,1,0,0:0:0:0:
256,192,60354,1,8,0:0:0:0:
256,192,60437,1,8,0:0:0:0:
256,192,60521,1,8,0:0:0:0:
256,192,60687,1,4,0:0:0:0:
256,192,60937,1,0,0:0:0:0:
256,192,61021,1,8,0:0:0:0:
256,192,61187,1,0,0:0:0:0:
256,192,61354,1,8,0:0:0:0:
256,192,61437,1,8,0:0:0:0:
256,192,61521,1,0,0:0:0:0:
256,192,61604,1,8,0:0:0:0:
256,192,61687,1,0,0:0:0:0:
256,192,61854,1,12,0:0:0:0:
256,192,62187,1,0,0:0:0:0:
256,192,62271,1,8,0:0:0:0:
256,192,62354,1,0,0:0:0:0:
256,192,62521,1,0,0:0:0:0:
256,192,62687,1,8,0:0:0:0:
256,192,62771,1,8,0:0:0:0:
256,192,62854,1,0,0:0:0:0:
256,192,62937,1,0,0:0:0:0:
256,192,63021,1,8,0:0:0:0:
256,192,63104,1,8,0:0:0:0:
256,192,63187,1,8,0:0:0:0:
256,192,63354,1,4,0:0:0:0:
256,192,63521,1,8,0:0:0:0:
256,192,63604,1,0,0:0:0:0:
256,192,63687,1,8,0:0:0:0:
256,192,63854,1,0,0:0:0:0:
256,192,64021,1,8,0:0:0:0:
256,192,64104,1,0,0:0:0:0:
256,192,64187,1,0,0:0:0:0:
256,192,64271,1,0,0:0:0:0:
256,192,64354,1,8,0:0:0:0:
256,192,64521,1,0,0:0:0:0:
256,192,64687,1,8,0:0:0:0:
256,192,64854,1,0,0:0:0:0:
256,192,64937,1,0,0:0:0:0:
256,192,65021,1,8,0:0:0:0:
256,192,65104,1,8,0:0:0:0:
256,192,65187,1,0,0:0:0:0:
256,192,65354,1,8,0:0:0:0:
256,192,65437,1,0,0:0:0:0:
256,192,65521,1,8,0:0:0:0:
256,192,65604,1,0,0:0:0:0:
256,192,65687,1,8,0:0:0:0:
256,192,65854,1,0,0:0:0:0:
256,192,66021,1,12,0:0:0:0:
256,192,66187,1,0,0:0:0:0:
256,192,66271,1,0,0:0:0:0:
256,192,66354,1,8,0:0:0:0:
256,192,66521,1,0,0:0:0:0:
256,192,66604,1,0,0:0:0:0:
256,192,66687,1,8,0:0:0:0:
256,192,66771,1,8,0:0:0:0:
256,192,66854,1,0,0:0:0:0:
256,192,66937,1,0,0:0:0:0:
256,192,67021,1,8,0:0:0:0:
256,192,67187,1,8,0:0:0:0:
256,192,67271,1,0,0:0:0:0:
256,192,67354,1,8,0:0:0:0:
256,192,67521,1,0,0:0:0:0:
256,192,67854,1,0,0:0:0:0:
256,192,68021,1,8,0:0:0:0:
256,192,68354,1,8,0:0:0:0:
256,192,68687,1,4,0:0:0:0:
256,192,68854,1,0,0:0:0:0:
256,192,69021,1,8,0:0:0:0:
256,192,69187,1,0,0:0:0:0:
256,192,69354,1,8,0:0:0:0:
256,192,69521,1,8,0:0:0:0:
256,192,69687,1,0,0:0:0:0:
256,192,69854,1,8,0:0:0:0:
256,192,69937,1,8,0:0:0:0:
256,192,70021,1,8,0:0:0:0:
256,192,70187,1,0,0:0:0:0:
256,192,70354,1,8,0:0:0:0:
256,192,70521,1,0,0:0:0:0:
256,192,70604,1,0,0:0:0:0:
256,192,70687,1,8,0:0:0:0:
256,192,70771,1,8,0:0:0:0:
256,192,70854,1,0,0:0:0:0:
256,192,70937,1,8,0:0:0:0:
256,192,71021,1,0,0:0:0:0:
256,192,71187,1,0,0:0:0:0:
256,192,71271,1,0,0:0:0:0:
256,192,71354,1,8,0:0:0:0:
256,192,71521,1,0,0:0:0:0:
256,192,71687,1,8,0:0:0:0:
256,192,71854,1,0,0:0:0:0:
256,192,72021,1,0,0:0:0:0:
256,192,72187,1,8,0:0:0:0:
256,192,72271,1,8,0:0:0:0:
256,192,72354,1,8,0:0:0:0:
256,192,72521,1,0,0:0:0:0:
256,192,72604,1,0,0:0:0:0:
256,192,72687,1,8,0:0:0:0:
256,192,73021,1,8,0:0:0:0:
256,192,73354,1,0,0:0:0:0:
256,192,73521,1,0,0:0:0:0:
256,192,73687,1,8,0:0:0:0:
256,192,73854,1,8,0:0:0:0:
256,192,74021,1,4,0:0:0:0:
256,192,74354,1,0,0:0:0:0:
256,192,74687,1,8,0:0:0:0:
256,192,75021,1,8,0:0:0:0:
256,192,75354,1,0,0:0:0:0:
256,192,75687,1,0,0:0:0:0:
256,192,76021,1,8,0:0:0:0:
256,192,76354,1,0,0:0:0:0:
256,192,76687,1,12,0:0:0:0:
256,192,77021,1,8,0:0:0:0:
256,192,77354,1,0,0:0:0:0:
256,192,77687,1,8,0:0:0:0:
256,192,78021,1,0,0:0:0:0:
256,192,78354,1,0,0:0:0:0:
256,192,78687,1,8,0:0:0:0:
256,192,79021,1,0,0:0:0:0:
