osu file format v14

[General]
AudioFilename: audio.mp3
AudioLeadIn: 1015
PreviewTime: 25805
Countdown: 0
SampleSet: Normal
StackLeniency: 0.2
Mode: 1
LetterboxInBreaks: 0
WidescreenStoryboard: 0

[Editor]
DistanceSpacing: 2
BeatDivisor: 8
GridSize: 32
TimelineZoom: 2.699999

[Metadata]
Title:Waltz o' the Irish
TitleUnicode:Waltz o' the Irish
Artist:MillhioreF
ArtistUnicode:MillhioreF
Creator:Vulkin
Version:Axer's Waltz o' the Tatsujin
Source:
Tags:radical potato mans of folk novelty instrumental electronic experimental Axer osu! April Fools 2020
BeatmapID:2374691
BeatmapSetID:1137166

[Difficulty]
HPDrainRate:6.9
CircleSize:6.9
OverallDifficulty:6.9
ApproachRate:6.9
SliderMultiplier:1.4
SliderTickRate:1

[Events]
//Background and Video events
0,0,"lep.png",0,69
//Break Periods
//Storyboard Layer 0 (Background)
//Storyboard Layer 1 (Fail)
//Storyboard Layer 2 (Pass)
//Storyboard Layer 3 (Foreground)
//Storyboard Layer 4 (Overlay)
//Storyboard Sound Samples

[TimingPoints]
118,337.078651685394,6,1,0,40,1,0
118,-98.8888888888887,6,1,0,40,0,0
3488,337.078651685394,4,1,0,40,1,0
3488,-98.8888888888887,4,1,0,40,0,0
6119,213.523131672598,8,1,0,80,1,0
6119,-111.111111111111,4,1,0,80,0,0
8752,-142.857142857143,4,1,0,80,0,0
8885,401.33779264214,4,1,0,20,1,8
8885,-83.0555555555556,4,1,0,20,0,8
9085,401.33779264214,6,1,0,20,1,0
9085,-83.0555555555556,6,1,0,20,0,0
11441,250,4,1,0,70,1,0
11441,-133.333333333333,4,1,0,70,0,0
21148,500,4,1,0,40,1,0
21148,-66.6666666666667,4,1,0,40,0,0
23148,500,4,1,0,40,1,0
23148,-66.6666666666667,4,1,0,40,0,0
24315,512.820512820513,4,1,0,40,1,8
24315,-65,4,1,0,40,0,8
24827,642.742367434387,4,1,0,40,1,8
24827,-51.8611111111111,4,1,0,40,0,8
25148,384.615384615385,4,1,0,40,1,8
25148,-86.6666666666666,4,1,0,40,0,8
25340,465.116279069767,4,1,0,40,1,8
25340,-71.6666666666667,4,1,0,40,0,8
25805,400,4,1,0,40,1,0
25805,-83.3333333333333,4,1,0,40,0,0
30605,400,4,1,0,40,1,8
30605,-83.3333333333333,4,1,0,40,0,8
31148,400,4,1,0,40,1,0
31148,-83.3333333333333,4,1,0,40,0,0
32148,500,4,1,0,50,1,0
32148,-66.6666666666667,4,1,0,50,0,0
34148,500,4,1,0,50,1,0
34148,-66.6666666666667,4,1,0,50,0,0
35301,401.203610832497,4,1,0,50,1,0
35301,-83.0833333333334,4,1,0,50,0,0
36253,-83.0833333333334,4,1,0,70,0,0
36454,-83.0833333333334,4,1,0,50,0,0
38661,-83.0833333333334,4,1,0,70,0,0
38761,-83.0833333333334,4,1,0,50,0,0
39714,434.782608695652,4,1,0,50,1,8
39714,-76.6666666666667,4,1,0,50,0,8
40148,500,4,1,0,50,1,0
40148,-66.6666666666667,4,1,0,50,0,0
42148,500,5,1,0,50,1,0
42148,-66.6666666666667,5,1,0,50,0,0
44501,400,3,1,0,50,1,0
44501,-83.3333333333333,3,1,0,50,0,0
48101,400,4,1,0,50,1,0
48101,-83.3333333333333,4,1,0,50,0,0
50901,400,4,1,0,50,1,0
50901,-83.3333333333333,4,1,0,50,0,0
51351,-83.0833333333334,4,1,0,70,0,0
51451,-83.0833333333334,4,1,0,50,0,0
52036,500,4,1,0,50,1,0
52036,-66.6666666666667,4,1,0,50,0,0
63536,250,4,1,0,50,1,0
63536,-100,4,1,0,50,0,0

[HitObjects]
256,192,118,5,0,0:0:0:0:
256,192,455,1,0,0:0:0:0:
256,192,792,1,0,0:0:0:0:
256,192,1129,1,8,0:0:0:0:
256,192,1466,1,0,0:0:0:0:
256,192,1803,1,8,0:0:0:0:
256,192,2140,1,0,0:0:0:0:
256,192,2477,1,0,0:0:0:0:
256,192,2814,1,8,0:0:0:0:
256,192,3151,1,8,0:0:0:0:
256,192,3488,1,0,0:0:0:0:
256,192,3825,1,8,0:0:0:0:
256,192,4162,1,8,0:0:0:0:
256,192,4499,1,8,0:0:0:0:
256,192,4836,1,0,0:0:0:0:
256,192,5173,1,0,0:0:0:0:
256,192,5510,1,8,0:0:0:0:
256,192,5847,1,8,0:0:0:0:
256,192,6119,1,8,0:0:0:0:
256,192,6190,1,0,0:0:0:0:
256,192,6261,1,8,0:0:0:0:
256,192,6332,1,8,0:0:0:0:
256,192,6403,1,0,0:0:0:0:
256,192,6474,1,8,0:0:0:0:
256,192,6546,1,0,0:0:0:0:
256,192,6617,1,0,0:0:0:0:
256,192,6688,1,0,0:0:0:0:
256,192,6759,1,8,0:0:0:0:
256,192,6812,1,8,0:0:0:0:
256,192,6866,1,0,0:0:0:0:
256,192,6919,1,0,0:0:0:0:
256,192,6973,1,8,0:0:0:0:
256,192,7026,1,8,0:0:0:0:
256,192,7079,1,8,0:0:0:0:
256,192,7133,1,8,0:0:0:0:
256,192,7186,1,0,0:0:0:0:
256,192,7257,1,0,0:0:0:0:
256,192,7328,1,0,0:0:0:0:
256,192,7400,1,8,0:0:0:0:
256,192,7471,1,8,0:0:0:0:
256,192,7542,1,0,0:0:0:0:
256,192,7613,1,0,0:0:0:0:
256,192,7684,1,8,0:0:0:0:
256,192,7756,1,0,0:0:0:0:
256,192,7827,1,8,0:0:0:0:
256,192,7880,1,8,0:0:0:0:
256,192,7933,1,8,0:0:0:0:
256,192,7987,1,8,0:0:0:0:
256,192,8040,1,0,0:0:0:0:
256,192,8147,12,0,8574,0:0:0:0:
256,192,8752,5,8,0:0:0:0:
256,192,8823,1,0,0:0:0:0:
256,192,9085,1,8,0:0:0:0:
256,192,9285,1,0,0:0:0:0:
256,192,9486,1,8,0:0:0:0:
256,192,9687,1,8,0:0:0:0:
256,192,9887,1,0,0:0:0:0:
256,192,10088,1,8,0:0:0:0:
256,192,10289,1,8,0:0:0:0:
256,192,10489,1,0,0:0:0:0:
256,192,10690,1,8,0:0:0:0:
256,192,10891,1,0,0:0:0:0:
256,192,11091,1,0,0:0:0:0:
256,192,11292,1,8,0:0:0:0:
256,192,11441,1,0,0:0:0:0:
256,192,11691,1,8,0:0:0:0:
256,192,11941,1,0,0:0:0:0:
256,192,12191,1,8,0:0:0:0:
256,192,12441,1,0,0:0:0:0:
256,192,12607,1,8,0:0:0:0:
256,192,12774,1,0,0:0:0:0:
256,192,12941,1,8,0:0:0:0:
256,192,13107,1,0,0:0:0:0:
256,192,13274,1,8,0:0:0:0:
256,192,13441,1,0,0:0:0:0:
256,192,13607,1,8,0:0:0:0:
256,192,13774,1,0,0:0:0:0:
256,192,13941,1,0,0:0:0:0:
256,192,14107,1,0,0:0:0:0:
256,192,14274,1,0,0:0:0:0:
256,192,14441,1,0,0:0:0:0:
256,192,14607,1,0,0:0:0:0:
256,192,14774,1,0,0:0:0:0:
256,192,14941,1,0,0:0:0:0:
256,192,15107,1,0,0:0:0:0:
256,192,15274,1,0,0:0:0:0:
256,192,15441,1,0,0:0:0:0:
256,192,15607,1,0,0:0:0:0:
256,192,15774,1,0,0:0:0:0:
256,192,15941,1,8,0:0:0:0:
256,192,16107,1,8,0:0:0:0:
256,192,16274,1,0,0:0:0:0:
256,192,16441,1,8,0:0:0:0:
256,192,16607,1,0,0:0:0:0:
256,192,16774,1,8,0:0:0:0:
256,192,16941,1,0,0:0:0:0:
256,192,17107,1,8,0:0:0:0:
256,192,17274,1,8,0:0:0:0:
256,192,17441,1,8,0:0:0:0:
256,192,17607,1,0,0:0:0:0:
256,192,17774,1,0,0:0:0:0:
256,192,17941,1,0,0:0:0:0:
256,192,18107,1,8,0:0:0:0:
256,192,18274,1,0,0:0:0:0:
256,192,18441,1,0,0:0:0:0:
256,192,18607,1,0,0:0:0:0:
256,192,18691,1,8,0:0:0:0:
256,192,18774,1,0,0:0:0:0:
256,192,18857,1,8,0:0:0:0:
256,192,18941,1,8,0:0:0:0:
256,192,19024,1,0,0:0:0:0:
256,192,19066,1,0,0:0:0:0:
256,192,19107,1,8,0:0:0:0:
256,192,19274,1,8,0:0:0:0:
256,192,19316,1,8,0:0:0:0:
256,192,19357,1,8,0:0:0:0:
256,192,19441,1,0,0:0:0:0:
256,192,19607,1,8,0:0:0:0:
256,192,21148,12,0,23023,0:0:0:0:
256,192,23148,5,0,0:0:0:0:
256,192,24315,1,8,0:0:0:0:
256,192,24827,1,0,0:0:0:0:
256,192,25148,1,8,0:0:0:0:
256,192,25340,1,0,0:0:0:0:
256,192,25805,1,8,0:0:0:0:
256,192,25905,1,0,0:0:0:0:
256,192,26005,1,8,0:0:0:0:
256,192,26105,1,0,0:0:0:0:
256,192,26205,1,8,0:0:0:0:
256,192,26305,1,0,0:0:0:0:
256,192,26405,1,8,0:0:0:0:
256,192,26505,1,8,0:0:0:0:
256,192,26605,1,0,0:0:0:0:
256,192,26705,1,0,0:0:0:0:
256,192,26805,1,0,0:0:0:0:
256,192,26905,1,0,0:0:0:0:
256,192,27005,1,8,0:0:0:0:
256,192,27105,1,0,0:0:0:0:
256,192,27205,1,8,0:0:0:0:
256,192,27305,1,8,0:0:0:0:
256,192,27405,1,0,0:0:0:0:
256,192,27505,1,8,0:0:0:0:
256,192,27605,1,8,0:0:0:0:
256,192,27705,1,8,0:0:0:0:
256,192,27805,1,0,0:0:0:0:
256,192,27905,1,8,0:0:0:0:
256,192,28005,1,0,0:0:0:0:
256,192,28105,1,0,0:0:0:0:
256,192,28205,1,0,0:0:0:0:
256,192,28305,1,8,0:0:0:0:
256,192,28405,1,0,0:0:0:0:
256,192,28505,1,8,0:0:0:0:
256,192,28605,1,8,0:0:0:0:
256,192,28705,1,0,0:0:0:0:
256,192,28805,1,0,0:0:0:0:
256,192,28905,1,8,0:0:0:0:
256,192,29005,1,0,0:0:0:0:
256,192,29105,1,8,0:0:0:0:
256,192,29205,1,8,0:0:0:0:
256,192,29305,1,0,0:0:0:0:
256,192,29405,1,0,0:0:0:0:
256,192,29505,1,0,0:0:0:0:
256,192,29605,1,0,0:0:0:0:
256,192,29705,1,0,0:0:0:0:
256,192,29805,1,8,0:0:0:0:
256,192,29905,1,8,0:0:0:0:
256,192,30005,1,0,0:0:0:0:
256,192,30105,1,8,0:0:0:0:
256,192,30205,1,0,0:0:0:0:
256,192,30305,1,0,0:0:0:0:
256,192,30405,1,0,0:0:0:0:
256,192,30505,1,0,0:0:0:0:
256,192,30605,1,0,0:0:0:0:
256,192,30705,1,8,0:0:0:0:
256,192,30805,1,8,0:0:0:0:
256,192,31148,1,8,0:0:0:0:
256,192,31248,1,0,0:0:0:0:
256,192,31348,1,0,0:0:0:0:
256,192,31448,1,8,0:0:0:0:
256,192,31548,1,8,0:0:0:0:
256,192,31648,1,8,0:0:0:0:
256,192,31748,1,8,0:0:0:0:
256,192,31848,1,8,0:0:0:0:
256,192,31948,1,8,0:0:0:0:
256,192,32048,1,8,0:0:0:0:
256,192,32148,12,0,34023,0:0:0:0:
256,192,34148,12,0,35148,0:0:0:0:
256,192,35301,5,8,0:0:0:0:
256,192,35401,1,8,0:0:0:0:
256,192,35501,1,0,0:0:0:0:
256,192,35601,1,8,0:0:0:0:
256,192,35702,1,0,0:0:0:0:
256,192,35802,1,8,0:0:0:0:
256,192,35902,1,0,0:0:0:0:
256,192,36003,1,8,0:0:0:0:
256,192,36103,1,0,0:0:0:0:
256,192,36203,1,8,0:0:0:0:
256,192,36304,1,8,0:0:0:0:
256,192,36404,1,8,0:0:0:0:
256,192,36504,1,0,0:0:0:0:
256,192,36604,1,0,0:0:0:0:
256,192,36705,1,0,0:0:0:0:
256,192,36805,1,0,0:0:0:0:
256,192,36905,1,0,0:0:0:0:
256,192,37006,1,8,0:0:0:0:
256,192,37106,1,8,0:0:0:0:
256,192,37206,1,8,0:0:0:0:
256,192,37307,1,0,0:0:0:0:
256,192,37407,1,8,0:0:0:0:
256,192,37507,1,0,0:0:0:0:
256,192,37607,1,8,0:0:0:0:
256,192,37708,1,0,0:0:0:0:
256,192,37808,1,8,0:0:0:0:
256,192,37908,1,0,0:0:0:0:
256,192,38009,1,8,0:0:0:0:
256,192,38109,1,0,0:0:0:0:
256,192,38209,1,8,0:0:0:0:
256,192,38310,1,0,0:0:0:0:
256,192,38410,1,8,0:0:0:0:
256,192,38510,1,0,0:0:0:0:
256,192,38610,1,0,0:0:0:0:
256,192,38711,1,8,0:0:0:0:
256,192,38811,1,0,0:0:0:0:
256,192,38911,1,8,0:0:0:0:
256,192,39012,1,8,0:0:0:0:
256,192,39112,1,8,0:0:0:0:
256,192,39212,1,8,0:0:0:0:
256,192,39313,1,8,0:0:0:0:
256,192,39413,1,8,0:0:0:0:
256,192,39513,1,8,0:0:0:0:
256,192,39613,1,8,0:0:0:0:
256,192,39714,1,8,0:0:0:0:
256,192,40148,12,0,42023,0:0:0:0:
256,192,42148,12,0,44398,0:0:0:0:
256,192,44501,5,8,0:0:0:0:
256,192,44601,1,0,0:0:0:0:
256,192,44701,1,8,0:0:0:0:
256,192,44801,1,8,0:0:0:0:
256,192,44901,1,0,0:0:0:0:
256,192,45001,1,0,0:0:0:0:
256,192,45101,1,0,0:0:0:0:
256,192,45701,1,0,0:0:0:0:
256,192,45801,1,0,0:0:0:0:
256,192,45901,1,0,0:0:0:0:
256,192,46001,1,8,0:0:0:0:
256,192,46101,1,0,0:0:0:0:
256,192,46201,1,8,0:0:0:0:
256,192,46301,1,0,0:0:0:0:
256,192,46401,1,8,0:0:0:0:
256,192,46501,1,0,0:0:0:0:
256,192,46601,1,8,0:0:0:0:
256,192,46701,1,8,0:0:0:0:
256,192,46801,1,0,0:0:0:0:
256,192,46901,1,0,0:0:0:0:
256,192,47001,1,0,0:0:0:0:
256,192,47101,1,8,0:0:0:0:
256,192,47201,1,8,0:0:0:0:
256,192,47301,1,8,0:0:0:0:
256,192,47401,1,8,0:0:0:0:
256,192,47501,1,0,0:0:0:0:
256,192,48101,1,0,0:0:0:0:
256,192,48201,1,0,0:0:0:0:
256,192,48301,1,0,0:0:0:0:
256,192,48401,1,0,0:0:0:0:
256,192,48501,1,0,0:0:0:0:
256,192,48601,1,0,0:0:0:0:
256,192,48701,1,8,0:0:0:0:
256,192,48801,1,0,0:0:0:0:
256,192,48901,1,8,0:0:0:0:
256,192,49001,1,0,0:0:0:0:
256,192,49101,1,0,0:0:0:0:
256,192,49201,1,8,0:0:0:0:
256,192,49301,1,0,0:0:0:0:
256,192,49401,1,0,0:0:0:0:
256,192,49501,1,8,0:0:0:0:
256,192,49601,1,8,0:0:0:0:
256,192,49701,1,0,0:0:0:0:
256,192,49801,1,8,0:0:0:0:
256,192,49901,1,8,0:0:0:0:
256,192,50001,1,8,0:0:0:0:
256,192,50101,1,0,0:0:0:0:
256,192,50201,1,8,0:0:0:0:
256,192,50301,1,0,0:0:0:0:
256,192,50401,1,8,0:0:0:0:
256,192,50501,1,0,0:0:0:0:
256,192,50601,1,8,0:0:0:0:
256,192,50701,1,0,0:0:0:0:
256,192,50801,1,0,0:0:0:0:
256,192,50901,1,0,0:0:0:0:
256,192,51001,1,0,0:0:0:0:
256,192,51101,1,0,0:0:0:0:
256,192,51201,1,0,0:0:0:0:
256,192,51301,1,0,0:0:0:0:
256,192,51401,1,0,0:0:0:0:
256,192,51501,1,0,0:0:0:0:
256,192,51601,1,0,0:0:0:0:
256,192,51701,1,0,0:0:0:0:
256,192,51801,1,0,0:0:0:0:
256,192,51901,1,0,0:0:0:0:
256,192,52036,1,4,0:0:0:0:
256,192,52536,1,12,0:0:0:0:
256,192,53036,1,4,0:0:0:0:
256,192,53536,1,8,0:0:0:0:
256,192,54036,1,4,0:0:0:0:
256,192,54536,1,8,0:0:0:0:
256,192,55036,1,4,0:0:0:0:
256,192,55536,1,8,0:0:0:0:
256,192,56036,1,8,0:0:0:0:
256,192,56536,1,8,0:0:0:0:
256,192,57036,1,0,0:0:0:0:
256,192,57536,1,8,0:0:0:0:
256,192,58036,1,8,0:0:0:0:
256,192,58536,1,8,0:0:0:0:
256,192,59036,1,8,0:0:0:0:
256,192,59536,1,0,0:0:0:0:
256,192,60036,1,8,0:0:0:0:
256,192,60536,1,0,0:0:0:0:
256,192,61036,1,8,0:0:0:0:
256,192,61536,1,0,0:0:0:0:
256,192,62036,1,8,0:0:0:0:
256,192,62536,1,0,0:0:0:0:
256,192,63036,1,0,0:0:0:0:
256,192,63536,1,8,0:0:0:0:
256,192,63598,1,8,0:0:0:0:
256,192,63661,1,8,0:0:0:0:
256,192,63723,1,8,0:0:0:0:
256,192,63786,1,0,0:0:0:0:
256,192,63848,1,0,0:0:0:0:
256,192,63911,1,8,0:0:0:0:
256,192,63973,1,0,0:0:0:0:
256,192,64036,1,8,0:0:0:0:
256,192,64098,1,8,0:0:0:0:
256,192,64161,1,0,0:0:0:0:
256,192,64223,1,0,0:0:0:0:
256,192,64286,1,8,0:0:0:0:
