osu file format v14

[General]
AudioFilename: [Milky] Stronger than You -Chara response-.mp3
AudioLeadIn: 2000
PreviewTime: 29005
Countdown: 0
SampleSet: Soft
StackLeniency: 0.7
Mode: 0
LetterboxInBreaks: 0
EpilepsyWarning: 1
WidescreenStoryboard: 1

[Editor]
DistanceSpacing: 1.4
BeatDivisor: 12
GridSize: 8
TimelineZoom: 2.599999

[Metadata]
Title:Stronger Than You -Chara Response-
TitleUnicode:Stronger Than You -Chara Response-
Artist:Milkychan
ArtistUnicode:Milkychan​
Creator:Cosmolade
Version:Voli's Extra
Source:
Tags:undertale genocide merciless cover xXMilkychanXx Milky sans Estelle Rebecca Sugar Comic Jailbreak Steven Universe Mémoire Soreperior parody 8-bit xtrem3x ErunamoJAZZ HappyRocket88 Gero Marianna Voli
BeatmapID:979208
BeatmapSetID:413707

[Difficulty]
HPDrainRate:5
CircleSize:3.8
OverallDifficulty:8.5
ApproachRate:9
SliderMultiplier:3.2
SliderTickRate:1

[Events]
//Background and Video events
0,0,"BG7.jpg",0,0
//Break Periods
//Storyboard Layer 0 (Background)
//Storyboard Layer 1 (Fail)
//Storyboard Layer 2 (Pass)
//Storyboard Layer 3 (Foreground)
//Storyboard Sound Samples

[TimingPoints]
77,612.244897959184,4,2,0,35,1,0
77,-142.857142857143,4,2,0,35,0,0
14770,-125,4,2,0,35,0,0
15077,-142.857142857143,4,2,0,35,0,0
19668,-142.857142857143,4,2,0,45,0,0
27015,-142.857142857143,4,2,0,50,0,0
29464,-100,4,2,0,50,0,0
38648,-100,4,2,0,65,0,0
39413,-100,4,2,0,50,0,0
48444,-125,4,2,0,50,0,0
49056,-74.0740740740741,4,2,0,65,0,1
49668,-100,4,2,0,65,0,1
50281,-74.0740740740741,4,2,0,65,0,1
52117,-100,4,2,0,65,0,1
52730,-74.0740740740741,4,2,0,65,0,1
54566,-100,4,2,0,65,0,1
55179,-74.0740740740741,4,2,0,65,0,1
56097,-74.0740740740741,4,2,0,65,0,0
57015,-100,4,2,0,65,0,0
57321,-100,4,2,0,45,0,0
58852,-74.0740740740741,4,2,0,65,0,1
59464,-100,4,2,0,65,0,1
60077,-74.0740740740741,4,2,0,65,0,1
61913,-100,4,2,0,65,0,1
62525,-74.0740740740741,4,2,0,65,0,1
64362,-100,4,2,0,65,0,1
64974,-74.0740740740741,4,2,0,65,0,1
66811,-100,4,2,0,65,0,0
67117,-100,4,2,0,50,0,0
68189,-100,4,2,0,20,0,0
68265,-100,4,2,0,25,0,0
68342,-100,4,2,0,30,0,0
68418,-100,4,2,0,35,0,0
68495,-100,4,2,0,40,0,0
68571,-100,4,2,0,45,0,0
68648,-100,4,2,0,50,0,0
84566,-90.9090909090909,4,2,0,50,0,0
85025,-83.3333333333333,4,2,0,50,0,0
85485,-76.9230769230769,4,2,0,50,0,0
86097,-100,4,2,0,50,0,0
87934,-200,4,2,0,5,0,0
88240,-200,4,2,0,35,0,0
98036,-142.857142857143,4,2,0,40,0,0
102934,-142.857142857143,4,2,0,45,0,0
104158,-142.857142857143,4,2,0,50,0,0
104770,-142.857142857143,4,2,0,60,0,0
106301,-142.857142857143,4,2,0,5,0,0
107219,-142.857142857143,4,2,0,60,0,0
107296,-100,4,2,0,50,0,0
117015,-100,4,2,0,65,0,0
117781,-100,4,2,0,50,0,0
122525,-83.3333333333333,4,2,0,60,0,0
122679,-83.3333333333333,4,2,0,50,0,0
123138,-100,4,2,0,50,0,0
123750,-83.3333333333333,4,2,0,60,0,0
123903,-83.3333333333333,4,2,0,50,0,0
124362,-100,4,2,0,50,0,0
127423,-76.9230769230769,4,2,0,65,0,1
128036,-100,4,2,0,65,0,1
128648,-76.9230769230769,4,2,0,65,0,1
130485,-100,4,2,0,65,0,1
131097,-76.9230769230769,4,2,0,65,0,1
132934,-100,4,2,0,65,0,1
133546,-76.9230769230769,4,2,0,65,0,1
134923,-100,4,2,0,50,0,0
137219,-76.9230769230769,4,2,0,65,0,1
137832,-100,4,2,0,65,0,1
138444,-76.9230769230769,4,2,0,65,0,1
140281,-100,4,2,0,65,0,1
140893,-76.9230769230769,4,2,0,65,0,1
142730,-100,4,2,0,65,0,1
143342,-76.9230769230769,4,2,0,65,0,1
145332,-100,4,2,0,65,0,1
147015,-76.9230769230769,4,2,0,50,0,0
147628,-100,4,2,0,50,0,0
156811,-142.857142857143,4,2,0,50,0,0

[Colours]
Combo1 : 255,128,0
Combo2 : 255,255,128
Combo3 : 0,213,106
Combo4 : 174,75,51
Combo5 : 255,128,192
SliderTrackOverride : 0,0,2
SliderBorder : 183,159,167

[HitObjects]
82,85,9872,5,2,0:0:0:0:
82,85,10179,2,0,L|155:108,1,55.9999982910157,0|0,0:0|0:0,0:0:0:0:
141,181,10485,2,0,L|33:147,1,111.999996582031,0|0,0:0|0:0,0:0:0:0:
203,128,11097,2,0,P|222:183|184:252,1,111.999996582031,2|0,0:0|0:0,0:0:0:0:
147,292,11556,1,0,0:0:0:0:
214,342,11709,2,0,B|270:331|270:331|348:349,1,111.999996582031,0|0,0:0|0:0,0:0:0:0:
496,262,12321,6,0,P|423:259|370:225,1,111.999996582031,2|0,0:0|0:0,0:0:0:0:
347,159,12781,1,0,0:0:0:0:
332,63,12934,2,0,P|307:13|274:-7,1,55.9999982910157,0|0,0:0|0:0,0:0:0:0:
236,78,13240,2,0,P|186:103|166:136,1,55.9999982910157,0|0,0:0|0:0,0:0:0:0:
251,174,13546,2,0,P|276:224|309:244,1,55.9999982910157,2|0,0:0|0:0,0:0:0:0:
347,159,13852,2,0,P|397:134|417:101,1,55.9999982910157,0|0,0:0|0:0,0:0:0:0:
483,24,14158,2,0,B|475:81|475:81|489:127|489:127|477:201,1,167.999994873047,2|0,0:0|0:0,0:0:0:0:
487,309,14770,6,0,P|421:303|361:333,1,128,2|0,0:0|0:0,0:0:0:0:
269,304,15230,2,0,P|203:292|153:248,1,111.999996582031,2|0,0:0|0:0,0:0:0:0:
133,182,15689,1,0,0:0:0:0:
78,246,15842,1,0,0:0:0:0:
74,65,15995,2,0,L|59:167,1,55.9999982910157,2|0,0:0|0:0,0:0:0:0:
200,109,16301,2,0,L|208:53,1,55.9999982910157
23,94,16607,2,0,P|32:162|-16:272,1,167.999994873047
139,309,17219,6,0,L|296:297,1,111.999996582031,2|0,0:0|0:0,0:0:0:0:
334,290,17679,1,0,0:0:0:0:
361,210,17832,2,0,P|374:170|356:127,1,55.9999982910157
304,107,18138,2,0,P|291:147|309:190,1,55.9999982910157
376,73,18444,2,0,P|331:31|261:40,1,111.999996582031
124,80,19056,2,0,P|162:119|216:123,1,111.999996582031
475,32,19668,6,0,L|462:192,1,111.999996582031,2|0,0:0|0:0,0:0:0:0:
456,227,20128,1,0,0:0:0:0:
380,323,20281,2,0,L|371:212,1,111.999996582031,8|0,0:0|0:0,0:0:0:0:
349,130,20740,1,0,0:0:0:0:
349,130,20893,2,0,P|305:90|280:82,1,55.9999982910157,2|0,0:0|0:0,0:0:0:0:
203,91,21199,2,0,P|180:108|163:130,1,55.9999982910157
111,276,21505,2,0,P|131:338|188:258,1,167.999994873047,8|0,0:0|0:0,0:0:0:0:
280,167,22117,6,0,L|300:317,1,111.999996582031,2|0,0:0|0:0,0:0:0:0:
357,334,22577,1,0,0:0:0:0:
418,277,22730,2,0,L|432:165,1,111.999996582031,8|0,0:0|0:0,0:0:0:0:
445,82,23189,1,0,0:0:0:0:
254,39,23342,2,0,P|210:57|188:74,1,55.9999982910157,2|0,0:0|0:0,0:0:0:0:
183,164,23648,2,0,P|227:146|249:129,1,55.9999982910157,0|0,0:3|0:3,0:3:0:0:
83,77,23954,2,0,L|61:213,1,111.999996582031,10|0,0:0|0:0,0:0:0:0:
116,273,24413,1,0,0:0:0:0:
311,315,24566,6,0,P|243:324|179:302,1,111.999996582031,6|0,0:0|0:0,0:0:0:0:
162,52,25179,2,0,P|230:43|294:65,1,111.999996582031,8|0,0:0|0:0,0:0:0:0:
325,117,25638,1,0,0:0:0:0:
126,155,25791,6,0,B|133:100|133:100|162:52,1,111.999996582031,6|0,0:0|0:0,0:0:0:0:
175,248,26250,1,0,0:0:0:0:
175,248,26403,2,0,L|200:313,1,55.9999982910157,8|0,0:0|0:0,0:0:0:0:
316,300,26709,2,0,L|337:248,1,55.9999982910157
364,96,27015,6,0,B|256:47|256:144|148:96,1,223.999993164063,6|0,0:0|0:0,0:0:0:0:
256,192,27934,12,0,28852,0:0:0:0:
256,192,29158,5,0,0:0:0:0:
228,277,29311,1,0,0:0:0:0:
280,115,29464,6,0,P|336:176|257:271,1,160,6|0,0:0|0:0,0:0:0:0:
228,277,29923,1,0,0:0:0:0:
56,82,30077,2,0,L|137:53,1,80,8|0,0:0|0:0,0:0:0:0:
280,115,30383,2,0,L|204:141,1,80
128,335,30689,2,0,P|73:266|84:188,1,160,2|4,0:0|0:3,0:0:0:0:
173,241,31148,1,0,0:0:0:0:
300,314,31301,2,0,B|368:280|368:280|452:266,1,160,8|0,0:0|0:0,0:0:0:0:
482,167,31760,1,0,0:0:0:0:
299,16,31913,6,0,P|278:100|342:197,1,160,2|0,0:0|0:0,0:0:0:0:
405,140,32372,1,0,0:0:0:0:
185,93,32525,2,0,B|146:100|146:100|101:136,1,80,10|0,0:0|0:0,0:0:0:0:
72,272,32832,2,0,B|111:265|111:265|156:229,1,80,0|4,0:0|0:3,0:0:0:0:
304,165,33138,2,0,P|383:180|319:247,1,160,2|4,0:0|0:3,0:0:0:0:
268,266,33597,1,0,0:0:0:0:
365,79,33750,2,0,P|436:121|464:198,1,160,8|0,0:0|0:0,0:0:0:0:
442,292,34209,1,0,0:0:0:0:
257,54,34362,6,0,B|176:54|176:54|94:95,1,160,2|0,0:0|0:0,0:0:0:0:
66,185,34821,1,4,0:3:0:0:
195,352,34974,2,0,P|199:297|186:253,1,80,8|0,0:0|0:0,0:0:0:0:
66,185,35281,2,0,P|62:240|75:284,1,80
326,196,35587,2,0,B|296:240|258:233|258:233|231:196|187:198,2,160,2|4|8,0:0|0:3|0:0,0:0:0:0:
49,11,36505,2,0,L|59:120,1,80
256,96,36811,6,0,P|347:137|338:236,1,213.333333333333,8|0,0:3|0:0,0:0:0:0:
176,238,37423,2,0,P|158:153|279:104,1,213.333333333333,8|0,0:3|0:0,0:0:0:0:
338,236,38036,2,0,P|273:293|170:213,1,213.333333333333,8|0,0:3|0:0,0:0:0:0:
137,57,38648,5,8,0:3:0:0:
256,209,38801,1,8,0:3:0:0:
55,126,38954,1,8,0:3:0:0:
369,151,39107,1,8,0:3:0:0:
63,270,39260,6,0,P|31:174|71:110,1,160,4|0,0:0|0:0,0:0:0:0:
133,193,39719,1,0,0:0:0:0:
349,62,39872,2,0,L|190:114,1,160,8|0,0:0|0:0,0:0:0:0:
133,193,40332,1,0,0:0:0:0:
218,252,40485,2,0,P|275:261|321:233,1,80,2|2,0:3|0:3,0:3:0:0:
415,158,40791,2,0,P|358:149|312:177,1,80,4|0,0:3|0:0,0:0:0:0:
352,306,41097,1,10,0:0:0:0:
258,187,41250,1,2,0:0:0:0:
259,353,41403,1,2,0:0:0:0:
375,224,41556,1,2,0:0:0:0:
141,335,41709,6,0,P|121:271|173:152,1,160,4|0,0:3|0:0,0:0:0:0:
207,90,42168,1,0,0:0:0:0:
211,253,42321,2,0,P|256:314|300:232,1,160,8|0,0:0|0:0,0:0:0:0:
321,169,42781,1,4,0:3:0:0:
414,214,42934,2,0,L|469:288,1,80,2|2,0:3|0:3,0:3:0:0:
488,153,43240,2,0,P|491:106|470:46,1,80,4|0,0:3|0:0,0:0:0:0:
321,169,43546,1,10,0:0:0:0:
402,18,43699,1,2,0:0:0:0:
227,100,43852,1,2,0:0:0:0:
404,117,44005,1,2,0:0:0:0:
141,61,44158,6,0,P|139:146|204:189,1,160,4|0,0:3|0:0,0:0:0:0:
294,161,44617,1,4,0:3:0:0:
162,282,44770,2,0,P|228:267|326:287,1,160,8|0,0:0|0:0,0:0:0:0:
406,339,45230,1,0,0:0:0:0:
478,264,45383,2,0,L|497:141,1,80,2|2,0:0|0:3,0:3:0:0:
447,100,45689,1,4,0:3:0:0:
300,146,45842,1,0,0:0:0:0:
335,3,45995,1,10,0:0:0:0:
387,167,46148,1,2,0:0:0:0:
273,60,46301,1,2,0:0:0:0:
421,15,46454,1,2,0:0:0:0:
171,43,46607,6,0,P|115:131|249:203,1,240,8|0,0:3|0:0,0:0:0:0:
341,43,47219,2,0,P|396:139|314:214,1,240,8|0,0:3|0:0,0:0:0:0:
139,328,47832,2,0,B|256:306|256:306|400:332,1,240,8|0,0:3|0:0,0:0:0:0:
481,174,48444,6,0,P|468:214|470:271,2,96
192,49,49056,6,0,P|136:10|128:171,1,324.000001235962,4|0,0:0|0:0,0:0:0:0:
263,236,49668,6,0,L|290:332,1,80,8|0,0:0|0:0,0:0:0:0:
394,117,49974,2,0,L|421:21,1,80,0|0,0:3|0:3,0:3:0:0:
122,91,50281,6,0,P|214:75|325:161,1,216.000000823975,8|0,0:3|0:0,0:0:0:0:
438,333,50740,2,0,L|496:125,1,216.000000823975,8|0,0:3|0:0,0:0:0:0:
74,15,51199,2,0,P|64:154|200:122,1,324.000001235962,8|0,0:3|0:0,0:0:0:0:
242,22,51811,1,0,0:0:0:0:
242,22,51964,1,0,0:0:0:0:
428,75,52117,6,0,P|456:161|443:201,1,80,8|0,0:0|0:0,0:0:0:0:
364,321,52423,2,0,P|336:235|349:195,1,80,2|2,0:3|0:3,0:3:0:0:
75,17,52730,6,0,B|60:120|60:120|109:305,1,216.000000823975,8|0,0:3|0:0,0:0:0:0:
241,75,53189,2,0,P|334:28|428:75,1,216.000000823975,8|0,0:3|0:0,0:0:0:0:
222,351,53648,2,0,B|168:145|168:145|210:191|293:173,1,324.000001235962,8|0,0:3|0:0,0:0:0:0:
370,137,54260,1,0,0:0:0:0:
370,137,54413,1,0,0:0:0:0:
147,73,54566,6,0,P|98:118|96:180,1,80,8|0,0:0|0:0,0:0:0:0:
269,176,54872,2,0,P|318:221|320:283,1,80,0|0,0:3|0:3,0:3:0:0:
21,141,55179,6,0,P|83:28|198:1,1,216.000000823975,8|0,0:3|0:0,0:0:0:0:
452,69,55638,2,0,B|385:73|339:102|339:102|223:67,1,216.000000823975,8|0,0:3|0:0,0:0:0:0:
125,295,56097,2,0,B|163:263|163:263|132:162|304:162|272:263|272:263|311:295,1,324.000001235962,8|0,0:3|0:0,0:0:0:0:
405,352,56709,1,0,0:0:0:0:
405,352,56862,1,0,0:0:0:0:
475,276,57015,6,0,P|491:215|479:164,1,80,8|0,0:0|0:0,0:0:0:0:
448,103,57321,5,2,0:0:0:0:
448,103,57474,1,2,0:0:0:0:
256,64,57628,2,0,P|208:96|160:96,1,80,2|0,0:0|0:0,0:0:0:0:
256,64,57934,2,0,P|304:96|352:96,1,80,2|0,0:0|0:0,0:0:0:0:
188,17,58240,1,2,0:0:0:0:
256,157,58393,1,2,0:0:0:0:
324,17,58546,1,2,0:0:0:0:
256,157,58699,1,0,0:0:0:0:
60,305,58852,6,0,P|32:202|52:97,1,216.000000823975,4|0,0:0|0:0,0:0:0:0:
141,158,59311,1,0,0:0:0:0:
313,261,59464,2,0,P|355:248|411:244,1,80,8|0,0:0|0:0,0:0:0:0:
218,140,59770,2,0,P|176:153|120:157,1,80,0|0,0:3|0:3,0:3:0:0:
430,163,60077,6,0,P|477:218|327:306,1,216.000000823975,8|0,0:3|0:0,0:0:0:0:
29,277,60536,2,0,B|100:252|100:252|171:264|171:264|235:241,1,216.000000823975,8|0,0:3|0:0,0:0:0:0:
442,50,60995,2,0,B|337:98|221:44|221:44|246:111|195:182,1,324.000001235962,8|0,0:3|0:0,0:0:0:0:
235,240,61607,1,0,0:0:0:0:
235,240,61760,1,0,0:0:0:0:
117,88,61913,6,0,P|77:87|43:107,1,80,8|0,0:0|0:0,0:0:0:0:
161,221,62219,2,0,P|195:241|235:241,1,80,0|0,0:3|0:3,0:3:0:0:
442,50,62525,6,0,P|471:139|334:246,1,216.000000823975,8|0,0:3|0:0,0:0:0:0:
256,110,62985,2,0,L|222:323,1,216.000000823975,8|0,0:3|0:0,0:0:0:0:
323,44,63444,2,0,P|166:108|323:175,1,432.000001647949,8|0,0:3|0:0,0:0:0:0:
410,111,64209,1,0,0:0:0:0:
256,109,64362,6,0,P|217:118|177:145,1,80,8|0,0:0|0:0,0:0:0:0:
95,335,64668,2,0,P|134:326|174:299,1,80,0|0,0:3|0:3,0:3:0:0:
424,311,64974,6,0,B|427:251|451:214|451:214|410:174|409:91,1,216.000000823975,8|0,0:3|0:0,0:0:0:0:
117,18,65434,2,0,B|193:-15|237:21|237:21|257:116,1,216.000000823975,8|0,0:3|0:0,0:0:0:0:
280,341,65893,2,0,B|320:173|464:405|624:-3|184:13|112:317|608:397|472:85,1,648.000002471924,8|8,0:3|0:0,0:0:0:0:
122,144,67117,1,0,0:0:0:0:
151,224,67270,1,0,0:0:0:0:
177,79,67423,5,8,0:0:0:0:
67,209,67577,1,8,0:0:0:0:
233,238,67730,1,0,0:0:0:0:
474,19,68036,5,8,0:0:0:0:
418,178,68189,1,2,0:0:0:0:
410,199,68265,1,2,0:0:0:0:
402,221,68342,1,2,0:0:0:0:
394,243,68418,1,2,0:0:0:0:
386,265,68495,1,2,0:0:0:0:
378,286,68571,1,2,0:0:0:0:
370,308,68648,6,0,P|287:290|111:313,1,240,6|0,0:0|0:0,0:0:0:0:
19,168,69260,2,0,L|35:271,1,80,10|0,0:0|0:0,0:0:0:0:
78,77,69566,1,2,0:0:0:0:
78,77,69643,1,2,0:0:0:0:
78,77,69719,1,2,0:0:0:0:
304,155,69872,6,0,P|356:96|433:77,1,160,6|0,0:0|0:0,0:0:0:0:
208,155,70332,2,0,P|155:96|78:77,1,160,10|0,0:0|0:0,0:0:0:0:
256,240,70791,2,0,L|256:352,1,80,2|0,0:0|0:0,0:0:0:0:
418,195,71097,5,0,0:0:0:0:
256,240,71250,1,0,0:0:0:0:
410,274,71403,2,0,L|419:173,1,80
293,54,71709,2,0,B|248:53|215:32|215:32|149:89,1,160,8|0,0:0|0:0,0:0:0:0:
112,171,72168,1,0,0:0:0:0:
345,117,72321,6,0,P|374:51|359:-1,1,80,6|0,0:0|0:0,0:0:0:0:
440,168,72628,1,0,0:0:0:0:
372,280,72781,2,0,P|350:248|344:209,1,80,10|0,0:0|0:0,0:0:0:0:
440,168,73087,1,0,0:0:0:0:
318,368,73240,6,0,P|265:262|250:143,1,240,2|0,0:0|0:0,0:0:0:0:
271,43,73852,1,0,0:0:0:0:
271,43,74005,1,0,0:0:0:0:
96,45,74158,2,0,B|72:83|72:83|68:117,1,80,8|0,0:0|0:0,0:0:0:0:
170,281,74464,1,0,0:0:0:0:
151,110,74617,1,0,0:0:0:0:
380,56,74770,6,0,P|451:146|395:193,1,160,6|0,0:0|0:0,0:0:0:0:
363,336,75230,2,0,P|353:282|316:224,1,80,10|0,0:0|0:0,0:0:0:0:
266,193,75536,1,0,0:0:0:0:
380,56,75689,6,0,B|360:49|330:57|330:57|306:105|266:193|266:193|226:105|202:57|202:57|178:49|154:57,1,400,2|0,0:0|0:0,0:0:0:0:
4,194,76607,2,0,B|46:202|46:202|100:192,1,80,8|0,0:0|0:0,0:0:0:0:
266,193,76913,2,0,B|302:186|302:186|344:194,1,80,2|2,0:3|0:3,0:3:0:0:
83,196,77219,5,4,0:3:0:0:
294,41,77372,1,8,0:3:0:0:
213,290,77525,1,4,0:3:0:0:
132,39,77679,1,8,0:3:0:0:
344,194,77832,2,0,P|385:234|405:282,1,80,12|0,0:3|0:0,0:0:0:0:
183,98,78138,2,0,P|142:58|122:10,1,80,4|0,0:3|0:0,0:0:0:0:
364,92,78444,6,0,L|375:12,2,80,12|0|0,0:3|0:0|0:0,0:0:0:0:
344,194,78903,1,0,0:0:0:0:
487,120,79056,2,0,L|511:296,1,160,8|0,0:0|0:0,0:0:0:0:
189,207,79515,6,4,B|262:181|262:181|343:193,1,160,2|0,0:3|0:3,0:3:0:0:
337,29,79974,1,4,0:3:0:0:
487,120,80128,1,12,0:3:0:0:
343,193,80281,1,8,0:3:0:0:
435,27,80434,1,4,0:3:0:0:
262,220,80587,6,0,P|380:118|367:274,1,400,6|0,0:3|0:0,0:0:0:0:
178,268,81505,1,8,0:0:0:0:
366,274,81658,1,4,0:3:0:0:
157,170,81811,1,8,0:3:0:0:
272,314,81964,1,12,0:3:0:0:
209,111,82117,6,0,P|156:92|101:115,1,80,6|0,0:0|0:0,0:0:0:0:
178,268,82423,1,8,0:3:0:0:
303,111,82577,2,0,P|355:92|410:115,1,80,10|0,0:0|0:0,0:0:0:0:
334,268,82883,1,4,0:3:0:0:
169,23,83036,6,0,P|71:44|133:179,1,240,6|0,0:0|0:0,0:0:0:0:
148,342,83648,2,0,L|185:249,1,80
404,88,83954,1,10,0:0:0:0:
394,115,84031,1,2,0:0:0:0:
384,141,84107,1,2,0:0:0:0:
373,167,84184,1,2,0:0:0:0:
363,193,84260,2,0,L|326:286,1,80,4|8,0:3|0:3,0:0:0:0:
74,73,84566,6,0,P|156:45|238:71,1,176.000005371094,8|0,0:3|0:0,0:0:0:0:
148,342,85025,2,0,B|172:248|172:248|156:155,1,191.999994140625,8|0,0:3|0:0,0:0:0:0:
427,44,85485,2,0,B|369:143|449:267|449:267|361:210|281:267,1,415.999980957032,14|0,0:3|0:0,0:0:0:0:
256,192,86403,12,0,87934,2:0:0:0:
176,144,88240,6,0,L|208:240,1,80,6|0,0:0|0:0,0:0:0:0:
310,219,88699,2,0,L|336:144,1,80
230,72,89158,2,0,P|166:56|110:200,1,240
403,72,90689,6,0,P|394:114|412:159,1,80,2|0,0:0|0:0,0:0:0:0:
424,240,91148,2,0,P|434:278|425:316,1,80
230,72,91760,2,0,B|284:81|321:35|321:35|348:81|403:72,1,200
256,192,92985,5,0,0:0:0:0:
192,256,93138,2,0,P|186:302|200:344,1,80,2|0,0:0|0:0,0:0:0:0:
317,333,93597,2,0,P|326:295|320:256,1,80
320,256,94209,1,0,0:0:0:0:
300,163,94362,2,0,P|339:141|378:157,1,80
212,163,94974,2,0,P|173:141|134:157,1,80
57,332,95587,6,0,L|34:247,1,80,2|0,0:0|0:0,0:0:0:0:
120,227,96046,2,0,L|143:142,1,80,2|2,0:3|0:3,0:3:0:0:
169,61,96505,1,0,0:0:0:0:
256,192,96811,6,0,P|336:184|416:192,1,160,2|0,0:0|0:0,0:0:0:0:
416,192,97883,5,0,0:0:0:0:
392,72,98036,2,0,P|360:32|296:32,1,111.999996582031,2|0,0:0|0:0,0:0:0:0:
209,28,98495,2,0,P|155:30|120:71,1,111.999996582031
141,194,98954,2,0,L|151:249,1,55.9999982910157
58,184,99260,2,0,L|78:294,1,111.999996582031
391,179,99872,2,0,P|404:119|379:56,1,111.999996582031
314,124,100332,1,0,0:0:0:0:
499,175,100485,6,0,L|511:250,1,55.9999982910157,2|0,0:0|0:0,0:0:0:0:
491,317,100791,1,0,0:0:0:0:
394,289,100944,2,0,B|337:301|337:301|265:284,1,111.999996582031
216,237,101403,1,0,0:0:0:0:
64,20,101709,2,0,P|40:49|112:142,1,167.999994873047,2|0,0:0|0:0,0:0:0:0:
244,81,102321,2,0,B|217:74|174:83,1,55.9999982910157
267,167,102628,2,0,B|294:174|337:165,1,55.9999982910157
412,30,102934,5,8,0:3:0:0:
103,75,103240,1,8,0:3:0:0:
420,200,103546,1,8,0:3:0:0:
61,291,103852,1,8,0:3:0:0:
420,200,104158,5,4,0:3:0:0:
203,107,104311,1,8,0:3:0:0:
355,262,104464,1,4,0:3:0:0:
267,45,104617,1,8,0:3:0:0:
265,261,104770,1,4,0:3:0:0:
357,45,104923,1,8,0:3:0:0:
203,196,105076,1,4,0:3:0:0:
419,109,105230,1,8,0:3:0:0:
88,40,105383,6,0,B|0:192|176:192|64:368,1,335.999989746094,4|0,0:3|0:0,0:0:0:0:
256,192,106378,12,0,107219,0:0:0:0:
256,192,107525,5,0,0:0:0:0:
330,118,107679,1,0,0:0:0:0:
184,161,107832,6,0,P|197:243|312:249,1,160,6|0,0:0|0:0,0:0:0:0:
357,220,108291,1,4,0:3:0:0:
472,46,108444,2,0,L|452:133,1,80,8|0,0:0|0:0,0:0:0:0:
374,297,108750,2,0,L|356:219,1,80
204,77,109056,6,0,P|150:58|53:106,1,160,2|4,0:0|0:3,0:0:0:0:
74,199,109515,1,0,0:0:0:0:
257,139,109668,2,0,P|279:107|286:68,1,80,8|0,0:0|0:0,0:0:0:0:
431,202,109974,2,0,P|437:241|460:273,1,80
216,302,110281,6,0,B|139:288|139:288|35:306,1,160,2|0,0:0|0:0,0:0:0:0:
74,199,110740,1,0,0:0:0:0:
283,158,110893,2,0,B|327:149|327:149|374:120,1,80,8|0,0:0|0:0,0:0:0:0:
424,42,111199,1,0,0:0:0:0:
464,184,111352,1,4,0:3:0:0:
251,88,111505,6,0,P|207:152|251:228,1,160,2|4,0:0|0:3,0:0:0:0:
339,245,111964,1,0,0:0:0:0:
135,313,112117,2,0,L|90:213,1,80,10|2,0:0|0:0,0:0:0:0:
46,58,112423,2,0,L|13:130,1,80,2|2,0:0|0:0,0:0:0:0:
251,88,112730,6,0,B|328:117|328:117|413:88,1,160,2|0,0:0|0:0,0:0:0:0:
488,35,113189,1,4,0:3:0:0:
464,184,113342,2,0,L|453:285,1,80,8|0,0:0|0:0,0:0:0:0:
326,116,113648,2,0,L|341:216,1,80
115,257,113954,6,0,P|200:245|274:344,1,160,2|4,0:0|0:3,0:0:0:0:
170,344,114413,1,0,0:0:0:0:
36,270,114566,2,0,P|39:231|61:198,1,80,8|0,0:0|0:0,0:0:0:0:
132,29,114872,2,0,B|140:79|140:79|168:128,1,80,2|2,0:3|0:3,0:3:0:0:
330,215,115179,5,8,0:3:0:0:
442,131,115332,1,0,0:0:0:0:
455,263,115485,1,0,0:0:0:0:
330,215,115638,1,0,0:0:0:0:
459,100,115791,5,8,0:3:0:0:
479,291,115944,1,0,0:0:0:0:
297,221,116097,1,0,0:0:0:0:
459,100,116250,1,0,0:0:0:0:
368,303,116403,6,0,L|255:313,1,80,12|0,0:3|0:0,0:0:0:0:
144,157,116709,2,0,L|257:167,1,80
358,44,117015,5,8,0:3:0:0:
144,157,117168,1,8,0:3:0:0:
368,157,117321,1,8,0:3:0:0:
154,44,117474,1,8,0:3:0:0:
399,239,117628,6,0,P|449:191|424:88,1,160,4|0,0:0|0:0,0:0:0:0:
358,44,118087,1,0,0:0:0:0:
314,225,118240,2,0,P|335:300|384:325,1,80,8|0,0:0|0:0,0:0:0:0:
435,321,118546,1,0,0:0:0:0:
369,154,118699,6,0,P|295:138|227:244,1,160
197,309,119158,2,0,L|118:300,1,80,4|0,0:3|0:0,0:0:0:0:
314,225,119464,1,10,0:0:0:0:
158,146,119617,1,2,0:0:0:0:
314,67,119770,1,2,0:0:0:0:
158,146,119923,1,2,0:0:0:0:
384,174,120077,6,0,P|397:239|359:291,1,80,4|0,0:3|0:0,0:0:0:0:
255,341,120383,2,0,L|255:247,1,80
127,174,120689,2,0,P|113:210|118:250,1,80,8|0,0:0|0:0,0:0:0:0:
160,345,120995,1,0,0:0:0:0:
74,118,121148,6,0,P|40:190|68:316,1,160,4|0,0:3|0:0,0:0:0:0:
187,220,121607,1,4,0:3:0:0:
374,36,121913,6,0,B|429:46|429:46|467:107,2,120,10|2|2,0:0|0:0|0:0,0:0:0:0:
92,117,122525,6,0,L|283:105,1,191.999994140625,4|0,0:3|0:0,0:0:0:0:
359,206,122985,1,4,0:3:0:0:
57,187,123138,6,0,P|14:127|43:55,2,120,6|2|2,0:0|0:0|0:0,0:0:0:0:
388,278,123750,6,0,P|437:217|316:143,1,191.999994140625,4|4,0:0|0:3,0:0:0:0:
268,183,124209,1,0,0:0:0:0:
112,315,124362,6,0,L|260:270,1,80,10|0,0:0|0:3,0:3:0:0:
288,264,124668,1,4,0:3:0:0:
46,52,124974,6,0,P|152:82|199:52,1,160,8|0,0:3|0:0,0:0:0:0:
465,52,125434,2,0,P|395:86|322:60,1,160
256,144,125893,1,0,0:0:0:0:
256,144,126505,6,0,L|280:248,1,80
335,298,126811,2,0,L|363:177,2,120
174,154,127423,6,0,P|223:68|322:100,1,207.999990478516,4|0,0:0|0:0,0:0:0:0:
362,181,127883,1,0,0:0:0:0:
229,216,128036,2,0,P|251:183|256:144,1,80,8|0,0:0|0:0,0:0:0:0:
68,24,128342,2,0,P|72:63|94:96,1,80,0|0,0:3|0:3,0:3:0:0:
329,238,128648,6,0,B|229:216|229:216|79:252,1,207.999990478516,8|0,0:3|0:0,0:0:0:0:
366,311,129107,2,0,P|405:271|286:173,1,207.999990478516,8|0,0:3|0:0,0:0:0:0:
35,217,129566,2,0,B|66:262|61:343|61:343|295:287,1,311.999985717774,8|0,0:3|0:0,0:0:0:0:
329,238,130179,1,0,0:0:0:0:
329,238,130332,1,0,0:0:0:0:
169,80,130485,6,0,P|162:112|175:165,1,80,8|0,0:0|0:0,0:0:0:0:
343,80,130791,2,0,P|350:112|337:165,1,80,2|2,0:3|0:3,0:3:0:0:
47,220,131097,6,0,L|92:11,1,207.999990478516,8|0,0:3|0:0,0:0:0:0:
182,287,131556,2,0,L|168:70,1,207.999990478516,8|0,0:3|0:0,0:0:0:0:
375,9,132015,2,0,P|276:39|409:123,1,311.999985717774,8|0,0:3|0:0,0:0:0:0:
466,105,132628,1,0,0:0:0:0:
466,105,132781,1,0,0:0:0:0:
343,80,132934,6,0,P|293:98|234:151,1,80
182,287,133240,2,0,P|232:269|291:216,1,80,0|0,0:3|0:3,0:3:0:0:
97,37,133546,6,0,B|81:106|81:106|108:159|108:159|86:259,1,207.999990478516,8|0,0:3|0:0,0:0:0:0:
367,190,134005,2,0,B|341:128|341:128|270:114|270:114|220:161,1,207.999990478516,8|0,0:3|0:0,0:0:0:0:
338,295,134464,2,0,P|400:294|357:82,1,311.999985717774,8|0,0:3|0:0,0:0:0:0:
332,45,135077,1,0,0:0:0:0:
332,45,135230,1,0,0:0:0:0:
220,160,135383,6,0,B|226:122|226:122|191:42,1,80,8|0,0:0|0:0,0:0:0:0:
109,229,135689,2,0,B|103:267|103:267|138:347,1,80,2|0,0:0|0:0,0:0:0:0:
338,295,135995,6,0,L|247:304,1,80,2|0,0:0|0:0,0:0:0:0:
359,110,136301,2,0,L|368:201,1,80,2|0,0:0|0:0,0:0:0:0:
174,89,136607,2,0,L|265:80,1,80,2|0,0:0|0:0,0:0:0:0:
153,274,136913,2,0,L|144:183,1,80,2|0,0:0|0:0,0:0:0:0:
394,38,137219,6,0,P|438:123|366:188,1,207.999990478516,4|0,0:0|0:0,0:0:0:0:
264,164,137679,1,0,0:0:0:0:
122,34,137832,2,0,P|100:79|106:123,1,80,8|0,0:0|0:0,0:0:0:0:
243,237,138138,2,0,P|265:192|259:148,1,80
0,142,138444,6,0,B|18:297|18:297|102:350,1,207.999990478516,8|0,0:3|0:0,0:0:0:0:
326,196,138903,2,0,P|303:104|209:117,1,207.999990478516,8|0,0:3|0:0,0:0:0:0:
406,186,139362,2,0,P|349:48|202:32,1,311.999985717774,8|0,0:3|0:0,0:0:0:0:
125,102,139974,1,0,0:0:0:0:
125,102,140128,1,0,0:0:0:0:
241,240,140281,6,0,L|263:163,1,80,8|0,0:0|0:3,0:0:0:0:
395,262,140587,2,0,L|416:339,1,80,2|2,0:3|0:3,0:3:0:0:
150,281,140893,6,0,L|205:79,1,207.999990478516,8|0,0:3|0:0,0:0:0:0:
8,10,141352,2,0,P|-2:108|107:109,1,207.999990478516,8|0,0:3|0:0,0:0:0:0:
306,79,141811,2,0,L|362:281,1,207.999990478516,8|0,0:3|0:0,0:0:0:0:
419,80,142423,1,0,0:0:0:0:
419,80,142577,1,0,0:0:0:0:
235,18,142730,6,0,P|141:54|135:77,1,80,8|0,0:0|0:0,0:0:0:0:
56,189,143036,2,0,P|149:152|155:129,1,80
421,245,143342,6,0,P|399:337|306:321,1,207.999990478516,8|0,0:3|0:0,0:0:0:0:
63,145,143801,2,0,B|-3:218|-3:218|11:333,1,207.999990478516,8|0,0:3|0:0,0:0:0:0:
181,209,144260,2,0,B|293:89|436:300|561:-104|132:-96|98:253|528:252|478:33,1,623.999971435548,8|8,0:3|0:0,0:0:0:0:
468,251,145332,6,0,L|451:357,1,80
362,283,145638,1,0,0:0:0:0:
269,331,145791,2,0,P|171:347|84:312,1,160,0|2,0:0|0:0,0:0:0:0:
21,283,146250,1,0,0:0:0:0:
121,148,146403,2,0,L|95:268,1,80,2|0,0:0|0:0,0:0:0:0:
24,109,146709,2,0,L|7:30,1,80,2|0,0:0|0:0,0:0:0:0:
185,57,147015,6,0,B|287:47|287:47|400:81,1,207.999990478516,4|0,0:0|0:0,0:0:0:0:
481,122,147474,1,0,0:0:0:0:
277,137,147628,2,0,P|227:216|283:262,1,160,8|0,0:0|0:0,0:0:0:0:
365,270,148087,1,0,0:0:0:0:
157,341,148240,6,0,P|145:263|112:190,1,160,2|0,0:0|0:0,0:0:0:0:
269,46,148699,2,0,P|237:118|225:197,1,160,10|0,0:0|0:0,0:0:0:0:
338,333,149158,2,0,P|433:287|372:202,1,240,2|0,0:0|0:0,0:0:0:0:
225,197,149770,2,0,L|234:322,1,80
61,185,150077,2,0,L|72:25,1,160,8|0,0:0|0:0,0:0:0:0:
165,72,150536,1,0,0:0:0:0:
351,158,150689,6,0,P|281:217|202:151,1,160,2|0,0:0|0:0,0:0:0:0:
399,235,151148,2,0,P|337:283|259:295,1,160,10|0,0:0|0:0,0:0:0:0:
280,100,151607,2,0,P|420:95|399:234,1,320,2|0,0:0|0:0,0:0:0:0:
68,195,152525,2,0,B|141:178|141:178|245:200,1,160,8|0,0:0|0:0,0:0:0:0:
297,270,152985,1,0,0:0:0:0:
59,274,153138,6,0,P|-6:223|32:121,1,160,2|0,0:0|0:0,0:0:0:0:
228,72,153597,2,0,B|68:105,1,160,10|0,0:0|0:0,0:0:0:0:
224,195,154056,2,0,B|276:175|328:227|328:227|367:208|367:208|406:227|406:227|458:175|510:195,1,320,2|0,0:0|0:0,0:0:0:0:
157,147,154974,2,0,P|147:220|202:276,1,80,8|0,0:0|0:0,0:0:0:0:
313,96,155281,2,0,P|317:56|304:19,1,80,2|0,0:0|0:0,0:0:0:0:
73,117,155587,6,0,P|56:209|81:289,1,160,2|2,0:0|0:0,0:0:0:0:
439,272,156199,2,0,P|456:194|439:117,1,160,10|2,0:0|0:0,0:0:0:0:
371,37,156658,1,0,0:0:0:0:
256,192,156811,6,0,P|249:249|324:220,1,167.999994873047,4|0,0:0|0:0,0:0:0:0:
187,153,157423,2,0,P|163:217|195:305,1,111.999996582031,8|0,0:0|0:0,0:0:0:0:
214,323,157883,1,0,0:0:0:0:
324,223,158036,2,0,L|446:203,1,111.999996582031,2|0,0:0|0:0,0:0:0:0:
483,106,158495,2,0,L|361:86,1,111.999996582031,10|0,0:0|0:0,0:0:0:0:
256,192,158954,2,0,P|267:271|348:295,1,167.999994873047,2|0,0:0|0:0,0:0:0:0:
417,273,159566,1,0,0:0:0:0:
417,273,159719,1,0,0:0:0:0:
348,113,159872,6,0,L|318:248,1,111.999996582031,8|0,0:0|0:0,0:0:0:0:
342,296,160332,1,0,0:0:0:0:
199,283,160485,2,0,B|164:284|140:260|140:260|90:282|90:282|66:256|28:253,2,167.999994873047,2|8|0,0:0|0:0|0:0,0:0:0:0:
342,296,161709,1,0,0:0:0:0:
98,38,162321,6,0,B|90:73|90:73|112:97|112:97|101:127|121:169,1,111.999996582031,8|0,0:0|0:0,0:0:0:0:
99,218,162781,1,0,0:0:0:0:
182,122,162934,2,0,P|229:98|319:128,1,111.999996582031,2|0,0:0|0:0,0:0:0:0:
228,290,163393,2,0,L|247:167,1,111.999996582031,10|0,0:0|0:0,0:0:0:0:
446,285,163852,2,0,B|342:253|342:333|214:285,1,223.999993164063,2|0,0:0|0:0,0:0:0:0:
227,289,164770,5,8,0:0:0:0:
256,192,164847,12,0,166811,0:0:0:0:
