osu file format v14

[General]
AudioFilename: [Milky] Stronger than You -Chara response-.mp3
AudioLeadIn: 2000
PreviewTime: 29005
Countdown: 0
SampleSet: Soft
StackLeniency: 0.7
Mode: 0
LetterboxInBreaks: 0
EpilepsyWarning: 1
WidescreenStoryboard: 1

[Editor]
Bookmarks: 77,9873,29464,86403,88240,97730,110893,127423,137219
DistanceSpacing: 0.9
BeatDivisor: 8
GridSize: 4
TimelineZoom: 2

[Metadata]
Title:Stronger Than You -Chara Response-
TitleUnicode:Stronger Than You -Chara Response-
Artist:Milkychan
ArtistUnicode:Milkychan​
Creator:Cosmolade
Version:Normal
Source:
Tags:undertale genocide merciless cover xXMilkychanXx Milky sans Estelle Rebecca Sugar Comic Jailbreak Steven Universe Mémoire Soreperior parody 8-bit xtrem3x ErunamoJAZZ HappyRocket88 Gero Marianna Voli
BeatmapID:899462
BeatmapSetID:413707

[Difficulty]
HPDrainRate:4
CircleSize:3
OverallDifficulty:4
ApproachRate:5
SliderMultiplier:2.6
SliderTickRate:1

[Events]
//Background and Video events
0,0,"BG7.jpg",0,0
//Break Periods
2,27215,27958
2,88440,96836
//Storyboard Layer 0 (Background)
//Storyboard Layer 1 (Fail)
//Storyboard Layer 2 (Pass)
//Storyboard Layer 3 (Foreground)
//Storyboard Sound Samples

[TimingPoints]
77,612.244897959184,4,2,0,50,1,0
77,-142.857142857143,4,2,0,50,0,0
29005,-111.111111111111,4,2,0,50,0,0
49056,-100,4,2,0,50,0,1
56097,-99.9999999999999,4,2,0,50,0,0
58852,-100,4,2,0,50,0,1
68648,-99.9999999999999,4,2,0,50,0,0
127423,-100,4,2,0,50,0,1
134464,-99.9999999999999,4,2,0,50,0,0
137219,-100,4,2,0,50,0,1
147015,-100,4,2,0,50,0,0

[Colours]
Combo1 : 255,128,0
Combo2 : 255,255,128
Combo3 : 0,213,106
Combo4 : 174,75,51
Combo5 : 255,128,192
SliderTrackOverride : 0,0,2
SliderBorder : 183,159,167

[HitObjects]
256,192,7423,12,0,9260,0:0:0:0:
416,32,9872,6,0,P|392:56|432:192,1,181.999994445801,4|0,0:0|0:0,0:0:0:0:
468,252,10791,1,0,0:0:0:0:
408,308,11097,2,0,B|362:312|362:312|312:308,1,90.9999972229005,4|0,0:0|0:0,0:0:0:0:
268,244,11709,2,0,B|222:248|222:248|172:244,1,90.9999972229005
100,216,12321,5,4,0:0:0:0:
36,268,12628,1,0,0:0:0:0:
76,340,12934,2,0,P|132:340|176:316,1,90.9999972229005
236,288,13546,2,0,P|284:280|348:296,1,90.9999972229005,4|0,0:0|0:0,0:0:0:0:
396,328,14158,1,4,0:0:0:0:
464,280,14464,1,2,0:0:0:0:
436,204,14770,6,0,P|388:196|328:216,1,90.9999972229005,4|0,0:0|0:0,0:0:0:0:
306,204,15230,2,0,P|246:212|166:196,1,136.499995834351,0|2,0:0|0:0,0:0:0:0:
148,120,15995,2,0,P|100:112|36:128,1,90.9999972229005,4|0,0:0|0:0,0:0:0:0:
40,196,16607,2,8,P|16:188|-8:160,2,45.4999986114502,8|0|8,0:0|0:0|0:0,0:0:0:0:
116,224,17219,6,0,P|172:232|212:264,1,90.9999972229005,4|0,0:0|0:0,0:0:0:0:
280,256,17832,2,0,P|328:216|336:160,1,90.9999972229005
400,140,18444,2,0,P|364:112|304:116,2,90.9999972229005,2|0|0,0:0|0:0|0:0,0:0:0:0:
336,190,19362,1,0,0:0:0:0:
336,190,19668,6,0,L|324:294,1,90.9999972229005,8|0,0:0|0:0,0:0:0:0:
248,308,20281,2,0,P|200:316|152:292,1,90.9999972229005,8|0,0:0|0:0,0:0:0:0:
120,228,20893,2,0,P|160:202|192:140,1,90.9999972229005,4|0,0:0|0:0,0:0:0:0:
264,148,21505,2,0,P|312:140|368:156,1,90.9999972229005,8|0,0:0|0:0,0:0:0:0:
432,176,22117,5,4,0:0:0:0:
480,244,22423,2,0,L|524:312,2,45.4999986114502,2|0|8,0:0|0:0|0:0,0:0:0:0:
432,176,23036,1,2,0:0:0:0:
356,144,23342,2,0,P|308:176|284:224,1,90.9999972229005,4|0,0:0|0:0,0:0:0:0:
244,272,23954,2,0,P|288:284|340:272,1,90.9999972229005,6|0,0:0|0:0,0:0:0:0:
392,220,24566,5,6,0:0:0:0:
356,144,24872,2,0,L|265:144,1,90.9999972229005,2|8,0:0|0:0,0:0:0:0:
184,144,25485,1,2,0:0:0:0:
184,144,25791,2,0,P|200:96|248:64,1,90.9999972229005,6|0,0:0|0:0,0:0:0:0:
300,28,26403,2,0,L|360:28,2,45.4999986114502,8|0|8,0:0|0:0|0:0,0:0:0:0:
229,70,27015,5,4,0:0:0:0:
250,77,29158,5,0,0:0:0:0:
304,152,29464,2,0,P|360:168|424:144,1,116.999996429443,4|0,0:0|0:0,0:0:0:0:
456,232,30077,2,0,P|440:288|392:336,2,116.999996429443,8|0|2,0:0|0:0|0:0,0:0:0:0:
414,151,30995,2,0,P|344:132|288:168,1,116.999996429443,2|8,0:0|0:0,0:0:0:0:
360,224,31607,1,0,0:0:0:0:
414,151,31913,6,0,P|430:87|382:31,1,116.999996429443,4|0,0:0|0:0,0:0:0:0:
312,56,32525,2,0,P|288:40|248:32,2,58.4999982147217,8|0|2,0:0|0:0|0:0,0:0:0:0:
305,148,33138,2,0,P|293:188|341:268,1,116.999996429443,4|0,0:0|0:0,0:0:0:0:
388,192,33750,1,8,0:0:0:0:
208,136,34362,6,0,P|144:104|128:24,1,116.999996429443,4|0,0:0|0:0,0:0:0:0:
216,48,34974,2,0,P|256:56|304:128,1,116.999996429443,8|0,0:0|0:0,0:0:0:0:
392,140,35587,2,0,B|396:200|396:200|392:260,1,116.999996429443,10|0,0:0|0:0,0:0:0:0:
292,256,36199,1,2,0:0:0:0:
192,252,36505,1,0,0:0:0:0:
132,180,36811,6,0,P|192:160|252:180,1,116.999996429443,4|0,0:0|0:0,0:0:0:0:
192,252,37423,2,0,P|128:276|68:248,1,116.999996429443,4|0,0:0|0:0,0:0:0:0:
32,184,38036,2,0,P|76:112|168:72,1,175.499994644165,4|0,0:0|0:0,0:0:0:0:
200,88,38648,2,0,P|224:112|232:152,2,58.4999982147217,8|8|8,0:0|0:0|0:0,0:0:0:0:
144,186,39260,6,0,P|88:199|32:184,1,116.999996429443,4|0,0:0|0:0,0:0:0:0:
24,280,39872,2,0,P|79:295|148:280,1,116.999996429443,8|0,0:0|0:0,0:0:0:0:
224,320,40485,2,0,P|184:368|112:376,1,116.999996429443,2|0,0:0|0:0,0:0:0:0:
137,284,41097,1,8,0:0:0:0:
216,232,41403,1,2,0:0:0:0:
312,240,41709,6,0,P|349:195|367:140,1,116.999996429443,4|0,0:0|0:0,0:0:0:0:
296,80,42321,2,0,P|240:98|196:135,1,116.999996429443,8|0,0:0|0:0,0:0:0:0:
216,232,42934,1,2,0:0:0:0:
292,288,43240,2,0,B|340:320|340:320|372:312|412:320,2,116.999996429443,2|8|0,0:0|0:0|0:0,0:0:0:0:
216,232,44158,6,0,P|152:248|80:208,1,116.999996429443,4|0,0:0|0:0,0:0:0:0:
48,160,44770,2,0,B|64:136|112:136|112:136|168:136,1,116.999996429443,10|0,0:0|0:0,0:0:0:0:
252,140,45383,1,8,0:0:0:0:
344,120,45689,1,2,0:0:0:0:
328,208,45995,2,0,P|313:233|312:264,2,58.4999982147217,8|0|0,0:0|0:0|0:0,0:0:0:0:
400,264,46607,6,0,P|448:280|528:256,1,116.999996429443,8|0,0:0|0:0,0:0:0:0:
456,192,47219,2,0,B|448:172|464:144|464:144|484:112|460:76,1,116.999996429443,8|2,0:0|0:0,0:0:0:0:
392,24,47832,2,0,L|276:16,1,116.999996429443,8|0,0:0|0:0,0:0:0:0:
196,64,48444,2,0,P|140:80|72:76,1,116.999996429443,2|0,0:0|0:0,0:0:0:0:
44,108,48903,1,2,0:0:0:0:
44,156,49056,6,0,P|68:220|124:252,1,130,4|0,0:0|0:0,0:0:0:0:
212,208,49668,2,0,P|276:184|348:208,1,130,8|0,0:0|0:0,0:0:0:0:
312,296,50281,6,0,B|256:296|256:296|208:320|160:288,1,130,4|0,0:0|0:0,0:0:0:0:
140,296,50740,2,0,P|76:312|4:288,1,130,4|0,0:0|0:0,0:0:0:0:
8,252,51199,2,0,L|80:124,1,130,4|0,0:0|0:0,0:0:0:0:
300,162,52117,6,0,P|356:104|412:97,1,130,8|0,0:0|0:0,0:0:0:0:
398,200,52730,2,0,P|367:255|308:282,1,130,4|0,0:0|0:0,0:0:0:0:
264,308,53189,2,0,P|296:324|328:356,2,65,4|8|0,0:0|0:0|0:0,0:0:0:0:
220,284,53648,2,0,P|156:268|92:284,1,130,4|0,0:0|0:0,0:0:0:0:
4,96,54566,2,0,B|56:96|56:96|100:96|140:40,1,130,8|0,0:0|0:0,0:0:0:0:
216,72,55179,6,0,P|276:51|352:80,1,130,4|0,0:0|0:0,0:0:0:0:
384,96,55638,2,0,P|392:160|384:224,1,130,4|0,0:0|0:0,0:0:0:0:
372,276,56097,2,0,P|300:276|228:228,1,130,4|0,0:0|0:0,0:0:0:0:
121,106,57015,1,8,0:0:0:0:
121,106,57321,6,0,P|94:94|73:58,2,65,10|0|8,0:0|0:0|0:0,0:0:0:0:
216,148,57934,1,0,0:0:0:0:
280,68,58240,2,0,P|316:76|364:60,1,65,2|0,0:0|0:0,0:0:0:0:
388,96,58546,2,0,P|420:88|456:96,1,65,8|0,0:0|0:0,0:0:0:0:
496,120,58852,5,4,0:0:0:0:
384,264,59464,2,0,B|320:256|320:256|232:272,1,130,8|0,0:0|0:0,0:0:0:0:
152,264,60077,6,0,P|184:192|248:164,1,130,4|0,0:0|0:0,0:0:0:0:
276,152,60536,2,0,P|364:120|388:80,1,130,4|0,0:0|0:0,0:0:0:0:
424,60,60995,2,0,P|464:116|472:196,1,130,4|0,0:0|0:0,0:0:0:0:
316,308,61913,2,0,P|252:316|188:372,1,130,8|0,0:0|0:0,0:0:0:0:
168,256,62525,6,0,P|200:200|176:120,1,130,4|0,0:0|0:0,0:0:0:0:
168,88,62985,2,0,P|128:96|104:88,2,65,4|8|0,0:0|0:0|0:0,0:0:0:0:
207,54,63444,2,0,B|231:14|295:6|343:30|343:30|343:110|415:118,1,260,4|0,0:0|0:0,0:0:0:0:
368,216,64362,2,0,P|344:192|304:184,2,65,8|0|0,0:0|0:0|0:0,0:0:0:0:
312,304,64974,6,0,P|388:320|440:292,1,130,4|0,0:0|0:0,0:0:0:0:
456,252,65434,2,0,B|472:220|464:188|464:188|512:124,1,130,4|0,0:0|0:0,0:0:0:0:
504,84,65893,2,0,B|480:12|396:12,1,130,4|0,0:0|0:0,0:0:0:0:
200,56,66811,1,8,0:0:0:0:
200,56,67117,6,0,P|160:56|128:88,1,65,10|0,0:0|0:0,0:0:0:0:
104,104,67423,2,0,L|24:72,2,65,10|0|8,0:0|0:0|0:0,0:0:0:0:
192,156,68036,1,8,0:0:0:0:
136,240,68342,2,0,P|144:280|176:304,1,65,2|0,0:0|0:0,0:0:0:0:
208,320,68648,6,0,P|312:328|392:184,1,260,6|0,0:0|0:0,0:0:0:0:
304,160,69566,1,2,0:0:0:0:
304,160,69872,6,0,P|248:144|208:56,1,130,4|0,0:0|0:0,0:0:0:0:
200,32,70332,2,0,B|264:48|264:48|352:32,1,130,8|2,0:0|0:0,0:0:0:0:
384,32,70791,2,0,B|384:80|384:80|440:112|432:160,1,130,6|0,0:0|0:0,0:0:0:0:
384,232,71403,1,0,0:0:0:0:
288,280,71709,1,8,0:0:0:0:
184,280,72015,2,0,P|156:263|144:232,1,65,8|0,0:0|0:0,0:0:0:0:
144,184,72321,6,0,P|208:168|288:192,1,130,4|0,0:0|0:0,0:0:0:0:
320,192,72781,1,8,0:0:0:0:
368,208,72934,2,0,P|400:216|456:192,1,65,2|0,0:0|0:0,0:0:0:0:
476,184,73240,2,0,P|492:120|468:40,1,130,4|0,0:0|0:0,0:0:0:0:
384,32,73852,1,8,0:0:0:0:
384,32,74158,2,0,L|254:32,1,130,4|0,0:0|0:0,0:0:0:0:
272,136,74770,6,0,B|232:152|192:136|192:136|120:136,1,130,12|0,0:0|0:0,0:0:0:0:
88,136,75230,2,0,B|40:136|32:104|32:104|40:72|32:32,1,130,8|0,0:0|0:0,0:0:0:0:
80,16,75689,2,0,P|136:8|216:16,1,130,12|0,0:0|0:0,0:0:0:0:
288,80,76301,1,0,0:0:0:0:
392,56,76607,2,0,B|416:40|416:40|448:8,2,65,8|0|0,0:0|0:0|0:0,0:0:0:0:
288,80,77219,2,8,P|264:104|224:116,2,65,8|8|0,0:0|0:0|0:0,0:0:0:0:
208,14,77832,2,0,P|144:-8|80:14,1,130,2|0,0:0|0:0,0:0:0:0:
16,88,78444,6,0,L|145:88,1,130,4|0,0:0|0:0,0:0:0:0:
232,148,79056,2,0,P|192:180|152:180,2,65,2|0|0,0:0|0:0|0:0,0:0:0:0:
308,76,79668,2,0,P|372:108|400:156,1,130,8|0,0:0|0:0,0:0:0:0:
424,204,80128,2,0,L|496:204,2,65,8|0|0,0:0|0:0|0:0,0:0:0:0:
372,208,80587,2,0,B|340:200|292:208|292:208|236:208|196:192|180:136|204:88,1,260,4|0,0:0|0:0,0:0:0:0:
300,56,81505,1,8,0:0:0:0:
400,80,81811,2,0,P|432:80|472:64,1,65,2|0,0:0|0:0,0:0:0:0:
504,104,82117,6,0,P|488:160|440:216,1,130,6|0,0:0|0:0,0:0:0:0:
412,256,82577,2,0,L|476:304,2,65,12|0|0,0:0|0:0|0:0,0:0:0:0:
372,224,83036,1,6,0:0:0:0:
288,164,83342,2,0,P|260:104|288:28,1,130,8|0,0:0|0:0,0:0:0:0:
364,100,83954,2,0,P|396:124|428:132,2,65,8|0|0,0:0|0:0|0:0,0:0:0:0:
274,44,84566,6,0,P|212:26|150:43,1,130,6|0,0:0|0:0,0:0:0:0:
108,72,85025,2,0,P|76:136|92:200,1,130,6|0,0:0|0:0,0:0:0:0:
116,236,85485,2,0,B|192:320|288:256|288:256|384:192|480:288,1,390,6|0,0:0|0:0,0:0:0:0:
256,192,87015,12,4,88240,0:0:0:0:
368,320,98036,6,0,P|414:273|424:184,1,130,8|0,0:0|0:0,0:0:0:0:
400,168,98495,2,0,P|385:110|312:56,1,130,2|0,0:0|0:0,0:0:0:0:
288,48,98954,2,0,B|280:61|247:68|216:40|216:40|152:40,1,130,2|0,0:0|0:0,0:0:0:0:
80,88,99566,1,0,0:0:0:0:
56,192,99872,6,0,P|64:232|88:272,1,65,2|0,0:0|0:0,0:0:0:0:
120,232,100179,2,0,P|144:264|168:280,1,65,2|0,0:0|0:0,0:0:0:0:
204,244,100485,2,0,P|268:268|340:236,1,130,2|0,0:0|0:0,0:0:0:0:
272,168,101097,2,0,B|208:152|208:152|136:152,1,130,2|0,0:0|0:0,0:0:0:0:
136,48,101709,2,0,P|208:64|328:8,1,195,2|0,0:0|0:0,0:0:0:0:
368,8,102321,2,0,P|352:56|376:144,1,130,10|0,0:0|0:0,0:0:0:0:
404,228,102934,6,0,P|347:214|268:236,1,130,4|0,0:0|0:0,0:0:0:0:
228,224,103393,2,0,B|256:204|264:168|264:168|256:132|216:112,1,130,2|0,0:0|0:0,0:0:0:0:
296,40,104005,2,0,P|264:44|228:32,1,65,2|2,0:0|0:0,0:0:0:0:
128,44,104464,1,0,0:0:0:0:
128,44,104770,2,0,P|100:28|48:28,2,65,2|0|0,0:0|0:0|0:0,0:0:0:0:
64,124,105383,6,0,P|40:180|72:252,1,130,4|0,0:0|0:0,0:0:0:0:
108,264,105842,2,0,P|172:256|220:180,1,130,4|0,0:0|0:0,0:0:0:0:
184,108,106454,2,0,P|281:159|424:108,1,260,2|0,0:0|0:0,0:0:0:0:
460,92,107219,1,8,0:0:0:0:
324,252,107832,6,0,P|304:308|336:384,1,130,4|0,0:0|0:0,0:0:0:0:
404,312,108444,1,8,0:0:0:0:
436,212,108750,2,0,P|416:190|380:172,1,65
349,137,109056,2,0,B|411:137|411:137|439:129|461:89,1,130,8|0,0:0|0:0,0:0:0:0:
412,4,109668,1,8,0:0:0:0:
316,24,109974,2,0,P|284:48|268:88,1,65,2|0,0:0|0:0,0:0:0:0:
256,120,110281,6,0,P|280:184|240:256,1,130,4|0,0:0|0:0,0:0:0:0:
176,304,110893,2,0,P|155:243|179:185,1,130,4|0,0:0|0:0,0:0:0:0:
176,64,111505,2,0,B|224:44|256:76|256:76|256:119,1,130,10|0,0:0|0:0,0:0:0:0:
178,185,112117,1,8,0:0:0:0:
88,128,112423,1,2,0:0:0:0:
176,64,112730,6,0,P|240:80|320:56,1,130,4|0,0:0|0:0,0:0:0:0:
400,48,113342,2,0,P|388:12|360:-12,2,65,8|0|0,0:0|0:0|0:0,0:0:0:0:
360,144,113954,2,0,P|304:176|232:184,1,130,4|0,0:0|0:0,0:0:0:0:
152,128,114566,1,8,0:0:0:0:
208,40,114872,1,2,0:0:0:0:
312,32,115179,6,0,B|376:40|376:40|448:32,1,130,4|0,0:0|0:0,0:0:0:0:
496,120,115791,2,0,B|432:112|432:112|352:120,1,130,4|0,0:0|0:0,0:0:0:0:
296,192,116403,1,0,0:0:0:0:
208,136,116709,1,0,0:0:0:0:
144,216,117015,2,0,P|120:232|72:240,2,65,8|0|8,0:0|0:0|0:0,0:0:0:0:
208,136,117628,6,0,P|248:104|336:88,1,130,4|0,0:0|0:0,0:0:0:0:
424,88,118240,2,0,P|420:48|392:16,2,65,2|0|0,0:0|0:0|0:0,0:0:0:0:
416,136,118699,2,0,P|400:208|424:272,1,130,2|0,0:0|0:0,0:0:0:0:
444,304,119158,1,0,0:0:0:0:
344,328,119464,2,0,L|200:328,1,130,8|0,0:0|0:0,0:0:0:0:
136,260,120077,2,0,P|192:252|264:188,1,130,4|0,0:0|0:0,0:0:0:0:
288,112,120689,2,0,P|256:96|240:56,2,65,8|0|0,0:0|0:0|0:0,0:0:0:0:
368,176,121301,2,0,P|376:248|360:304,1,130,8|0,0:0|0:0,0:0:0:0:
256,320,121913,6,0,B|240:344|216:352|216:352|138:352,1,130,10|0,0:0|0:0,0:0:0:0:
168,256,122525,2,0,B|136:232|136:200,2,65,8|0|2,0:0|0:0|0:0,0:0:0:0:
264,216,123138,2,0,P|332:188|376:140,1,130,4|0,0:0|0:0,0:0:0:0:
316,60,123750,2,0,B|356:36|356:-12,2,65,10|0|0,0:0|0:0|0:0,0:0:0:0:
212,60,124362,2,0,P|176:36|136:36,2,65,10|0|0,0:0|0:0|0:0,0:0:0:0:
144,140,124974,6,0,P|200:204|248:212,1,130,6|0,0:0|0:0,0:0:0:0:
292,200,125434,2,0,L|292:40,1,130,2|0,0:0|0:0,0:0:0:0:
290,14,125893,2,0,P|248:108|347:78,1,260,2|0,0:0|0:0,0:0:0:0:
347,77,127423,6,0,P|414:58|483:85,1,130,6|0,0:0|0:0,0:0:0:0:
410,162,128036,2,0,P|394:202|354:226,2,65,8|0|2,0:0|0:0|0:0,0:0:0:0:
314,148,128648,6,0,P|242:132|170:148,1,130,4|0,0:0|0:0,0:0:0:0:
139,160,129107,2,0,B|115:224|115:224|123:288,1,130,4|0,0:0|0:0,0:0:0:0:
152,320,129566,2,0,P|216:328|296:312,1,130,6|0,0:0|0:0,0:0:0:0:
456,216,130485,2,0,P|488:196|508:168,2,65,8|0|0,0:0|0:0|0:0,0:0:0:0:
416,120,131097,6,0,P|369:76|296:64,1,130,4|0,0:0|0:0,0:0:0:0:
256,64,131556,2,0,B|192:80|192:80|144:128,1,130,4|0,0:0|0:0,0:0:0:0:
120,168,132015,2,0,P|178:303|284:299,1,260,4|0,0:0|0:0,0:0:0:0:
352,232,132934,2,0,P|360:192|344:152,2,65,8|0|0,0:0|0:0|0:0,0:0:0:0:
274,303,133546,6,0,P|208:320|136:304,1,130,4|0,0:0|0:0,0:0:0:0:
104,288,134005,2,0,P|80:312|32:320,2,65,8|8|0,0:0|0:0|0:0,0:0:0:0:
80,244,134464,2,0,P|40:148|128:28,1,260,6|0,0:0|0:0,0:0:0:0:
216,72,135383,1,8,0:0:0:0:
272,168,135689,5,0,0:0:0:0:
343,250,135995,2,0,B|305:247|279:261|279:261|256:251|216:256,2,130,2|0|0,0:0|0:0|0:0,0:0:0:0:
272,168,136913,2,0,P|252:144|240:112,1,65,2|0,0:0|0:0,0:0:0:0:
236,60,137219,5,4,0:0:0:0:
440,28,137832,1,8,0:0:0:0:
440,132,138138,2,0,P|416:172|389:189,1,65,4|0,0:0|0:0,0:0:0:0:
352,204,138444,6,0,P|284:215|216:188,1,130,4|0,0:0|0:0,0:0:0:0:
176,200,138903,2,0,P|152:280|112:320,1,130,4|0,0:0|0:0,0:0:0:0:
68,312,139362,2,0,P|27:261|13:198,1,130,4|0,0:0|0:0,0:0:0:0:
168,80,140281,2,0,P|176:48|200:16,2,65
272,88,140893,6,0,P|332:108|400:88,1,130,4|0,0:0|0:0,0:0:0:0:
448,88,141352,2,0,L|448:232,1,130,4|0,0:0|0:0,0:0:0:0:
448,272,141811,2,0,B|408:280|392:256|392:256|304:256,1,130,4|0,0:0|0:0,0:0:0:0:
228,292,142423,1,0,0:0:0:0:
128,256,142730,2,0,P|144:184|120:120,1,130,8|0,0:0|0:0,0:0:0:0:
200,56,143342,6,0,P|261:38|324:54,1,130,4|0,0:0|0:0,0:0:0:0:
344,104,143801,2,0,L|240:200,1,130,4|0,0:0|0:0,0:0:0:0:
216,232,144260,2,0,P|279:243|341:227,1,130,4|0,0:0|0:0,0:0:0:0:
440,200,144872,2,0,P|424:160|384:144,2,65,0|0|8,0:0|0:0|0:0,0:0:0:0:
416,304,145485,1,0,0:0:0:0:
312,328,145791,6,0,P|248:331|192:280,1,130,2|0,0:0|0:0,0:0:0:0:
160,256,146250,2,0,P|120:264|96:296,2,65,2|0|2,0:0|0:0|0:0,0:0:0:0:
204,232,146709,2,0,P|236:224|260:200,1,65,2|2,0:0|0:0,0:0:0:0:
280,160,147015,1,4,0:0:0:0:
448,284,147628,6,0,P|480:260|496:212,2,65,8|0|0,0:0|0:0|0:0,0:0:0:0:
401,192,148240,2,0,P|349:164|277:160,1,130,6|0,0:0|0:0,0:0:0:0:
232,136,148699,2,0,B|248:200|248:200|224:264,1,130,8|0,0:0|0:0,0:0:0:0:
200,304,149158,2,0,P|240:320|328:304,1,130,4|0,0:0|0:0,0:0:0:0:
400,236,149770,2,0,P|368:212|356:176,1,65
357,141,150077,2,0,P|289:153|221:129,1,130,10|0,0:0|0:0,0:0:0:0:
144,40,150689,6,0,P|208:48|280:40,1,130,6|0,0:0|0:0,0:0:0:0:
324,40,151148,2,0,P|388:48|452:40,1,130,12|0,0:0|0:0,0:0:0:0:
496,72,151607,2,0,B|504:136|504:136|496:208,1,130,10|0,0:0|0:0,0:0:0:0:
436,284,152219,1,2,0:0:0:0:
336,312,152525,6,0,P|316:336|260:356,2,65,8|2|2,0:0|0:0|0:0,0:0:0:0:
248,256,153138,2,0,B|219:225|219:225|192:224|144:160,1,130,4|0,0:0|0:0,0:0:0:0:
108,140,153597,2,0,P|124:180|76:276,1,130,4|0,0:0|0:0,0:0:0:0:
76,304,154056,2,0,B|84:336|108:344|108:344|196:344,1,130,4|0,0:0|0:0,0:0:0:0:
288,332,154668,1,8,0:0:0:0:
352,248,154974,1,8,0:0:0:0:
303,151,155281,6,0,P|271:143|215:159,1,65,2|0,0:0|0:0,0:0:0:0:
192,168,155587,2,0,P|171:224|192:288,1,130,4|2,0:0|0:0,0:0:0:0:
302,271,156199,2,0,P|323:210|302:150,1,130,4|2,0:0|0:0,0:0:0:0:
240,64,156811,2,0,B|304:56|304:56|376:64,1,130,4|0,0:0|0:0,0:0:0:0:
464,104,157423,5,10,0:0:0:0:
440,208,157730,1,2,0:0:0:0:
352,264,158036,2,0,P|296:232|272:160,1,130,6|0,0:0|0:0,0:0:0:0:
240,128,158495,2,0,B|180:160|180:160|112:160,1,130,6|0,0:0|0:0,0:0:0:0:
64,168,158954,2,0,P|88:224|168:272,1,130,6|0,0:0|0:0,0:0:0:0:
176,304,159413,2,0,P|128:336|96:336,2,65
216,272,159872,6,0,P|256:317|336:328,2,130,2|0|0,0:0|0:0|0:0,0:0:0:0:
264,128,160944,2,0,L|416:128,1,130,14|0,0:0|0:0,0:0:0:0:
444,128,161403,2,0,P|460:192|444:272,1,130,2|0,0:0|0:0,0:0:0:0:
368,320,162015,1,2,0:0:0:0:
272,272,162321,6,0,P|224:232|152:208,1,130,8|0,0:0|0:0,0:0:0:0:
108,120,162934,2,0,B|172:128|172:128|244:120,1,130,4|0,0:0|0:0,0:0:0:0:
288,116,163393,2,0,P|352:108|424:116,1,130,4|0,0:0|0:0,0:0:0:0:
464,132,163852,1,12,0:0:0:0:
408,220,164158,1,0,0:0:0:0:
256,362,164770,5,4,0:0:0:0:
256,192,165077,12,0,166811,0:0:0:0:
