osu file format v14

[General]
AudioFilename: [Milky] Stronger than You -Chara response-.mp3
AudioLeadIn: 2000
PreviewTime: 29005
Countdown: 0
SampleSet: Soft
StackLeniency: 0.7
Mode: 0
LetterboxInBreaks: 0
EpilepsyWarning: 1
WidescreenStoryboard: 1

[Editor]
Bookmarks: 77,9873,29464,39260,46607,86403,88240,127423,137219
DistanceSpacing: 0.8
BeatDivisor: 16
GridSize: 4
TimelineZoom: 2.5

[Metadata]
Title:Stronger Than You -Chara Response-
TitleUnicode:Stronger Than You -Chara Response-
Artist:Milkychan
ArtistUnicode:Milkychan​
Creator:Cosmolade
Version:Marianna's Beginner
Source:
Tags:undertale genocide merciless cover xXMilkychanXx Milky sans Estelle Rebecca Sugar Comic Jailbreak Steven Universe Mémoire Soreperior parody 8-bit xtrem3x ErunamoJAZZ HappyRocket88 Gero Marianna Voli
BeatmapID:951538
BeatmapSetID:413707

[Difficulty]
HPDrainRate:1.5
CircleSize:2
OverallDifficulty:1.5
ApproachRate:1
SliderMultiplier:1.7
SliderTickRate:1

[Events]
//Background and Video events
0,0,"BG7.jpg",0,0
//Break Periods
2,68848,84723
//Storyboard Layer 0 (Background)
//Storyboard Layer 1 (Fail)
//Storyboard Layer 2 (Pass)
//Storyboard Layer 3 (Foreground)
//Storyboard Sound Samples

[TimingPoints]
77,612.244897959184,4,2,0,50,1,0
77,-142.857142857143,4,2,0,50,0,0
29005,-142.857142857143,4,2,0,50,0,0
49056,-142.857142857143,4,2,0,50,0,1
56097,-142.857142857143,4,2,0,50,0,0
58852,-142.857142857143,4,2,0,50,0,1
68648,-142.857142857143,4,2,0,50,0,0
88240,-142.857142857143,4,2,0,50,0,0
107832,-142.857142857143,4,2,0,50,0,0
127423,-142.857142857143,4,2,0,50,0,1
134464,-142.857142857143,4,2,0,50,0,0
137219,-142.857142857143,4,2,0,50,0,1
147015,-142.857142857143,4,2,0,50,0,0

[Colours]
Combo1 : 255,128,0
Combo2 : 255,255,128
Combo3 : 0,213,106
Combo4 : 174,75,51
Combo5 : 255,128,192
SliderTrackOverride : 0,0,2
SliderBorder : 183,159,167

[HitObjects]
148,88,9872,6,0,B|212:104|256:56|256:56|300:104|364:88,1,237.999992736817,4|2,0:0|0:0,0:0:0:0:
432,156,11709,1,8,0:0:0:0:
364,220,12321,2,0,B|300:204|256:252|256:252|212:204|148:220,1,237.999992736817,2|2,0:0|0:0,0:0:0:0:
76,156,14158,1,2,0:0:0:0:
148,88,14770,6,0,L|268:104,1,118.999996368408,2|8,0:0|0:0,0:0:0:0:
232,192,15995,2,0,L|352:208,1,118.999996368408,2|8,0:0|0:0,0:0:0:0:
424,148,17219,2,0,P|448:208|312:296,1,237.999992736817,2|2,0:0|0:0,0:0:0:0:
256,360,19056,1,2,0:0:0:0:
180,300,19668,6,0,P|77:255|89:144,1,237.999992736817,4|2,0:0|0:0,0:0:0:0:
164,204,21505,1,8,0:0:0:0:
200,116,22117,2,0,B|256:96|256:96|312:116,1,118.999996368408,4|8,0:0|0:0,0:0:0:0:
312,212,23342,2,0,B|256:232|256:232|200:212,1,118.999996368408,2|10,0:0|0:0,0:0:0:0:
144,288,24566,6,0,B|256:328|256:328|372:288,1,237.999992736817,4|6,0:0|0:0,0:0:0:0:
448,236,26403,1,8,0:0:0:0:
448,140,27015,1,6,0:0:0:0:
256,192,27321,12,4,29464,0:0:0:0:
212,24,30689,6,0,P|196:80|212:144,1,118.999996368408,6|8,0:0|0:0,0:0:0:0:
304,140,31913,2,0,P|316:82|300:25,2,118.999996368408,6|10|2,0:0|0:0|0:0,0:0:0:0:
256,220,33750,1,8,0:0:0:0:
164,252,34362,6,0,P|256:316|348:252,1,237.999992736817,2|2,0:0|0:0,0:0:0:0:
372,160,36199,1,8,0:0:0:0:
316,84,36811,2,0,P|376:64|428:84,2,118.999996368408,4|4|4,0:0|0:0|0:0,0:0:0:0:
256,160,38648,1,8,0:0:0:0:
196,84,39260,6,0,P|144:68|84:84,1,118.999996368408,4|8,0:0|0:0,0:0:0:0:
144,160,40485,2,0,P|200:176|256:160,1,118.999996368408,2|8,0:0|0:0,0:0:0:0:
264,64,41709,2,0,P|332:96|308:240,1,237.999992736817,2|2,0:0|0:0,0:0:0:0:
256,312,43546,1,8,0:0:0:0:
192,240,44158,6,0,L|68:248,2,118.999996368408,2|8|2,0:0|0:0|0:0,0:0:0:0:
252,164,45995,1,8,0:0:0:0:
256,192,46607,12,4,49056,0:0:0:0:
180,76,50281,6,0,B|256:124|256:124|332:76,1,178.499994552612,4|4,0:0|0:0,0:0:0:0:
416,192,52117,1,8,0:0:0:0:
352,260,52730,2,0,L|168:256,1,178.499994552612,4|2,0:0|0:0,0:0:0:0:
44,192,54566,5,8,0:0:0:0:
112,128,55179,2,0,L|290:131,1,178.499994552612,4|4,0:0|0:0,0:0:0:0:
412,208,57015,1,8,0:0:0:0:
428,304,57628,2,0,P|372:296|324:248,1,118.999996368408,2|2,0:0|0:0,0:0:0:0:
256,192,58852,5,4,0:0:0:0:
84,272,60077,2,0,P|56:192|84:104,1,178.499994552612,4|4,0:0|0:0,0:0:0:0:
208,32,61913,1,8,0:0:0:0:
256,112,62525,2,0,L|440:96,1,178.499994552612,4|2,0:0|0:0,0:0:0:0:
492,228,64362,5,8,0:0:0:0:
400,200,64974,2,0,L|222:215,1,178.499994552612,4|4,0:0|0:0,0:0:0:0:
80,192,66811,1,8,0:0:0:0:
256,192,67117,12,4,68648,0:0:0:0:
256,192,86403,12,4,88240,0:0:0:0:
160,136,90689,6,0,P|256:176|348:136,1,208.249993644715,2|2,0:0|0:0,0:0:0:0:
452,192,92525,1,8,0:0:0:0:
424,284,93138,6,0,L|304:296,1,118.999996368408,2|8,0:0|0:0,0:0:0:0:
256,216,94362,2,0,L|136:228,1,118.999996368408,2|8,0:0|0:0,0:0:0:0:
84,308,95587,2,0,P|44:256|128:132,1,237.999992736817,2|2,0:0|0:0,0:0:0:0:
196,68,97423,1,2,0:0:0:0:
256,140,98036,6,0,L|376:132,1,118.999996368408,2|2,0:0|0:0,0:0:0:0:
408,220,99260,2,0,L|289:227,1,118.999996368408,2|0,0:0|0:0,0:0:0:0:
232,304,100485,2,0,P|164:240|24:268,1,237.999992736817,2|2,0:0|0:0,0:0:0:0:
12,356,102321,1,8,0:0:0:0:
256,192,102934,12,4,107832,0:0:0:0:
104,60,110281,6,0,P|88:120|104:176,1,118.999996368408,4|6,0:0|0:0,0:0:0:0:
48,252,111505,2,0,P|108:268|164:252,1,118.999996368408,6|8,0:0|0:0,0:0:0:0:
196,164,112730,6,0,L|436:180,1,237.999992736817,6|2,0:0|0:0,0:0:0:0:
504,120,114566,1,8,0:0:0:0:
256,192,115179,12,4,117628,0:0:0:0:
100,128,119464,5,8,0:0:0:0:
172,192,120077,2,0,L|288:168,1,118.999996368408,6|8,0:0|0:0,0:0:0:0:
332,252,121301,2,0,L|216:276,1,118.999996368408,2|8,0:0|0:0,0:0:0:0:
136,328,122525,6,0,P|92:304|24:300,1,118.999996368408,2|4,0:0|0:0,0:0:0:0:
0,208,123750,2,0,P|42:181|80:125,1,118.999996368408,4|8,0:0|0:0,0:0:0:0:
76,32,124974,2,0,L|256:52,1,178.499994552612,2|2,0:0|0:0,0:0:0:0:
396,72,126811,1,2,0:0:0:0:
320,128,127423,6,0,P|304:188|320:244,1,118.999996368408,4|8,0:0|0:0,0:0:0:0:
408,280,128648,2,0,P|356:332|252:316,1,178.499994552612,4|4,0:0|0:0,0:0:0:0:
156,220,130485,1,8,0:0:0:0:
224,152,131097,2,0,L|404:140,1,178.499994552612,4|2,0:0|0:0,0:0:0:0:
488,24,132934,5,8,0:0:0:0:
396,48,133546,2,0,L|217:59,1,178.499994552612,4|4,0:0|0:0,0:0:0:0:
88,120,135383,1,8,0:0:0:0:
152,188,135995,2,0,P|160:248|148:308,1,118.999996368408,2|2,0:0|0:0,0:0:0:0:
236,348,137219,6,0,P|283:311|341:291,1,118.999996368408,4|8,0:0|0:0,0:0:0:0:
416,348,138444,2,0,P|432:280|368:200,1,178.499994552612,4|4,0:0|0:0,0:0:0:0:
252,116,140281,1,8,0:0:0:0:
176,60,140893,2,0,P|256:20|336:72,1,178.499994552612,4|2,0:0|0:0,0:0:0:0:
396,188,142730,5,8,0:0:0:0:
324,248,143342,2,0,L|144:240,1,178.499994552612,4|4,0:0|0:0,0:0:0:0:
64,124,145179,2,0,P|128:120|176:92,1,118.999996368408,8|2,0:0|0:0,0:0:0:0:
256,44,146403,1,2,0:0:0:0:
337,93,147015,6,0,P|389:121|448:123,1,118.999996368408,4|8,0:0|0:0,0:0:0:0:
484,212,148240,2,0,P|412:220|328:292,1,178.499994552612,2|2,0:0|0:0,0:0:0:0:
204,344,150077,1,8,0:0:0:0:
116,304,150689,2,0,L|128:124,1,178.499994552612,2|2,0:0|0:0,0:0:0:0:
252,56,152525,5,8,0:0:0:0:
332,108,153138,2,0,P|424:124|496:84,2,178.499994552612,2|2|8,0:0|0:0|0:0,0:0:0:0:
248,152,155587,2,0,L|256:276,1,118.999996368408,2|8,0:0|0:0,0:0:0:0:
188,336,156811,6,0,P|148:292|88:284,1,118.999996368408,4|8,0:0|0:0,0:0:0:0:
48,200,158036,2,0,B|111:149|111:149|148:118|143:61,1,178.499994552612,2|2,0:0|0:0,0:0:0:0:
256,148,159872,1,8,0:0:0:0:
328,84,160485,2,0,P|352:152|280:244,1,178.499994552612,2|2,0:0|0:0,0:0:0:0:
160,280,162321,5,8,0:0:0:0:
236,340,162934,2,0,L|420:332,1,178.499994552612,2|2,0:0|0:0,0:0:0:0:
492,212,164770,1,8,0:0:0:0:
256,192,165383,12,0,166811,0:0:0:0:
