osu file format v14

[General]
AudioFilename: [Milky] Stronger than You -Chara response-.mp3
AudioLeadIn: 2000
PreviewTime: 29005
Countdown: 0
SampleSet: None
StackLeniency: 0.2
Mode: 0
LetterboxInBreaks: 0
EpilepsyWarning: 1
WidescreenStoryboard: 1

[Editor]
Bookmarks: 77,88240,98036,166811
DistanceSpacing: 1.4
BeatDivisor: 16
GridSize: 4
TimelineZoom: 2.1

[Metadata]
Title:Stronger Than You -Chara Response-
TitleUnicode:Stronger Than You -Chara Response-
Artist:Milkychan
ArtistUnicode:Milkychan​
Creator:Cosmolade
Version:Gero's Extra
Source:
Tags:undertale genocide merciless cover xXMilkychanXx Milky sans Estelle Rebecca Sugar Comic Jailbreak Steven Universe Mémoire Soreperior parody 8-bit xtrem3x ErunamoJAZZ HappyRocket88 Gero Marianna Voli
BeatmapID:1116405
BeatmapSetID:413707

[Difficulty]
HPDrainRate:8
CircleSize:4
OverallDifficulty:8
ApproachRate:9
SliderMultiplier:1.6
SliderTickRate:2

[Events]
//Background and Video events
0,0,"BG7.jpg",0,0
//Break Periods
2,88440,97436
//Storyboard Layer 0 (Background)
//Storyboard Layer 1 (Fail)
//Storyboard Layer 2 (Pass)
//Storyboard Layer 3 (Foreground)
//Storyboard Sound Samples

[TimingPoints]
77,612.244897959184,4,2,0,50,1,0
77,-100,4,2,0,50,0,0
3750,-100,4,2,0,60,0,0
7423,-100,4,2,0,70,0,0
9872,-50,4,2,0,75,0,0
19668,-50,4,2,0,80,0,0
27015,-133.333333333333,4,2,0,60,0,0
28852,-133.333333333333,4,2,0,100,0,0
29464,-50,4,2,0,90,0,0
36913,-50,4,2,0,5,0,0
37015,-50,4,2,0,90,0,0
37117,-50,4,2,0,5,0,0
37219,-50,4,2,0,90,0,0
37321,-50,4,2,0,5,0,0
37423,-50,4,2,0,90,0,0
37525,-50,4,2,0,5,0,0
37628,-50,4,2,0,90,0,0
37730,-50,4,2,0,5,0,0
37832,-50,4,2,0,90,0,0
37934,-50,4,2,0,5,0,0
38036,-50,4,2,0,90,0,0
48546,-50,4,2,0,5,0,0
48648,-50,4,2,0,90,0,0
48750,-50,4,2,0,5,0,0
48852,-50,4,2,0,90,0,0
48954,-50,4,2,0,5,0,0
49056,-50,4,2,0,90,0,1
56097,-50,4,2,0,90,0,0
58852,-50,4,2,0,90,0,1
68648,-50,4,2,0,90,0,0
100587,-50,4,2,0,5,0,0
100689,-50,4,2,0,90,0,0
100893,-50,4,2,0,5,0,0
100995,-50,4,2,0,90,0,0
105383,-133.333333333333,4,2,0,90,0,0
107832,-50,4,2,0,90,0,0
122015,-50,4,2,0,5,0,0
122117,-50,4,2,0,90,0,0
122219,-50,4,2,0,5,0,0
122321,-50,4,2,0,90,0,0
122423,-50,4,2,0,5,0,0
122525,-50,4,2,0,90,0,0
123240,-50,4,2,0,5,0,0
123342,-50,4,2,0,90,0,0
123444,-50,4,2,0,5,0,0
123546,-50,4,2,0,90,0,0
123648,-50,4,2,0,5,0,0
123750,-50,4,2,0,90,0,0
126467,-50,4,2,0,50,0,0
127423,-50,4,2,0,90,0,1
134464,-50,4,2,0,90,0,0
137219,-50,4,2,0,90,0,1
146939,-50,4,2,0,90,0,0
147015,-50,4,2,0,90,0,1
156811,-50,4,2,0,90,0,0

[Colours]
Combo1 : 255,128,0
Combo2 : 255,255,128
Combo3 : 0,213,106
Combo4 : 174,75,51
Combo5 : 255,128,192
SliderTrackOverride : 0,0,2
SliderBorder : 183,159,167

[HitObjects]
152,192,77,6,0,P|256:243|360:192,1,240,2|0,0:0|0:0,0:0:0:0:
412,88,1301,2,0,P|360:192|411:296,1,240,2|0,0:0|0:0,0:0:0:0:
512,360,2525,2,0,L|283:285,1,240,2|0,0:0|0:0,0:0:0:0:
360,192,3750,2,0,L|208:140,1,160,2|2,0:0|0:0,0:0:0:0:
123,56,4668,1,0,0:0:0:0:
38,140,4974,5,2,0:0:0:0:
38,140,5587,2,0,B|23:177|23:177|38:214,1,80,2|0,0:0|0:0,0:0:0:0:
122,372,6199,2,0,B|137:335|137:335|122:298,1,80,2|0,0:0|0:0,0:0:0:0:
206,171,6811,5,2,3:0:0:0:
260,88,6964,1,2,3:0:0:0:
204,200,7117,5,8,0:0:0:0:
258,117,7270,1,2,3:0:0:0:
202,229,7423,6,0,B|165:300,1,80,2|0,3:3|0:0,0:0:0:0:
310,229,8036,2,0,B|346:300,1,80,8|0,0:0|0:0,0:0:0:0:
256,380,8648,1,2,0:0:0:0:
165,300,8954,1,2,3:0:0:0:
165,300,9107,1,2,3:0:0:0:
165,300,9260,1,8,0:0:0:0:
256,224,9566,1,8,0:0:0:0:
347,300,9872,6,0,P|385:311|423:300,1,80,4|0,0:0|0:0,0:0:0:0:
294,101,10179,2,0,P|256:90|218:101,1,80
256,224,10485,2,0,L|408:172,1,160
486,93,10944,1,0,0:0:0:0:
347,300,11097,6,0,B|338:339|338:339|347:378,1,80,4|0,0:0|0:0,0:0:0:0:
256,224,11403,2,0,B|265:185|265:185|256:146,1,80
152,184,11709,1,0,0:0:0:0:
356,108,11862,1,0,0:0:0:0:
152,32,12015,1,0,0:0:0:0:
224,108,12168,1,0,0:0:0:0:
152,184,12321,5,4,0:0:0:0:
68,108,12474,1,0,0:0:0:0:
152,32,12628,1,0,0:0:0:0:
48,108,12781,1,0,0:0:0:0:
132,184,12934,5,0,0:0:0:0:
28,108,13087,1,0,0:0:0:0:
132,32,13240,1,0,0:0:0:0:
224,108,13393,1,0,0:0:0:0:
132,184,13546,6,0,P|121:222|131:260,1,80,4|0,0:0|0:0,0:0:0:0:
300,144,13852,2,0,P|311:106|301:68,1,80
104,184,14158,6,0,P|93:222|103:260,1,80,4|0,0:0|0:0,0:0:0:0:
272,144,14464,2,0,P|283:106|273:68,1,80
200,220,14770,6,0,L|351:270,1,160,4|0,0:0|0:0,0:0:0:0:
436,348,15230,2,0,P|406:275|436:203,1,160
387,26,15689,2,0,P|397:64|388:103,1,80
436,203,15995,5,4,0:0:0:0:
288,60,16148,1,0,0:0:0:0:
452,176,16301,2,0,L|524:220,1,80
351,270,16607,2,0,L|214:186,1,160
135,107,17066,1,0,0:0:0:0:
55,186,17219,5,4,0:0:0:0:
135,107,17372,2,0,B|144:68|144:68|135:29,2,80
55,186,17832,2,0,B|46:225|46:225|55:264,2,80
135,107,18291,1,0,0:0:0:0:
214,186,18444,6,0,P|252:197|290:187,1,80,4|0,0:0|0:0,0:0:0:0:
445,266,18750,2,0,P|407:255|369:266,1,80
472,351,19056,2,0,L|491:192,1,160,8|0,0:0|0:0,0:0:0:0:
404,41,19515,1,0,0:0:0:0:
404,41,19668,6,0,L|394:120,1,80,4|0,0:0|0:0,0:0:0:0:
326,271,19974,2,0,L|317:192,1,80
400,340,20281,2,0,P|328:370|256:340,1,160,8|0,0:0|0:0,0:0:0:0:
325,254,20740,1,0,0:0:0:0:
256,324,20893,5,4,0:0:0:0:
187,254,21046,1,0,0:0:0:0:
256,184,21199,2,0,P|267:146|257:108,1,80
192,16,21505,2,0,L|348:51,1,160,8|0,0:0|0:0,0:0:0:0:
427,130,21964,1,0,0:0:0:0:
292,72,22117,6,0,B|264:64|264:64|242:58|214:64,1,80,4|0,0:0|0:0,0:0:0:0:
116,188,22423,2,0,B|144:196|144:196|166:202|194:196,1,80
84,100,22730,2,0,L|49:256,1,160,8|0,0:0|0:0,0:0:0:0:
128,335,23189,1,0,0:0:0:0:
207,255,23342,6,0,B|248:255|248:255|276:283,1,80,4|0,0:0|0:0,0:0:0:0:
440,184,23648,2,0,B|399:184|399:184|371:156,1,80
264,160,23954,2,0,L|377:273,1,160,4|0,0:0|0:0,0:0:0:0:
452,356,24413,1,0,0:0:0:0:
452,356,24566,6,0,P|380:326|308:356,1,160,4|0,0:0|0:0,0:0:0:0:
228,276,25025,1,0,0:0:0:0:
307,196,25179,2,0,P|318:158|308:120,1,80,8|0,0:0|0:0,0:0:0:0:
204,119,25485,2,0,P|194:158|205:196,1,80
332,28,25791,6,0,P|256:6|180:28,1,160,4|0,0:0|0:0,0:0:0:0:
256,112,26250,1,0,0:0:0:0:
332,28,26403,2,0,L|412:0,1,80,8|0,0:0|0:0,0:0:0:0:
404,180,26709,2,0,L|324:208,1,80,8|0,0:0|0:0,0:0:0:0:
364,108,27015,6,2,B|404:88|464:84|516:148|504:216|468:256|424:260|404:260|404:260|436:272|448:308,1,360.000013732911,4|8,0:0|0:0,0:0:0:0:
447,307,29464,5,4,1:2:0:0:
404,180,29617,1,0,0:0:0:0:
348,268,29770,5,0,0:0:0:0:
304,140,29923,1,2,1:2:0:0:
248,228,30077,5,8,0:0:0:0:
204,100,30230,1,0,0:0:0:0:
148,188,30383,5,2,1:2:0:0:
104,60,30536,1,8,0:0:0:0:
48,148,30689,5,4,0:0:0:0:
148,188,30842,1,8,0:0:0:0:
204,100,30995,1,2,1:2:0:0:
104,60,31148,1,0,0:0:0:0:
48,148,31301,2,0,L|8:220,1,80,8|0,0:0|0:0,0:0:0:0:
204,100,31607,2,0,L|242:30,1,80
248,228,31913,6,0,L|208:300,1,80,4|0,1:2|0:0,0:0:0:0:
404,180,32219,2,0,L|442:110,1,80,0|2,0:0|1:2,0:0:0:0:
444,264,32525,2,0,P|406:275|368:264,1,80,12|0,0:0|0:0,0:0:0:0:
208,144,32832,2,0,P|246:133|284:144,1,80,2|0,1:2|0:0,0:0:0:0:
156,212,33138,6,0,L|199:58,2,160,4|2|8,0:0|1:2|0:0,0:0:0:0:
76,132,33903,1,0,0:0:0:0:
156,212,34056,1,8,0:0:0:0:
76,291,34209,1,8,0:0:0:0:
256,144,34362,6,0,B|288:132|312:144|312:144|340:144,1,80,4|0,1:2|0:0,0:0:0:0:
464,244,34668,2,0,B|432:256|408:244|408:244|380:244,1,80,0|2,0:0|1:2,0:0:0:0:
451,68,34974,2,0,L|443:147,1,80,8|0,0:0|0:0,0:0:0:0:
269,320,35281,2,0,L|276:240,1,80,2|0,1:2|0:0,0:0:0:0:
334,144,35587,5,4,0:0:0:0:
260,228,35740,1,8,0:0:0:0:
320,132,35893,1,2,1:2:0:0:
246,216,36046,1,8,0:0:0:0:
306,120,36199,2,0,P|317:82|307:44,1,80,8|0,0:0|0:0,0:0:0:0:
232,204,36505,2,0,P|221:242|231:280,1,80
478,144,36811,6,0,L|506:98,1,53.3333333333333,4|0,0:0|0:0,0:0:0:0:
454,232,37015,6,0,L|506:223,1,53.3333333333333,2|0,0:0|0:0,0:0:0:0:
358,232,37219,6,0,L|376:281,1,53.3333333333333,2|0,0:0|0:0,0:0:0:0:
334,144,37423,6,0,L|287:171,1,53.3333333333333,4|0,0:0|0:0,0:0:0:0:
406,88,37628,6,0,L|363:55,1,53.3333333333333,2|0,0:0|0:0,0:0:0:0:
478,144,37831,6,0,L|506:98,1,53.3333333333333,2|0,0:0|0:0,0:0:0:0:
454,232,38036,5,4,0:0:0:0:
454,232,38648,5,8,1:2:0:0:
320,56,38801,1,8,1:2:0:0:
358,232,38954,1,8,1:2:0:0:
224,56,39107,1,8,1:2:0:0:
262,232,39260,6,0,P|273:270|263:308,1,80,4|0,1:2|0:0,0:0:0:0:
136,92,39566,2,0,P|125:54|135:16,1,80,0|4,0:0|3:0,0:0:0:0:
216,152,39872,2,0,L|84:256,1,160,8|0,0:0|0:0,0:0:0:0:
10,330,40332,1,0,0:0:0:0:
90,251,40485,2,0,B|130:251|130:251|158:279,1,80,2|0,0:0|0:0,0:0:0:0:
262,232,40791,2,0,L|318:288,1,80,4|0,3:0|0:0,0:0:0:0:
397,367,41097,5,8,0:0:0:0:
476,287,41250,1,0,0:0:0:0:
396,207,41403,2,0,P|385:169|395:131,1,80,4|0,3:0|0:0,0:0:0:0:
480,60,41709,6,0,B|448:20|392:20|392:20|332:20,1,160,4|0,0:0|0:0,0:0:0:0:
256,104,42168,1,0,0:0:0:0:
180,20,42321,2,0,B|120:20|120:20|64:20|32:60,1,160,8|0,0:0|0:0,0:0:0:0:
116,130,42781,2,0,P|126:169|116:207,1,80,4|2,3:0|0:0,0:0:0:0:
36,287,43087,1,0,0:0:0:0:
115,367,43240,6,0,L|171:311,1,80,4|0,3:0|0:0,0:0:0:0:
256,384,43546,2,0,L|256:304,1,80,8|0,0:0|0:0,0:0:0:0:
397,367,43852,2,0,L|341:311,1,80
184,192,44158,6,0,P|256:162|328:192,1,160,4|0,0:0|0:0,0:0:0:0:
256,276,44617,1,4,3:0:0:0:
184,192,44770,2,0,B|176:153|176:153|184:114,1,80,8|0,0:0|0:0,0:0:0:0:
104,33,45077,1,0,0:0:0:0:
24,112,45230,1,0,0:0:0:0:
104,32,45383,6,0,L|256:80,1,160,2|4,0:0|3:0,0:0:0:0:
335,1,45842,1,0,0:0:0:0:
414,80,45995,2,0,P|404:119|414:157,1,80,8|0,0:0|0:0,0:0:0:0:
336,315,46301,2,0,P|345:276|335:238,1,80,4|0,3:0|0:0,0:0:0:0:
404,64,46607,6,0,P|394:103|404:141,1,80,4|0,0:0|0:0,0:0:0:0:
326,299,46913,2,0,P|335:260|325:222,1,80
256,136,47219,1,4,0:0:0:0:
186,222,47372,2,0,P|176:260|186:299,1,80
108,140,47679,2,0,P|118:102|108:64,1,80,0|4,0:0|0:0,0:0:0:0:
18,168,47985,2,0,L|173:206,1,160
308,304,48444,6,0,L|359:316,1,53.3333333333333,2|0,0:0|0:0,0:0:0:0:
476,232,48648,6,0,L|424:244,1,53.3333333333333,2|0,0:0|0:0,0:0:0:0:
308,162,48852,6,0,L|359:174,1,53.3333333333333,2|0,0:0|0:0,0:0:0:0:
476,86,49056,5,4,0:0:0:0:
476,86,49362,2,0,P|486:48|476:9,1,80,0|4,0:0|3:0,0:0:0:0:
392,124,49668,2,0,P|402:86|392:47,1,80,8|0,0:0|0:0,0:0:0:0:
308,162,49974,2,0,P|318:124|308:85,1,80
216,124,50281,6,0,L|288:268,1,160,4|0,0:0|0:0,0:0:0:0:
216,40,50740,2,0,L|144:184,1,160,4|0,0:0|0:0,0:0:0:0:
76,92,51199,1,4,0:0:0:0:
8,184,51352,6,0,L|80:328,1,160,2|0,0:0|0:0,0:0:0:0:
184,284,51811,2,0,P|222:274|260:284,1,80,4|4,3:0|3:0,0:0:0:0:
415,204,52117,2,0,P|377:214|339:205,1,80,8|0,0:0|0:0,0:0:0:0:
259,125,52423,1,0,0:0:0:0:
338,45,52577,1,0,0:0:0:0:
259,125,52730,6,0,B|183:149|183:149|107:125,1,160,4|0,0:0|0:0,0:0:0:0:
24,48,53189,2,0,B|48:124|48:124|24:200,1,160,4|0,0:0|0:0,0:0:0:0:
102,279,53648,1,4,0:0:0:0:
181,199,53801,6,0,B|233:199|233:199|297:199|327:242,1,160,2|2,0:0|0:0,0:0:0:0:
406,321,54260,1,2,0:0:0:0:
485,241,54413,1,0,0:0:0:0:
405,161,54566,2,0,P|395:123|405:85,1,80,8|0,0:0|0:0,0:0:0:0:
300,8,54872,2,0,P|309:46|299:84,1,80
181,199,55179,6,0,B|152:248|152:248|128:296|156:348,1,160,4|0,0:0|0:0,0:0:0:0:
280,216,55638,2,0,L|166:102,1,160,4|0,0:0|0:0,0:0:0:0:
87,23,56097,1,4,0:0:0:0:
7,102,56250,1,2,0:0:0:0:
7,102,56556,5,2,0:3:0:0:
87,23,56709,1,2,0:3:0:0:
261,120,56862,1,4,3:0:0:0:
181,199,57015,6,0,L|124:255,1,80,8|0,0:0|0:0,0:0:0:0:
136,112,57321,2,0,L|192:55,1,80,2|2,0:3|0:3,0:0:0:0:
192,212,57628,6,0,L|78:325,1,160,2|2,0:3|0:3,0:0:0:0:
78,325,58240,2,0,P|116:334|154:324,1,80,2|2,0:3|0:3,0:0:0:0:
256,284,58546,2,0,P|294:275|332:285,1,80,2|2,0:3|0:3,0:0:0:0:
412,364,58852,6,0,B|360:212|360:212|430:248,1,240,4|4,0:0|3:0,0:0:0:0:
256,232,59464,2,0,L|185:195,1,80,8|0,0:0|0:0,0:0:0:0:
408,120,59770,2,0,L|337:83,1,80,0|8,0:0|0:0,0:0:0:0:
244,248,60077,6,0,L|102:173,1,160,4|0,0:0|0:0,0:0:0:0:
330,206,60536,2,0,L|256:348,1,160,4|0,0:0|0:0,0:0:0:0:
148,376,60995,1,4,0:0:0:0:
351,296,61148,6,0,P|422:266|495:295,1,160,2|8,0:0|0:0,0:0:0:0:
424,380,61607,1,4,3:0:0:0:
495,295,61760,1,4,3:0:0:0:
424,210,61913,2,0,L|461:139,1,80,8|0,0:0|0:0,0:0:0:0:
357,95,62219,2,0,L|394:24,1,80
252,139,62525,6,0,B|216:157|182:143|174:139|166:135|134:121|96:139,1,160,4|0,0:0|0:0,0:0:0:0:
260,245,62985,2,0,B|296:227|330:241|338:245|346:249|378:263|416:245,1,160,4|0,0:0|0:0,0:0:0:0:
376,140,63444,1,4,0:0:0:0:
296,344,63597,6,0,L|138:369,1,160,2|0,0:0|0:0,0:0:0:0:
260,245,64056,2,0,P|298:236|336:246,1,80,2|2,0:3|0:3,0:0:0:0:
138,369,64362,2,0,P|100:378|62:368,1,80,8|0,0:0|0:0,0:0:0:0:
132,220,64668,2,0,L|180:288,1,80,0|8,0:0|0:0,0:0:0:0:
155,146,64974,6,0,L|104:297,1,160,4|0,0:0|0:0,0:0:0:0:
168,56,65434,2,0,L|218:207,1,160,4|0,0:0|0:0,0:0:0:0:
297,287,65893,1,4,0:0:0:0:
376,207,66046,6,0,L|426:358,1,160,2|0,0:0|0:0,0:0:0:0:
505,279,66505,1,8,0:0:0:0:
440,372,66658,1,4,3:0:0:0:
492,266,66811,2,0,P|502:228|492:190,1,80,8|0,0:0|0:0,0:0:0:0:
376,24,67117,2,0,P|366:62|376:100,1,80
484,64,67423,5,8,0:0:0:0:
376,207,67577,1,8,0:0:0:0:
268,64,67730,2,0,B|228:64|228:64|200:92,1,80,4|0,3:0|0:0,0:0:0:0:
68,235,68036,2,0,B|108:235|108:235|136:207,1,80,8|0,0:0|0:0,0:0:0:0:
278,170,68342,5,2,0:3:0:0:
267,181,68418,1,2,0:2:0:0:
256,192,68495,1,2,0:3:0:0:
245,203,68571,1,2,0:2:0:0:
234,214,68648,6,0,L|347:327,1,160,4|2,0:0|0:3,0:0:0:0:
426,247,69107,1,4,3:0:0:0:
346,167,69260,2,0,P|336:129|346:90,1,80,8|0,0:0|0:0,0:0:0:0:
232,13,69566,2,0,P|242:51|233:90,1,80,2|2,0:3|0:3,0:0:0:0:
88,264,69872,6,0,P|58:192|88:120,1,160,4|0,0:0|0:0,0:0:0:0:
176,192,70332,2,0,P|206:264|176:336,1,160,12|0,0:0|0:0,0:0:0:0:
88,264,70791,1,4,0:0:0:0:
176,192,70944,1,0,0:0:0:0:
88,264,71097,6,0,L|8:264,1,80,2|2,0:3|0:3,0:0:0:0:
176,192,71403,2,0,L|256:192,1,80
335,112,71709,1,8,0:0:0:0:
414,191,71862,1,0,0:0:0:0:
335,272,72015,1,2,0:3:0:0:
424,192,72168,1,2,0:3:0:0:
345,113,72321,5,4,0:0:0:0:
434,193,72474,1,0,0:0:0:0:
345,271,72628,1,2,0:3:0:0:
256,192,72781,2,0,L|176:192,1,80,12|0,0:0|0:0,0:0:0:0:
96,112,73087,1,0,0:0:0:0:
16,192,73240,2,0,B|16:232|16:232|-4:272,1,80,4|0,0:0|0:0,0:0:0:0:
184,348,73546,6,0,P|256:378|328:348,1,160,2|2,0:3|0:3,0:0:0:0:
256,264,74005,1,0,0:0:0:0:
328,180,74158,2,0,L|384:123,1,80,8|0,0:0|0:0,0:0:0:0:
184,180,74464,2,0,L|127:123,1,80,2|2,0:3|0:3,0:0:0:0:
196,36,74770,6,0,B|256:89|256:89|316:36,1,160,4|2,0:0|0:3,0:0:0:0:
184,180,75230,2,0,P|256:210|328:180,1,160,12|0,0:0|0:0,0:0:0:0:
218,316,75689,2,0,P|256:326|295:316,1,80,4|0,0:0|0:0,0:0:0:0:
256,211,75995,6,0,L|112:280,1,160,2|2,0:3|0:3,0:0:0:0:
40,192,76454,1,0,0:0:0:0:
111,103,76607,2,0,B|126:66|126:66|111:29,1,80,8|0,0:0|0:0,0:0:0:0:
182,192,76913,2,0,B|167:229|167:229|182:266,1,80,2|2,0:3|0:3,0:0:0:0:
416,352,77219,5,4,0:0:0:0:
495,272,77372,1,0,0:0:0:0:
415,192,77525,2,0,P|405:154|415:115,1,80,2|12,0:3|0:0,0:0:0:0:
500,44,77832,2,0,B|468:4|412:4|412:4|352:4,1,160,2|4,0:3|0:0,0:0:0:0:
256,64,78291,1,2,0:3:0:0:
116,152,78444,6,0,B|101:189|101:189|116:226,1,80,4|0,0:0|0:0,0:0:0:0:
224,192,78750,1,2,0:3:0:0:
24,120,78903,2,0,P|-6:192|24:264,1,160,4|4,0:0|0:0,0:0:0:0:
103,343,79362,1,2,0:3:0:0:
182,263,79515,6,0,B|227:263|256:288|256:288|285:263|330:263,1,160,4|0,0:0|0:0,0:0:0:0:
409,343,79974,1,4,0:0:0:0:
488,263,80128,1,8,0:0:0:0:
408,183,80281,2,0,L|351:126,1,80,4|0,0:0|0:0,0:0:0:0:
444,64,80587,2,0,L|387:7,1,80,4|0,0:0|0:0,0:0:0:0:
256,52,80893,6,0,B|220:70|186:56|178:52|170:48|138:34|100:52,1,160,2|2,0:3|0:3,0:0:0:0:
21,131,81352,1,0,0:0:0:0:
100,210,81505,2,0,B|115:247|115:247|100:284,1,80,8|6,0:0|3:0,0:0:0:0:
88,295,81735,1,2,0:3:0:0:
76,306,81811,1,2,0:3:0:0:
258,283,81964,6,0,L|396:368,1,160,4|0,0:0|0:0,0:0:0:0:
473,287,82423,1,6,0:0:0:0:
393,207,82577,1,8,0:0:0:0:
484,272,82730,1,4,0:0:0:0:
404,192,82883,1,0,0:0:0:0:
483,112,83036,2,0,B|498:75|498:75|483:38,1,80,4|0,0:0|0:0,0:0:0:0:
328,80,83342,6,0,B|268:80|268:80|212:80|180:120,1,160,2|2,0:3|0:3,0:0:0:0:
96,192,83801,1,0,0:0:0:0:
180,264,83954,1,8,0:0:0:0:
191,275,84031,1,2,0:0:0:0:
202,286,84107,1,0,0:0:0:0:
213,297,84184,1,0,0:0:0:0:
224,308,84260,5,2,0:0:0:0:
235,319,84337,1,0,0:0:0:0:
246,330,84413,1,2,0:0:0:0:
257,341,84490,1,0,0:0:0:0:
268,352,84566,6,0,P|340:382|412:352,1,160,4|0,0:0|0:0,0:0:0:0:
336,120,85025,2,0,P|305:192|336:264,1,160,12|0,0:0|0:0,0:0:0:0:
424,192,85485,1,4,0:0:0:0:
424,192,85638,1,0,0:0:0:0:
256,48,85791,6,0,P|218:38|179:48,1,80
55,191,86097,2,0,P|93:201|132:192,1,80,4|0,3:0|0:0,0:0:0:0:
0,124,86403,2,0,L|34:280,1,160,8|4,0:0|3:0,0:0:0:0:
176,96,86862,6,0,L|97:112,1,80,2|2,0:3|0:3,0:0:0:0:
184,304,87168,2,0,L|168:226,1,80,2|2,0:3|0:3,0:0:0:0:
256,156,87474,1,0,0:0:0:0:
172,312,87628,2,0,L|156:234,1,80,2|0,0:0|0:0,0:0:0:0:
252,70,87934,2,0,L|268:148,1,80,2|0,0:0|0:0,0:0:0:0:
160,320,88240,5,4,0:0:0:0:
184,120,98036,6,0,P|154:192|184:264,1,160,4|0,0:0|0:0,0:0:0:0:
328,264,98495,2,0,P|358:192|328:120,1,160,2|2,0:0|0:0,0:0:0:0:
256,232,98954,2,0,L|256:312,1,80,2|0,0:0|0:0,0:0:0:0:
256,152,99260,2,0,L|256:72,1,80,4|0,3:0|0:0,0:0:0:0:
192,192,99566,6,0,L|112:192,1,80,2|0,0:3|0:0,0:0:0:0:
320,192,99872,2,0,L|400:192,1,80,4|0,3:0|0:0,0:0:0:0:
479,112,100179,1,2,0:0:0:0:
400,192,100332,1,0,0:0:0:0:
479,272,100485,5,4,3:0:0:0:
368,372,100689,1,2,0:0:0:0:
368,372,100791,1,0,0:0:0:0:
256,272,100995,1,2,0:0:0:0:
256,272,101097,1,4,3:0:0:0:
144,372,101301,1,2,0:0:0:0:
144,372,101403,1,0,0:0:0:0:
33,272,101607,1,2,0:0:0:0:
33,272,101709,6,0,P|3:200|33:128,1,160,4|0,3:0|0:0,0:0:0:0:
112,48,102168,1,0,0:0:0:0:
191,127,102321,2,0,B|220:160|256:172|256:172|292:160|321:127,1,160,4|2,3:0|0:0,0:0:0:0:
400,48,102781,1,0,0:0:0:0:
479,128,102934,6,0,P|509:200|479:272,1,160,0|0,1:0|1:0,0:0:0:0:
380,328,103393,2,0,B|352:300|352:300|312:300,1,80,0|0,0:0|1:0,0:0:0:0:
200,300,103699,2,0,B|160:300|160:300|132:328,1,80,0|0,0:0|1:0,0:0:0:0:
32,271,104005,2,0,P|3:199|33:128,1,160,0|0,1:0|1:0,0:0:0:0:
112,48,104464,1,0,1:0:0:0:
33,127,104617,1,0,0:0:0:0:
112,48,104770,2,0,P|150:37|188:48,1,80,0|0,1:0|0:0,0:0:0:0:
331,135,105077,2,0,P|293:146|256:136,1,80,0|0,1:0|0:0,0:0:0:0:
400,48,105383,6,2,B|440:85|452:137|440:189|400:226|400:226|448:209|448:209|432:228|416:256|428:288|444:308,1,360.000013732911,4|8,0:0|0:0,0:0:0:0:
444,308,107832,5,4,1:2:0:0:
316,264,107985,1,0,0:0:0:0:
464,320,108138,5,2,1:2:0:0:
336,276,108291,1,0,0:0:0:0:
128,192,108444,5,8,0:0:0:0:
256,148,108598,1,0,0:0:0:0:
148,180,108751,5,8,0:0:0:0:
276,136,108904,1,2,1:2:0:0:
88,64,109056,6,0,P|50:53|12:64,1,80,4|8,0:0|0:0,0:0:0:0:
106,203,109362,2,0,P|144:213|183:204,1,80,2|0,1:2|0:0,0:0:0:0:
424,64,109668,6,0,P|462:53|500:64,1,80,8|0,0:0|0:0,0:0:0:0:
404,204,109974,2,0,P|366:215|328:204,1,80
184,100,110281,6,0,B|172:80|167:64|167:64|172:48|184:28,1,80,4|0,1:2|0:0,0:0:0:0:
328,28,110587,2,0,B|340:48|345:64|345:64|340:80|328:100,1,80,0|2,0:0|1:2,0:0:0:0:
183,204,110893,2,0,P|172:242|183:280,1,80,12|0,0:0|0:0,0:0:0:0:
329,279,111200,2,0,P|339:241|329:204,1,80,2|0,1:2|0:0,0:0:0:0:
180,364,111506,6,0,B|256:389|256:389|332:364,2,160,4|2|8,0:0|1:2|0:0,0:0:0:0:
256,284,112271,1,0,0:0:0:0:
332,364,112424,1,8,0:0:0:0:
256,268,112577,1,8,0:0:0:0:
180,348,112730,6,0,B|148:360|124:348|124:348|96:348,1,80,4|0,1:2|0:0,0:0:0:0:
281,138,113036,2,0,B|313:126|337:138|337:138|365:138,1,80,0|2,0:0|1:2,0:0:0:0:
294,314,113342,2,0,L|302:235,1,80,8|0,0:0|0:0,0:0:0:0:
167,172,113649,2,0,L|160:252,1,80,2|0,1:2|0:0,0:0:0:0:
180,348,113954,5,4,0:0:0:0:
64,192,114107,1,8,0:0:0:0:
199,330,114260,1,2,1:2:0:0:
83,174,114413,1,8,0:0:0:0:
218,314,114566,6,0,P|256:324|294:314,1,80,8|0,0:0|0:0,0:0:0:0:
294,70,114872,2,0,P|256:60|218:70,1,80
392,256,115179,6,0,B|432:256|432:256|460:284,1,80,4|0,0:0|0:0,0:0:0:0:
392,128,115485,2,0,B|432:128|432:128|460:100,1,80
373,274,115791,6,0,B|413:274|413:274|441:302,1,80,4|0,0:0|0:0,0:0:0:0:
373,110,116097,2,0,B|413:110|413:110|441:82,1,80
256,192,116403,6,0,B|189:192|189:192|181:188|181:188|181:196|181:196|173:192|173:192|106:192,1,160,4|0,0:0|0:0,0:0:0:0:
106,192,117015,5,8,1:2:0:0:
256,324,117168,1,8,1:2:0:0:
406,192,117321,1,8,1:2:0:0:
256,60,117474,1,8,1:2:0:0:
57,128,117628,6,0,B|24:152|11:192|11:192|24:232|57:256,1,160,4|0,1:2|0:0,0:0:0:0:
148,192,118087,1,4,3:0:0:0:
57,128,118240,1,8,0:0:0:0:
148,192,118393,2,0,P|185:202|223:192,1,80
304,128,118699,2,0,L|268:284,1,160,10|8,0:0|0:0,0:0:0:0:
400,140,119158,6,0,L|382:61,1,80,4|0,3:0|0:0,0:0:0:0:
290,192,119464,2,0,L|307:270,1,80,8|0,0:0|0:0,0:0:0:0:
412,124,119770,2,0,L|394:45,1,80,4|0,3:0|0:0,0:0:0:0:
186,192,120077,6,0,P|114:222|43:192,1,160,4|0,0:0|0:0,0:0:0:0:
115,108,120536,1,4,3:0:0:0:
43,192,120689,1,8,0:0:0:0:
115,108,120842,2,0,L|193:91,1,80
412,124,121148,2,0,L|256:160,1,160,10|8,0:0|0:0,0:0:0:0:
491,44,121607,1,4,3:0:0:0:
491,44,121760,1,0,0:0:0:0:
352,220,121913,6,0,B|346:246|346:246|352:272,1,53.3333333333333,10|0,0:0|0:0,0:0:0:0:
340,220,122117,6,0,B|334:246|334:246|340:272,1,53.3333333333333,2|0,0:0|0:0,0:0:0:0:
328,220,122321,6,0,B|322:246|322:246|328:272,1,53.3333333333333,2|0,0:0|0:0,0:0:0:0:
384,340,122525,6,0,B|264:320|264:320|291:347,1,160,4|2,0:0|0:0,0:0:0:0:
160,164,123138,6,0,B|166:138|166:138|160:112,1,53.3333333333333,10|0,0:0|0:0,0:0:0:0:
172,164,123342,6,0,B|178:138|178:138|172:112,1,53.3333333333333,2|0,0:0|0:0,0:0:0:0:
184,164,123546,6,0,B|190:138|190:138|184:112,1,53.3333333333333,2|0,0:0|0:0,0:0:0:0:
128,44,123750,6,0,B|248:64|248:64|220:36,1,160,4|2,0:0|0:0,0:0:0:0:
115,276,124362,6,0,B|106:315|106:315|115:354,1,80,8|2,0:0|0:0,0:0:0:0:
397,354,124668,2,0,B|406:315|406:315|397:276,1,80,0|2,0:0|0:0,0:0:0:0:
328,164,124974,6,0,B|280:164|256:136|256:136|232:164|184:164,1,160,4|0,0:0|0:0,0:0:0:0:
188,52,125434,2,0,P|256:16|324:52,1,160,2|0,0:0|0:0,0:0:0:0:
256,136,125893,1,2,0:0:0:0:
212,212,126467,6,0,B|256:236|256:236|300:212,1,100,2|2,0:0|0:0,0:0:0:0:
201,308,126811,2,0,P|256:329|311:308,2,120,2|2|2,0:0|0:0|0:0,0:0:0:0:
36,86,127423,5,4,0:0:0:0:
36,86,127729,2,0,P|26:48|36:9,1,80,0|4,0:0|3:0,0:0:0:0:
120,124,128036,2,0,P|110:86|120:47,1,80,8|0,0:0|0:0,0:0:0:0:
204,162,128342,2,0,P|194:124|204:85,1,80
296,124,128648,6,0,L|224:268,1,160,4|0,0:0|0:0,0:0:0:0:
296,40,129107,2,0,L|368:184,1,160,4|0,0:0|0:0,0:0:0:0:
436,92,129566,1,4,0:0:0:0:
504,184,129719,6,0,L|432:328,1,160,2|0,0:0|0:0,0:0:0:0:
328,284,130179,2,0,P|290:274|252:284,1,80,4|4,3:0|3:0,0:0:0:0:
97,204,130485,2,0,P|135:214|173:205,1,80,8|0,0:0|0:0,0:0:0:0:
253,125,130791,1,0,0:0:0:0:
174,45,130944,1,0,0:0:0:0:
253,125,131097,6,0,B|329:149|329:149|405:125,1,160,4|0,0:0|0:0,0:0:0:0:
488,48,131556,2,0,B|464:124|464:124|488:200,1,160,4|0,0:0|0:0,0:0:0:0:
410,279,132015,1,4,0:0:0:0:
331,199,132168,6,0,B|279:199|279:199|215:199|185:242,1,160,2|2,0:0|0:0,0:0:0:0:
106,321,132628,1,2,0:0:0:0:
27,241,132781,1,0,0:0:0:0:
107,161,132934,2,0,P|117:123|107:85,1,80,8|0,0:0|0:0,0:0:0:0:
212,8,133240,2,0,P|203:46|213:84,1,80
331,199,133546,6,0,B|360:248|360:248|384:296|356:348,1,160,4|0,0:0|0:0,0:0:0:0:
232,216,134005,2,0,L|346:102,1,160,4|0,0:0|0:0,0:0:0:0:
425,23,134464,1,4,0:0:0:0:
505,102,134617,1,2,0:0:0:0:
505,102,134923,5,2,0:3:0:0:
425,23,135077,1,2,0:3:0:0:
251,120,135230,1,4,3:0:0:0:
331,199,135383,6,0,L|388:255,1,80,8|0,0:0|0:0,0:0:0:0:
376,112,135689,2,0,L|320:55,1,80,2|2,0:3|0:3,0:0:0:0:
320,212,135995,6,0,L|434:325,1,160,2|2,0:3|0:3,0:0:0:0:
512,245,136454,1,0,0:0:0:0:
434,325,136607,2,0,P|396:334|358:324,1,80,2|2,0:3|0:3,0:0:0:0:
256,284,136913,2,0,P|218:275|180:285,1,80,2|2,0:3|0:3,0:0:0:0:
100,364,137219,6,0,B|152:212|152:212|82:248,1,240,4|4,0:0|3:0,0:0:0:0:
256,232,137832,2,0,L|327:195,1,80,8|0,0:0|0:0,0:0:0:0:
104,120,138138,2,0,L|175:83,1,80,0|8,0:0|0:0,0:0:0:0:
268,248,138444,6,0,L|410:173,1,160,4|0,0:0|0:0,0:0:0:0:
182,206,138903,2,0,L|256:348,1,160,4|0,0:0|0:0,0:0:0:0:
364,376,139362,1,4,0:0:0:0:
161,296,139515,6,0,P|90:266|17:295,1,160,2|8,0:0|0:0,0:0:0:0:
88,380,139974,1,4,3:0:0:0:
17,295,140128,1,4,3:0:0:0:
88,210,140281,2,0,L|51:139,1,80,8|0,0:0|0:0,0:0:0:0:
155,95,140587,2,0,L|118:24,1,80
260,139,140893,6,0,B|296:157|330:143|338:139|346:135|378:121|416:139,1,160,4|0,0:0|0:0,0:0:0:0:
252,245,141352,2,0,B|216:227|182:241|174:245|166:249|134:263|96:245,1,160,4|0,0:0|0:0,0:0:0:0:
136,140,141811,1,4,0:0:0:0:
216,344,141964,6,0,L|374:369,1,160,2|0,0:0|0:0,0:0:0:0:
252,245,142423,2,0,P|214:236|176:246,1,80,2|2,0:3|0:3,0:0:0:0:
374,369,142730,2,0,P|412:378|450:368,1,80,8|0,0:0|0:0,0:0:0:0:
380,220,143036,2,0,L|332:288,1,80,0|8,0:0|0:0,0:0:0:0:
357,146,143342,6,0,L|408:297,1,160,4|0,0:0|0:0,0:0:0:0:
344,56,143801,2,0,L|294:207,1,160,4|0,0:0|0:0,0:0:0:0:
215,287,144260,1,4,0:0:0:0:
136,207,144413,6,0,L|86:358,1,160,2|0,0:0|0:0,0:0:0:0:
7,279,144872,1,8,0:0:0:0:
72,372,145025,1,4,3:0:0:0:
20,266,145179,2,0,P|10:228|20:190,1,80,8|2,0:0|0:0,0:0:0:0:
136,24,145485,2,0,P|146:62|136:100,1,80,2|0,0:0|0:0,0:0:0:0:
28,64,145791,5,12,0:0:0:0:
136,207,145944,1,8,0:0:0:0:
244,64,146097,2,0,B|284:64|284:64|312:92,1,80,4|4,3:0|0:0,0:0:0:0:
444,235,146403,2,0,B|404:235|404:235|376:207,1,80,8|0,0:0|0:0,0:0:0:0:
234,170,146709,5,2,0:3:0:0:
245,181,146786,1,2,0:2:0:0:
256,192,146862,1,2,0:3:0:0:
267,203,146939,1,2,0:2:0:0:
278,214,147015,6,0,L|165:327,1,160,4|4,0:0|0:3,0:0:0:0:
85,247,147474,1,4,0:3:0:0:
165,327,147628,2,0,P|203:336|241:326,1,80,8|0,0:0|0:0,0:0:0:0:
396,247,147934,2,0,P|358:238|320:248,1,80,0|8,0:0|0:0,0:0:0:0:
460,319,148240,6,0,P|490:247|460:175,1,160,4|0,0:0|0:0,0:0:0:0:
396,103,148699,2,0,P|366:175|396:247,1,160,4|0,0:0|0:0,0:0:0:0:
460,175,149158,1,4,0:0:0:0:
396,103,149311,6,0,L|238:128,1,160,2|8,0:0|0:0,0:0:0:0:
65,179,149770,2,0,L|144:192,1,80,4|0,0:3|0:0,0:0:0:0:
239,146,150077,1,8,0:0:0:0:
152,216,150230,1,0,0:0:0:0:
319,151,150383,2,0,L|240:164,1,80,8|8,0:0|0:0,0:0:0:0:
391,207,150689,6,0,B|427:151|395:99|395:99|370:60,1,160,4|0,0:0|0:0,0:0:0:0:
313,236,151148,2,0,B|349:254|383:240|391:236|399:232|431:218|469:236,1,160,4|0,0:0|0:0,0:0:0:0:
234,315,151607,1,4,0:0:0:0:
313,236,151760,1,2,0:0:0:0:
108,288,151913,6,0,P|70:297|32:287,1,80,4|2,0:3|0:0,0:0:0:0:
108,96,152219,2,0,P|146:85|184:94,1,80,0|4,0:0|0:3,0:0:0:0:
68,192,152525,2,0,L|28:37,1,160,8|8,0:0|0:0,0:0:0:0:
148,192,152985,1,8,0:0:0:0:
148,192,153138,6,0,L|108:346,1,160,4|0,0:0|0:0,0:0:0:0:
224,136,153597,2,0,B|186:118|154:132|146:136|138:140|104:154|68:136,1,160,4|0,0:0|0:0,0:0:0:0:
300,192,154056,1,4,0:0:0:0:
224,48,154209,1,2,0:0:0:0:
296,260,154362,6,0,L|315:182,1,80,4|2,0:3|0:0,0:0:0:0:
160,272,154668,2,0,L|179:349,1,80
311,250,154974,2,0,L|330:172,1,80,8|8,0:0|0:0,0:0:0:0:
145,282,155281,2,0,L|164:359,1,80,2|8,0:0|0:0,0:0:0:0:
326,240,155587,6,0,L|367:86,1,160,4|8,0:0|0:0,0:0:0:0:
445,5,156046,1,8,0:0:0:0:
291,83,156199,2,0,P|329:94|368:85,1,80,8|0,0:0|0:0,0:0:0:0:
210,164,156505,2,0,P|171:153|133:163,1,80,8|8,0:0|0:0,0:0:0:0:
53,243,156811,6,0,B|61:200|93:172|133:164|133:164|93:156|61:128|53:85,1,240,4|4,0:0|3:0,0:0:0:0:
160,56,157423,2,0,L|283:157,1,160,8|2,0:0|0:0,0:0:0:0:
363,77,157883,1,2,3:0:0:0:
442,156,158036,2,0,L|318:257,1,160,2|0,0:0|0:0,0:0:0:0:
246,337,158495,2,0,P|318:307|389:336,1,160,8|0,0:0|0:0,0:0:0:0:
469,257,158954,1,4,3:0:0:0:
256,52,159260,5,2,0:0:0:0:
184,136,159413,2,0,B|224:136|256:166|256:166|288:136|328:136,1,160,2|4,3:0|3:0,0:0:0:0:
328,248,159872,2,0,P|256:278|184:248,1,160,8|2,0:0|0:0,0:0:0:0:
104,168,160332,1,0,0:0:0:0:
24,247,160485,6,0,L|137:360,1,160,4|2,3:0|0:0,0:0:0:0:
297,361,160944,2,0,L|184:248,1,160,8|2,0:0|0:0,0:0:0:0:
104,168,161403,1,4,3:0:0:0:
296,52,161709,6,0,B|380:52|380:52|433:105,1,160,4|0,3:0|0:0,0:0:0:0:
364,192,162168,1,0,0:0:0:0:
433,279,162321,2,0,L|376:335,1,80,8|0,0:0|0:0,0:0:0:0:
280,280,162628,2,0,L|223:336,1,80,2|2,0:0|3:0,0:0:0:0:
76,264,162934,6,0,P|46:192|76:120,1,160,4|0,3:0|0:0,0:0:0:0:
148,192,163393,2,0,P|118:120|148:48,1,160,8|0,0:0|0:0,0:0:0:0:
292,120,163852,2,0,B|256:138|256:138|220:120,1,80,4|0,3:0|0:0,0:0:0:0:
364,48,164158,2,0,P|394:120|364:192,1,160,2|0,0:0|0:0,0:0:0:0:
256,361,164770,5,8,0:0:0:0:
256,192,164847,12,2,166811,0:0:0:0:
