osu file format v14

[General]
AudioFilename: [Milky] Stronger than You -Chara response-.mp3
AudioLeadIn: 2000
PreviewTime: 29005
Countdown: 0
SampleSet: Soft
StackLeniency: 0.7
Mode: 0
LetterboxInBreaks: 0
EpilepsyWarning: 1
WidescreenStoryboard: 1

[Editor]
Bookmarks: 77,9873,29464,86403,88240,127423,137219
DistanceSpacing: 1.1
BeatDivisor: 6
GridSize: 4
TimelineZoom: 2.2

[Metadata]
Title:Stronger Than You -Chara Response-
TitleUnicode:Stronger Than You -Chara Response-
Artist:Milkychan
ArtistUnicode:Milkychan​
Creator:Cosmolade
Version:Insane
Source:
Tags:undertale genocide merciless cover xXMilkychanXx Milky sans Estelle Rebecca Sugar Comic Jailbreak Steven Universe Mémoire Soreperior parody 8-bit xtrem3x ErunamoJAZZ HappyRocket88 Gero Marianna Voli
BeatmapID:897901
BeatmapSetID:413707

[Difficulty]
HPDrainRate:6
CircleSize:4
OverallDifficulty:7
ApproachRate:9
SliderMultiplier:3.2
SliderTickRate:1

[Events]
//Background and Video events
0,0,"BG7.jpg",0,0
//Break Periods
2,88440,92385
//Storyboard Layer 0 (Background)
//Storyboard Layer 1 (Fail)
//Storyboard Layer 2 (Pass)
//Storyboard Layer 3 (Foreground)
//Storyboard Sound Samples

[TimingPoints]
77,612.244897959184,4,2,0,20,1,0
77,-166.666666666667,4,2,0,20,0,0
1224,-166.666666666667,4,2,0,20,0,0
2525,-200,4,2,0,20,0,0
4362,-142.857142857143,4,2,0,30,0,0
4974,-142.857142857143,4,2,0,35,0,0
5587,-142.857142857143,4,2,0,40,0,0
6199,-142.857142857143,4,2,0,45,0,0
6811,-142.857142857143,4,2,0,50,0,0
29005,-100,4,2,0,50,0,0
48444,-200,4,2,0,50,0,0
49056,-83.3333333333333,4,2,0,50,0,1
56097,-100,4,2,0,50,0,0
58852,-83.3333333333333,4,2,0,50,0,1
68648,-100,4,2,0,50,0,0
126811,-200,4,2,0,50,0,0
127423,-83.3333333333333,4,2,0,50,0,1
134464,-100,4,2,0,50,0,0
137219,-83.3333333333333,4,2,0,50,0,1
147015,-95.2380952380952,4,2,0,50,0,0

[Colours]
Combo1 : 255,128,0
Combo2 : 255,255,128
Combo3 : 0,213,106
Combo4 : 174,75,51
Combo5 : 255,128,192
SliderTrackOverride : 0,0,2
SliderBorder : 183,159,167

[HitObjects]
160,128,77,6,0,B|40:104|48:320|160:232|200:320,1,287.999991210938
319,306,1301,2,0,B|352:232|464:320|472:104|352:128,1,287.999991210938
344,40,2525,2,0,B|296:40|272:80|256:112|256:112|240:80|208:40|160:40,1,240,2|0,0:0|0:0,0:0:0:0:
167,40,3750,5,0,0:0:0:0:
256,192,4362,1,0,0:0:0:0:
256,192,4974,6,0,P|280:152|352:120,1,111.999996582031,8|0,0:0|0:0,0:0:0:0:
312,304,5587,2,0,P|256:320|192:296,1,111.999996582031,8|0,0:0|0:0,0:0:0:0:
256,192,6199,2,0,P|232:152|160:120,1,111.999996582031,8|0,0:0|0:0,0:0:0:0:
205,305,6811,6,0,P|183:326|144:336,2,55.9999982910157,0|0|8,0:0|0:0|0:0,0:0:0:0:
200,88,7423,2,0,P|256:72|320:96,1,111.999996582031,2|0,0:0|0:0,0:0:0:0:
256,192,8036,12,0,9566,0:0:0:0:
424,64,9872,6,0,P|400:88|368:96,1,55.9999982910157,4|0,0:0|0:0,0:0:0:0:
272,80,10179,2,0,P|216:80|168:128,1,111.999996582031,0|8,0:0|0:0,0:0:0:0:
152,216,10638,1,0,0:0:0:0:
240,256,10791,2,0,P|220:288|192:304,1,55.9999982910157
152,216,11097,2,0,L|72:216,1,55.9999982910157,4|0,0:0|0:0,0:0:0:0:
174,114,11403,2,0,P|254:114|286:82,1,111.999996582031,0|8,0:0|0:0,0:0:0:0:
360,32,11862,1,0,0:0:0:0:
384,128,12015,2,0,B|368:152|368:152|352:200,1,55.9999982910157,2|0,0:0|0:0,0:0:0:0:
344,336,12321,6,4,P|312:312|280:312,1,55.9999982910157,4|0,0:0|0:0,0:0:0:0:
208,336,12628,2,0,P|176:344|96:296,1,111.999996582031,0|8,0:0|0:0,0:0:0:0:
104,216,13087,2,0,P|120:184|120:144,1,55.9999982910157
72,72,13393,1,0,0:0:0:0:
168,64,13546,2,0,L|240:64,1,55.9999982910157,4|0,0:0|0:0,0:0:0:0:
344,160,13852,2,0,P|328:144|280:144,1,55.9999982910157
288,232,14158,1,4,0:0:0:0:
384,256,14311,1,0,0:0:0:0:
464,200,14464,1,0,0:0:0:0:
440,104,14617,1,0,0:0:0:0:
384,256,14770,6,0,P|344:320|304:336,1,111.999996582031,4|0,0:0|0:0,0:0:0:0:
208,344,15230,1,0,0:0:0:0:
128,288,15383,2,0,P|144:248|120:176,1,111.999996582031,2|2,2:0|0:0,0:0:0:0:
72,96,15842,1,0,0:0:0:0:
160,56,15995,2,0,L|240:56,1,55.9999982910157,4|0,0:0|0:0,0:0:0:0:
280,128,16301,2,0,L|352:128,1,55.9999982910157
432,128,16607,1,8,0:0:0:0:
360,32,16760,1,0,0:0:0:0:
280,128,16913,2,0,P|280:160|296:192,1,55.9999982910157,2|0,0:0|0:0,0:0:0:0:
256,344,17219,6,0,P|200:304|144:296,1,111.999996582031,4|0,0:0|0:0,0:0:0:0:
56,304,17679,1,0,0:0:0:0:
72,208,17832,2,0,P|120:168|128:96,1,111.999996582031,8|0,0:0|0:0,0:0:0:0:
40,120,18291,1,0,0:0:0:0:
224,176,18444,2,0,P|256:184|296:168,1,55.9999982910157,2|0,0:0|0:0,0:0:0:0:
408,88,18750,2,0,P|368:80|336:88,1,55.9999982910157,2|0,0:0|0:0,0:0:0:0:
277,179,19056,2,0,P|245:235|180:258,1,111.999996582031,2|0,0:0|0:0,0:0:0:0:
0,256,19668,5,4,0:0:0:0:
112,48,19974,1,0,0:0:0:0:
176,112,20128,1,2,0:0:0:0:
272,104,20281,2,0,L|384:88,1,111.999996582031,8|0,0:0|0:0,0:0:0:0:
328,8,20740,1,0,0:0:0:0:
288,192,20893,2,0,L|160:192,1,111.999996582031,4|0,0:0|0:0,0:0:0:0:
72,168,21352,1,0,0:0:0:0:
152,112,21505,2,0,P|192:80|224:24,1,111.999996582031,8|0,0:0|0:0,0:0:0:0:
222,28,22117,1,4,0:0:0:0:
384,120,22423,5,2,0:0:0:0:
384,216,22577,1,2,0:0:0:0:
336,296,22730,2,0,P|307:319|264:328,1,55.9999982910157,8|0,0:0|0:0,0:0:0:0:
96,260,23036,2,0,P|128:240|168:240,1,55.9999982910157,2|0,0:0|0:0,0:0:0:0:
288,224,23342,1,4,0:0:0:0:
289,325,23495,1,2,0:0:0:0:
376,288,23648,2,0,P|400:256|416:232,1,55.9999982910157
416,152,23954,2,0,P|400:120|416:40,1,111.999996582031,6|2,2:0|2:0,0:0:0:0:
488,96,24413,1,2,2:0:0:0:
312,96,24566,6,0,L|240:96,1,55.9999982910157,4|0,0:0|0:0,0:0:0:0:
80,168,24872,2,0,P|136:152|192:168,1,111.999996582031,2|8,0:0|0:0,0:0:0:0:
264,232,25332,1,0,0:0:0:0:
328,304,25485,2,0,L|400:304,1,55.9999982910157
480,192,25791,2,0,L|416:224,1,55.9999982910157,4|0,0:0|0:0,0:0:0:0:
344,160,26097,2,0,L|376:88,1,55.9999982910157
400,16,26403,1,8,0:0:0:0:
448,120,26556,1,2,0:0:0:0:
288,80,26709,2,0,B|232:64,1,55.9999982910157,8|0,0:0|0:0,0:0:0:0:
48,16,27015,5,4,0:0:0:0:
256,192,27321,12,0,28852,0:0:0:0:
184,88,29158,5,2,0:0:0:0:
96,136,29311,1,2,0:0:0:0:
144,224,29464,2,0,P|240:240|312:216,1,160,4|0,0:0|0:0,0:0:0:0:
408,168,29923,1,2,0:0:0:0:
488,272,30077,2,0,P|448:264|384:296,1,80,8|0,0:0|0:0,0:0:0:0:
312,312,30383,2,0,P|272:320|216:304,1,80,0|8,0:0|0:0,0:0:0:0:
56,208,30689,5,4,0:0:0:0:
104,128,30842,1,0,0:0:0:0:
200,114,30995,2,0,P|296:98|336:32,1,160,8|8,0:0|0:0,0:0:0:0:
330,51,31607,1,2,0:0:0:0:
432,56,31760,1,2,0:0:0:0:
435,154,31913,6,0,P|393:219|418:292,1,160,4|0,0:0|0:0,0:0:0:0:
488,232,32372,1,0,0:0:0:0:
320,296,32525,2,0,L|224:296,1,80,8|0,0:0|0:0,0:0:0:0:
62,240,32832,2,0,L|144:240,1,80
232,184,33138,2,0,P|272:112|232:40,1,160,4|0,0:0|0:0,0:0:0:0:
48,120,33750,1,8,0:0:0:0:
48,120,34056,1,2,0:0:0:0:
144,144,34209,1,2,0:0:0:0:
192,232,34362,6,0,L|288:232,1,80,4|0,0:0|0:0,0:0:0:0:
384,232,34668,1,0,0:0:0:0:
336,304,34821,1,0,0:0:0:0:
328,152,34974,2,0,P|304:112|256:80,1,80,8|0,0:0|0:0,0:0:0:0:
112,96,35281,2,0,P|144:120|200:120,1,80
278,90,35587,1,8,0:0:0:0:
200,40,35740,1,0,0:0:0:0:
278,90,35893,2,0,B|329:83|329:83|360:88|360:88|400:80|400:80|456:88,1,160,2|0,0:0|0:0,0:0:0:0:
435,85,36505,1,2,0:0:0:0:
360,168,36658,1,2,0:0:0:0:
278,90,36811,6,0,P|224:116|160:104,1,106.666666666667,4|0,0:0|0:0,0:0:0:0:
208,24,37219,1,2,0:0:0:0:
40,240,37423,2,0,P|88:212|156:216,1,106.666666666667,4|0,0:0|0:0,0:0:0:0:
112,304,37832,1,2,0:0:0:0:
278,90,38036,2,0,P|372:144|448:88,1,213.333333333333,4|0,0:0|0:0,0:0:0:0:
447,89,38648,1,8,0:0:0:0:
364,224,38801,1,8,0:0:0:0:
278,90,38954,1,8,0:0:0:0:
192,224,39107,1,8,0:0:0:0:
88,96,39260,6,0,P|72:176|96:272,1,160,4|0,0:0|0:0,0:0:0:0:
152,336,39719,1,0,0:0:0:0:
248,288,39872,2,0,P|344:256|400:280,1,160,8|0,0:0|0:0,0:0:0:0:
328,360,40332,1,0,0:0:0:0:
456,224,40485,2,0,P|440:168|456:120,1,80,2|0,0:0|0:0,0:0:0:0:
432,40,40791,2,0,P|376:64|336:56,1,80
256,32,41097,1,8,0:0:0:0:
160,56,41250,1,2,0:0:0:0:
120,144,41403,2,0,P|160:152|224:128,1,80
432,264,41709,6,0,P|360:200|280:192,1,160,4|0,0:0|0:0,0:0:0:0:
200,224,42168,1,0,0:0:0:0:
120,288,42321,2,0,P|48:248|64:160,1,160,8|0,0:0|0:0,0:0:0:0:
144,128,42781,1,0,0:0:0:0:
232,80,42934,2,0,P|264:56|288:16,1,80,2|0,0:0|0:0,0:0:0:0:
472,96,43240,2,0,P|424:104|384:128,1,80,2|0,0:0|0:0,0:0:0:0:
240,192,43546,2,0,L|320:192,1,80,8|0,0:0|0:0,0:0:0:0:
136,192,43852,1,2,0:0:0:0:
232,80,44005,1,2,0:0:0:0:
208,272,44158,6,0,P|136:300|56:264,1,160,4|0,0:0|0:0,0:0:0:0:
24,176,44617,1,0,0:0:0:0:
112,128,44770,2,0,B|168:128|168:128|200:104,1,80,2|0,2:0|0:0,0:0:0:0:
272,56,45077,1,0,0:0:0:0:
372,32,45230,2,0,P|412:20|460:36,2,80,2|0|0,0:0|0:0|0:0,0:0:0:0:
320,120,45689,5,2,0:0:0:0:
416,108,45842,1,2,0:0:0:0:
288,32,45995,1,8,0:0:0:0:
196,32,46148,1,2,0:0:0:0:
116,80,46301,1,8,0:0:0:0:
76,164,46454,1,2,0:0:0:0:
192,232,46607,6,0,P|232:224|288:240,1,80,8|0,0:0|0:0,0:0:0:0:
232,320,46913,1,2,0:0:0:0:
231,143,47066,1,0,0:0:0:0:
270,231,47219,2,0,P|336:248|432:224,1,160,8|2,0:0|0:0,0:0:0:0:
424,120,47679,1,0,0:0:0:0:
324,92,47832,1,8,0:0:0:0:
231,143,47985,2,0,B|191:151|162:140|143:135|125:140|95:151|40:144,1,160,2|0,0:0|0:0,0:0:0:0:
71,145,48444,2,0,P|80:112|72:80,2,60,2|2|2,0:0|2:0|2:0,0:0:0:0:
71,145,49056,6,0,P|75:232|176:296,1,191.999994140625,4|0,0:0|0:0,0:0:0:0:
256,312,49515,1,0,0:0:0:0:
352,264,49668,2,0,P|400:216|448:208,1,95.9999970703126,8|0,0:0|0:0,0:0:0:0:
440,312,49974,1,2,0:0:0:0:
280,224,50128,1,0,0:0:0:0:
432,56,50281,6,0,B|384:48|384:48|336:64|288:48|288:48|232:56,1,191.999994140625,4|0,0:0|0:0,0:0:0:0:
136,72,50740,2,0,P|160:112|216:136,1,95.9999970703126,4|0,0:0|0:0,0:0:0:0:
242,54,51046,1,0,0:0:0:0:
192,240,51199,2,0,P|280:208|384:248,1,191.999994140625,4|0,0:0|0:0,0:0:0:0:
328,328,51658,1,2,0:0:0:0:
432,328,51811,1,0,0:0:0:0:
480,232,51964,1,8,0:0:0:0:
424,144,52117,2,0,P|368:128|336:88,1,95.9999970703126,8|0,0:0|0:0,0:0:0:0:
336,8,52423,1,2,0:0:0:0:
256,64,52577,1,0,0:0:0:0:
128,160,52730,6,0,P|72:224|112:312,1,191.999994140625,4|0,0:0|0:0,0:0:0:0:
256,272,53189,1,4,0:0:0:0:
400,311,53342,2,0,P|440:256|440:208,1,95.9999970703126,8|0,0:0|0:0,0:0:0:0:
416,128,53648,2,0,P|352:80|216:96,1,191.999994140625,4|0,0:0|0:0,0:0:0:0:
243,81,54260,1,2,0:0:0:0:
144,128,54413,1,0,0:0:0:0:
48,80,54566,2,0,P|32:128|56:192,1,95.9999970703126,8|0,0:0|0:0,0:0:0:0:
136,224,54872,2,0,P|184:216|256:232,1,95.9999970703126,2|0,0:0|0:0,0:0:0:0:
488,256,55179,6,0,P|448:288|304:264,1,191.999994140625,4|0,0:0|0:0,0:0:0:0:
230,222,55638,2,0,P|240:168|232:112,1,95.9999970703126,4|0,0:0|0:0,0:0:0:0:
216,32,55944,1,2,0:0:0:0:
312,48,56097,2,0,P|384:72|480:64,1,160,4|0,0:0|0:0,0:0:0:0:
424,240,56709,1,0,0:0:0:0:
344,200,56862,1,2,0:0:0:0:
264,240,57015,2,0,P|224:248|160:224,1,80,8|0,0:0|0:0,0:0:0:0:
336,56,57321,5,2,2:0:0:0:
272,112,57474,1,0,0:0:0:0:
336,56,57628,1,10,2:0:0:0:
168,104,57934,1,8,0:0:0:0:
178,305,58240,5,2,0:0:0:0:
168,104,58393,1,0,0:0:0:0:
128,240,58546,1,2,0:0:0:0:
168,104,58699,1,0,0:0:0:0:
224,240,58852,6,0,P|272:232|336:248,1,95.9999970703126,4|0,0:0|0:0,0:0:0:0:
472,352,59158,2,0,P|424:328|432:184,1,191.999994140625,0|8,0:0|0:0,0:0:0:0:
480,264,59617,1,0,0:0:0:0:
400,120,59770,1,2,0:0:0:0:
318,240,59923,1,10,0:0:0:0:
264,152,60077,6,0,P|200:120|80:168,1,191.999994140625,4|0,0:0|0:0,0:0:0:0:
264,152,60536,2,0,P|368:104|376:24,1,191.999994140625,4|0,0:0|0:0,0:0:0:0:
264,152,60995,2,0,L|264:256,1,95.9999970703126,4|0,0:0|0:0,0:0:0:0:
264,352,61301,1,0,0:0:0:0:
360,312,61454,2,0,P|408:288|432:224,2,95.9999970703126,8|8|8,0:0|0:0|0:0,0:0:0:0:
264,352,61913,2,0,P|224:344|168:352,1,95.9999970703126,8|0,0:0|0:0,0:0:0:0:
64,360,62219,1,2,0:0:0:0:
136,280,62372,1,0,0:0:0:0:
64,192,62525,6,0,P|96:136|40:24,1,191.999994140625,4|0,0:0|0:0,0:0:0:0:
194,232,62985,1,4,0:0:0:0:
200,112,63138,2,0,L|312:112,1,95.9999970703126,8|0,0:0|0:0,0:0:0:0:
377,228,63444,2,0,B|333:260|237:260|194:232,1,191.999994140625,4|0,0:0|0:0,0:0:0:0:
112,56,64056,1,2,0:0:0:0:
200,112,64209,1,2,0:0:0:0:
288,56,64362,6,0,B|328:56|328:56|384:40,1,95.9999970703126,8|0,0:0|0:0,0:0:0:0:
480,152,64668,2,0,B|432:152|432:152|384:168,1,95.9999970703126,2|0,0:0|0:0,0:0:0:0:
296,328,64974,2,0,P|400:328|448:232,1,191.999994140625,4|0,0:0|0:0,0:0:0:0:
224,264,65434,2,0,P|176:248|120:280,1,95.9999970703126,4|0,0:0|0:0,0:0:0:0:
64,328,65740,1,0,0:0:0:0:
160,160,65893,2,0,B|256:144|256:144|376:160,1,191.999994140625,4|0,0:0|0:0,0:0:0:0:
440,176,66352,1,0,0:0:0:0:
472,264,66505,1,2,0:0:0:0:
392,320,66658,1,0,0:0:0:0:
248,320,66811,6,0,L|176:240,1,95.9999970703126,8|0,0:0|0:0,0:0:0:0:
120,176,67117,1,10,2:0:0:0:
248,176,67270,1,8,0:0:0:0:
128,320,67423,1,10,2:0:0:0:
56,256,67577,1,0,0:0:0:0:
120,176,67730,1,10,2:0:0:0:
120,176,68036,2,0,P|176:136|192:80,1,95.9999970703126,8|0,0:0|0:0,0:0:0:0:
208,16,68342,1,2,0:0:0:0:
216,24,68418,1,2,0:0:0:0:
224,32,68495,1,2,0:0:0:0:
232,40,68571,1,2,0:0:0:0:
240,48,68648,6,0,P|344:56|400:96,1,160,4|0,0:0|0:0,0:0:0:0:
424,168,69107,1,0,0:0:0:0:
344,192,69260,1,8,0:0:0:0:
264,184,69413,1,0,0:0:0:0:
121,134,69566,2,0,P|161:127|200:136,1,80,2|0,0:0|0:0,0:0:0:0:
312,283,69872,6,0,P|234:284|176:232,1,160,4|0,0:0|0:0,0:0:0:0:
328,152,70332,2,0,P|368:128|392:80,1,80,8|0,0:0|0:0,0:0:0:0:
384,24,70638,1,0,0:0:0:0:
328,152,70791,2,0,B|292:152|292:152|274:143|274:143|170:143,1,160,6|0,0:0|0:0,0:0:0:0:
48,168,71403,1,0,0:0:0:0:
48,168,71709,2,0,P|88:216|128:224,1,80,8|0,0:0|0:0,0:0:0:0:
184,232,72015,1,2,0:0:0:0:
264,216,72168,1,0,0:0:0:0:
280,136,72321,6,0,L|392:136,1,80,4|0,0:0|0:0,0:0:0:0:
440,136,72628,1,2,0:0:0:0:
408,260,72781,1,8,0:0:0:0:
264,216,72934,2,0,L|168:216,1,80
296,112,73240,2,0,P|352:64|456:72,1,160,4|0,0:0|0:0,0:0:0:0:
435,62,73852,1,0,0:0:0:0:
435,62,74158,2,0,L|464:160,1,80,4|0,0:0|0:0,0:0:0:0:
480,216,74464,1,2,0:0:0:0:
352,176,74617,1,0,0:0:0:0:
435,62,74770,6,0,B|384:72|360:64|360:64|264:64,1,160,12|0,0:0|0:0,0:0:0:0:
48,128,75230,2,0,B|72:136|104:128|104:128|152:128,1,80,8|0,0:0|0:0,0:0:0:0:
208,120,75536,1,0,0:0:0:0:
280,160,75689,2,0,P|320:224|408:232,1,160,12|0,0:0|0:0,0:0:0:0:
398,235,76301,1,0,0:0:0:0:
398,235,76607,2,0,L|328:304,1,80,8|0,0:0|0:0,0:0:0:0:
280,344,76913,1,2,0:0:0:0:
424,336,77066,1,0,0:0:0:0:
304,208,77219,6,0,P|264:200|208:216,1,80,8|0,0:0|0:0,0:0:0:0:
168,264,77525,1,2,0:0:0:0:
96,232,77679,1,0,0:0:0:0:
104,152,77832,2,0,P|168:136|232:56,1,160,2|4,0:0|0:0,0:0:0:0:
228,67,78444,6,0,L|308:67,1,80,4|0,0:0|0:0,0:0:0:0:
384,72,78750,1,0,0:0:0:0:
424,144,78903,1,2,0:0:0:0:
368,208,79056,1,8,0:0:0:0:
368,208,79209,2,0,P|336:200|280:216,1,80
222,273,79515,1,0,0:0:0:0:
40,304,79668,6,0,P|88:272|104:232,1,80,4|0,0:0|0:0,0:0:0:0:
104,176,79974,1,2,0:0:0:0:
24,208,80128,1,2,0:0:0:0:
184,312,80281,2,0,P|224:320|280:304,1,80,2|0,0:0|0:0,0:0:0:0:
464,240,80587,2,0,P|392:208|312:248,1,160,4|0,0:0|0:0,0:0:0:0:
96,152,81199,1,0,0:0:0:0:
96,152,81505,2,0,L|192:96,1,80,8|0,0:0|0:0,0:0:0:0:
232,56,81811,1,2,0:0:0:0:
96,48,81964,1,2,0:0:0:0:
208,176,82117,6,0,P|224:192|280:216,1,80,6|0,0:0|0:0,0:0:0:0:
360,224,82423,1,0,0:0:0:0:
424,136,82577,1,6,0:0:0:0:
384,320,82730,1,0,0:0:0:0:
456,232,82884,1,2,0:0:0:0:
304,304,83036,2,0,L|192:304,1,80,6|0,0:0|0:0,0:0:0:0:
48,304,83342,2,0,P|120:272|144:184,1,160,8|0,0:0|0:0,0:0:0:0:
120,64,83801,1,0,0:0:0:0:
120,64,83954,5,8,0:0:0:0:
200,24,84107,1,2,0:0:0:0:
40,64,84260,1,2,0:0:0:0:
200,104,84413,1,2,0:0:0:0:
333,173,84566,2,0,P|413:181|492:169,1,160,6|0,0:0|0:0,0:0:0:0:
190,288,85025,2,0,P|111:279|32:288,1,160,6|0,0:0|0:0,0:0:0:0:
334,174,85485,2,0,P|174:120|190:288,1,400,6|0,0:0|0:0,0:0:0:0:
190,288,86403,2,2,B|232:304|264:288|264:288|320:328|352:280|352:280|424:248|423:167,1,320,8|2,0:0|0:0,0:0:0:0:
256,192,87092,12,4,88240,0:0:0:0:
256,192,92985,5,2,0:0:0:0:
320,144,93138,2,0,L|416:144,1,80,2|0,0:0|0:0,0:0:0:0:
480,144,93444,1,0,0:0:0:0:
336,248,93597,2,0,P|272:232|168:256,1,160,2|2,0:0|0:0,0:0:0:0:
112,288,94056,1,0,0:0:0:0:
48,145,94209,2,0,P|48:184|64:224,2,80,0|8|0,0:0|0:0|0:0,0:0:0:0:
150,108,94668,2,0,L|192:40,1,80,2|0,0:0|0:0,0:0:0:0:
376,24,94974,2,0,L|296:48,1,80
256,144,95281,2,0,L|360:184,1,80,2|0,0:0|0:0,0:0:0:0:
480,280,95587,6,0,P|416:248|328:272,1,160,10|2,0:0|0:0,0:0:0:0:
264,312,96046,2,0,L|160:336,1,80,2|0,0:0|0:0,0:0:0:0:
104,312,96352,1,0,0:0:0:0:
42,210,96505,2,0,L|120:232,1,80,2|0,0:0|0:0,0:0:0:0:
288,224,96811,2,0,P|208:192|192:112,1,160,2|0,0:0|0:0,0:0:0:0:
280,136,97270,1,0,0:0:0:0:
120,232,97423,1,8,0:0:0:0:
120,232,97730,1,8,0:0:0:0:
176,288,97883,1,2,0:0:0:0:
240,328,98036,6,0,P|288:344|344:344,1,80,8|0,0:0|0:0,0:0:0:0:
400,352,98342,1,0,0:0:0:0:
432,280,98495,2,0,L|464:200,1,80,2|0,0:0|0:0,0:0:0:0:
488,128,98801,1,0,0:0:0:0:
408,136,98954,2,0,B|368:120|368:120|288:128|256:56,1,160,2|0,0:0|0:0,0:0:0:0:
268,75,99566,1,0,0:0:0:0:
268,75,99872,2,0,L|192:152,1,80,2|0,0:0|0:0,0:0:0:0:
152,248,100179,2,0,L|96:192,1,80,2|0,0:0|0:0,0:0:0:0:
40,136,100485,5,8,0:0:0:0:
112,112,100638,2,0,P|160:112|208:80,1,80,2|0,0:0|0:0,0:0:0:0:
309,235,100944,2,0,P|284:205|247:191,1,80,2|0,0:0|0:0,0:0:0:0:
88,280,101250,2,0,P|200:296|250:256,1,160,2|2,0:0|0:0,0:0:0:0:
248,172,101709,2,0,P|328:144|416:184,1,160,2|0,0:0|0:0,0:0:0:0:
328,240,102168,1,0,0:0:0:0:
248,172,102321,2,0,P|256:120|296:80,1,80,2|0,0:0|0:0,0:0:0:0:
391,22,102628,2,0,P|388:61|368:96,1,80
248,172,102934,6,0,P|208:160|160:176,1,80,4|0,0:0|0:0,0:0:0:0:
104,208,103240,1,0,0:0:0:0:
144,280,103393,2,0,L|240:280,1,80,2|0,0:0|0:0,0:0:0:0:
296,320,103699,2,0,L|368:280,1,80
448,280,104005,2,0,L|480:176,1,80,2|0,0:0|0:0,0:0:0:0:
464,120,104311,1,0,0:0:0:0:
398,78,104464,1,8,0:0:0:0:
320,80,104617,1,0,0:0:0:0:
248,120,104770,6,0,P|224:128|160:112,1,80,2|0,0:0|0:0,0:0:0:0:
320,80,105077,2,0,P|360:72|420:88,1,80
248,120,105383,2,0,P|220:160|256:280,1,160,4|0,0:0|0:0,0:0:0:0:
312,304,105842,2,0,P|352:296|416:312,1,80,2|0,0:0|0:0,0:0:0:0:
238,263,106148,2,0,P|199:268|160:261,1,80,2|0,0:0|0:0,0:0:0:0:
96,48,106454,2,0,P|208:72|200:192,1,240,2|0,0:0|0:0,0:0:0:0:
160,261,107066,1,0,0:0:0:0:
136,128,107219,1,8,0:0:0:0:
136,128,107832,6,0,P|224:104|264:48,1,160,4|0,0:0|0:0,0:0:0:0:
336,16,108291,1,0,0:0:0:0:
400,72,108444,2,0,L|400:160,1,80,8|0,0:0|0:0,0:0:0:0:
400,232,108750,1,2,0:0:0:0:
480,128,108903,1,0,0:0:0:0:
320,128,109056,2,0,B|288:160|248:160|248:160|208:184|208:240,1,160,8|0,0:0|0:0,0:0:0:0:
208,225,109668,1,0,0:0:0:0:
208,225,109974,2,0,L|167:149,1,80,8|0,0:0|0:0,0:0:0:0:
80,40,110281,6,0,P|144:72|248:56,1,160,4|0,0:0|0:0,0:0:0:0:
304,40,110740,1,0,0:0:0:0:
384,64,110893,2,0,P|432:96|440:144,1,80,8|0,0:0|0:0,0:0:0:0:
448,272,111199,2,0,P|400:240|392:200,1,80,2|0,0:0|0:0,0:0:0:0:
360,144,111505,2,0,B|320:160|312:192|312:192|256:176|208:232,1,160,10|0,0:0|0:0,0:0:0:0:
88,128,112117,1,8,0:0:0:0:
224,40,112423,1,2,0:0:0:0:
264,112,112577,1,2,0:0:0:0:
304,40,112730,6,0,L|400:-8,1,80,4|0,0:0|0:0,0:0:0:0:
416,72,113036,2,0,P|464:72|504:104,1,80,2|0,0:0|0:0,0:0:0:0:
432,152,113342,2,0,L|362:192,1,80,8|0,0:0|0:0,0:0:0:0:
280,240,113648,1,2,0:0:0:0:
352,272,113801,1,2,0:0:0:0:
288,152,113954,2,0,P|208:120|136:160,1,160,4|0,0:0|0:0,0:0:0:0:
145,149,114566,1,8,0:0:0:0:
192,248,114719,1,0,0:0:0:0:
192,248,114872,1,2,0:0:0:0:
192,248,115025,1,0,0:0:0:0:
280,184,115179,6,0,P|296:152|312:96,1,80,4|0,0:0|0:0,0:0:0:0:
312,32,115485,1,2,0:0:0:0:
392,128,115638,1,0,0:0:0:0:
216,112,115791,2,0,L|136:112,1,80,4|0,0:0|0:0,0:0:0:0:
56,112,116097,1,2,0:0:0:0:
176,24,116250,1,2,0:0:0:0:
200,200,116403,2,0,P|248:208|288:192,1,80,6|0,0:0|0:0,0:0:0:0:
392,96,116709,2,0,P|380:132|392:184,1,80,2|0,0:0|0:0,0:0:0:0:
432,248,117015,5,8,0:0:0:0:
296,48,117168,1,8,0:0:0:0:
277,198,117321,1,8,0:0:0:0:
376,8,117474,1,8,0:0:0:0:
200,80,117628,6,0,P|132:108|56:52,1,160,4|0,0:0|0:0,0:0:0:0:
136,24,118087,1,0,0:0:0:0:
136,24,118240,2,0,L|136:112,1,80,8|0,0:0|0:0,0:0:0:0:
136,184,118546,1,0,0:0:0:0:
200,232,118699,2,0,P|256:240|288:264,1,80,2|0,0:0|0:0,0:0:0:0:
248,360,119005,2,0,P|192:352|160:328,1,80
352,248,119311,1,0,0:0:0:0:
400,184,119464,2,0,L|400:72,1,80,8|0,0:0|0:0,0:0:0:0:
400,24,119770,1,2,0:0:0:0:
480,88,119923,1,2,0:0:0:0:
320,88,120077,6,0,P|280:144|184:136,1,160,4|0,0:0|0:0,0:0:0:0:
128,88,120536,1,0,0:0:0:0:
320,88,120689,2,0,L|424:88,1,80,8|0,0:0|0:0,0:0:0:0:
424,168,120995,1,0,0:0:0:0:
424,168,121148,2,0,P|464:224|424:312,1,160,2|0,0:0|0:0,0:0:0:0:
288,240,121607,2,0,L|368:240,1,80
288,240,121913,2,0,B|232:240|232:240|176:216|168:152,1,160,2|0,0:0|0:0,0:0:0:0:
208,88,122372,1,2,0:0:0:0:
304,32,122525,6,0,B|344:44|344:44|408:28,2,80,8|0|0,0:0|0:0|0:0,0:0:0:0:
216,8,122985,1,0,0:0:0:0:
136,56,123138,2,0,P|80:112|88:192,1,160,4|0,0:0|0:0,0:0:0:0:
152,250,123597,1,2,0:0:0:0:
304,328,123750,2,0,B|348:336|348:336|396:324,2,80,8|0|0,0:0|0:0|0:0,0:0:0:0:
224,296,124209,1,0,0:0:0:0:
200,176,124362,2,0,L|264:88,2,80,8|0|0,0:0|0:0|0:0,0:0:0:0:
152,250,124821,1,2,0:0:0:0:
152,250,124974,5,4,0:0:0:0:
382,329,125281,1,0,0:0:0:0:
382,329,125434,2,0,P|358:265|390:169,1,160,2|0,0:0|0:0,0:0:0:0:
470,55,125893,2,0,P|376:96|280:48,1,200,2|0,0:0|0:0,0:0:0:0:
120,88,126454,2,0,P|159:78|198:87,1,80
144,192,126811,2,0,B|116:200|116:200|68:188,2,60,2|2|2,0:0|0:0|0:0,0:0:0:0:
264,128,127423,6,0,P|366:102|392:8,1,191.999994140625,4|0,0:0|0:0,0:0:0:0:
296,32,127883,1,0,0:0:0:0:
448,144,128036,2,0,L|376:216,1,95.9999970703126,8|0,0:0|0:0,0:0:0:0:
392,304,128342,2,0,L|288:344,1,95.9999970703126,8|0,0:0|0:0,0:0:0:0:
88,352,128648,6,0,P|192:320|232:248,1,191.999994140625,4|0,0:0|0:0,0:0:0:0:
288,176,129107,2,0,P|248:160|176:184,1,95.9999970703126,4|0,0:0|0:0,0:0:0:0:
128,232,129413,1,0,0:0:0:0:
40,192,129566,2,0,P|72:136|32:8,1,191.999994140625,6|0,0:0|0:0,0:0:0:0:
42,18,130025,1,0,0:0:0:0:
128,64,130179,1,8,0:0:0:0:
224,64,130332,1,0,0:0:0:0:
312,24,130485,2,0,L|424:24,1,95.9999970703126,8|0,0:0|0:0,0:0:0:0:
504,24,130791,1,2,0:0:0:0:
368,104,130944,1,2,0:0:0:0:
472,168,131097,6,0,P|448:232|336:296,1,191.999994140625,4|0,0:0|0:0,0:0:0:0:
256,312,131556,2,0,P|184:280|144:288,1,95.9999970703126,4|0,0:0|0:0,0:0:0:0:
80,320,131862,1,0,0:0:0:0:
96,224,132015,2,0,B|96:192|96:192|152:112|128:75|88:32,1,191.999994140625,4|0,0:0|0:0,0:0:0:0:
101,47,132628,1,0,0:0:0:0:
101,47,132934,2,0,L|199:20,1,95.9999970703126,8|0,0:0|0:0,0:0:0:0:
400,88,133240,2,0,L|288:56,1,95.9999970703126,2|0,0:0|0:0,0:0:0:0:
360,176,133546,6,0,B|448:208|448:208|496:240|472:304,1,191.999994140625,4|0,0:0|0:0,0:0:0:0:
392,344,134005,1,4,0:0:0:0:
296,320,134158,2,0,L|192:320,1,95.9999970703126,8|0,0:0|0:0,0:0:0:0:
80,296,134464,2,0,P|136:264|168:168,1,160,6|0,0:0|0:0,0:0:0:0:
296,88,135077,1,2,0:0:0:0:
376,72,135230,1,0,0:0:0:0:
448,112,135383,2,0,L|488:184,1,80,8|0,0:0|0:0,0:0:0:0:
440,248,135689,2,0,L|392:320,1,80,2|0,0:0|0:0,0:0:0:0:
352,384,135995,5,8,0:0:0:0:
480,336,136148,1,0,0:0:0:0:
320,280,136301,2,0,P|288:264|264:208,1,80,8|0,0:0|0:0,0:0:0:0:
340,32,136607,2,0,P|292:72|252:72,1,80,2|0,0:0|0:0,0:0:0:0:
64,112,136913,2,0,P|116:112|160:136,1,80,2|0,0:0|0:0,0:0:0:0:
224,144,137219,5,4,0:0:0:0:
208,184,137832,1,8,0:0:0:0:
290,220,137985,1,2,0:0:0:0:
370,180,138138,2,0,L|490:180,1,95.9999970703126,4|0,0:0|0:0,0:0:0:0:
344,104,138444,6,0,P|240:112|176:48,1,191.999994140625,4|0,0:0|0:0,0:0:0:0:
272,40,138903,2,0,P|248:120|144:144,1,191.999994140625,4|0,0:0|0:0,0:0:0:0:
64,96,139362,2,0,P|52:139|64:192,1,95.9999970703126,4|0,0:0|0:0,0:0:0:0:
184,328,139821,1,2,0:0:0:0:
280,344,139974,1,2,0:0:0:0:
246,253,140128,1,2,0:0:0:0:
360,288,140281,2,0,L|432:216,1,95.9999970703126,12|0,0:0|0:0,0:0:0:0:
368,144,140587,2,0,L|448:64,1,95.9999970703126,8|0,0:0|0:0,0:0:0:0:
344,40,140893,6,0,P|280:56|232:32,1,95.9999970703126,4|0,0:0|0:0,0:0:0:0:
160,16,141199,1,0,0:0:0:0:
88,80,141352,2,0,L|88:200,1,95.9999970703126,4|0,0:0|0:0,0:0:0:0:
88,272,141658,1,2,0:0:0:0:
176,248,141811,2,0,P|240:192|264:88,1,191.999994140625,4|0,0:0|0:0,0:0:0:0:
264,91,142423,1,0,0:0:0:0:
264,91,142730,2,0,P|320:88|368:56,1,95.9999970703126,8|0,0:0|0:0,0:0:0:0:
488,40,143036,2,0,P|448:72|440:128,1,95.9999970703126,2|0,0:0|0:0,0:0:0:0:
464,200,143342,6,0,P|464:272|432:304,1,95.9999970703126,4|0,0:0|0:0,0:0:0:0:
368,336,143648,1,0,0:0:0:0:
272,320,143801,2,0,L|160:296,1,95.9999970703126,4|0,0:0|0:0,0:0:0:0:
88,272,144107,1,0,0:0:0:0:
168,216,144260,2,0,P|208:160|216:104,1,95.9999970703126,4|0,0:0|0:0,0:0:0:0:
215,134,144872,1,2,0:0:0:0:
304,112,145025,1,2,0:0:0:0:
392,144,145179,2,0,B|416:184|416:184|464:216,2,95.9999970703126,2|0|0,0:0|0:0|0:0,0:0:0:0:
320,80,145638,1,0,0:0:0:0:
224,88,145791,6,0,P|176:80|112:32,2,95.9999970703126,2|0|0,0:0|0:0|0:0,0:0:0:0:
168,176,146250,2,0,P|224:200|256:248,1,95.9999970703126
272,320,146556,1,0,0:0:0:0:
176,328,146709,2,0,L|112:352,2,47.9999985351563,2|0|2,0:0|0:0|0:0,0:0:0:0:
400,264,147015,1,4,0:0:0:0:
400,264,147628,6,0,P|432:240|456:192,1,83.9999974365235,8|0,0:0|0:0,0:0:0:0:
325,106,147934,2,0,P|334:149|376:184,1,83.9999974365235,2|0,0:0|0:0,0:0:0:0:
384,32,148240,6,0,P|304:16|240:72,1,167.999994873047,6|0,0:0|0:0,0:0:0:0:
96,120,148699,2,0,P|128:168|184:184,1,83.9999974365235,8|0,0:0|0:0,0:0:0:0:
232,200,149005,1,2,0:0:0:0:
312,248,149158,2,0,P|392:232|488:248,1,167.999994873047,4|0,0:0|0:0,0:0:0:0:
476,244,149617,1,2,0:0:0:0:
464,328,149770,1,0,0:0:0:0:
392,368,149923,1,2,0:0:0:0:
304,368,150077,2,0,P|256:344|240:296,1,83.9999974365235,2|0,0:0|0:0,0:0:0:0:
122,206,150383,2,0,P|145:241|184:256,1,83.9999974365235,2|0,0:0|0:0,0:0:0:0:
192,160,150689,6,0,P|168:96|64:64,1,167.999994873047,6|0,0:0|0:0,0:0:0:0:
192,160,151148,2,4,P|248:168|288:152,1,83.9999974365235,12|0,0:0|0:0,0:0:0:0:
328,96,151454,1,2,0:0:0:0:
408,72,151607,2,4,P|464:128|480:216,1,167.999994873047,14|0,0:0|0:0,0:0:0:0:
344,312,152219,1,2,0:0:0:0:
272,272,152372,1,2,0:0:0:0:
192,304,152525,2,0,L|80:304,1,83.9999974365235,8|2,0:0|0:0,0:0:0:0:
149,191,152832,2,0,L|72:224,1,83.9999974365235,2|0,0:0|0:0,0:0:0:0:
128,96,153138,6,0,B|208:64|208:64|256:80|304:64,1,167.999994873047,4|0,0:0|0:0,0:0:0:0:
368,32,153597,2,0,P|376:72|360:120,1,83.9999974365235,4|0,0:0|0:0,0:0:0:0:
304,280,153903,1,2,0:0:0:0:
304,280,154056,2,0,P|328:232|448:224,1,167.999994873047,4|0,0:0|0:0,0:0:0:0:
400,304,154668,1,8,0:0:0:0:
256,184,154974,1,8,0:0:0:0:
128,312,155281,5,2,0:0:0:0:
208,296,155434,1,2,0:0:0:0:
272,240,155587,2,0,P|288:184|208:80,1,167.999994873047,4|2,0:0|0:0,0:0:0:0:
148,108,156046,1,2,0:0:0:0:
204,176,156199,2,0,P|284:168|332:88,1,167.999994873047,4|2,0:0|0:0,0:0:0:0:
376,32,156658,1,2,0:0:0:0:
456,48,156811,6,0,L|456:256,1,167.999994873047,4|0,0:0|0:0,0:0:0:0:
456,216,157423,1,10,0:0:0:0:
360,312,157730,1,2,0:0:0:0:
232,296,158036,2,0,P|176:264|152:160,1,167.999994873047,6|0,0:0|0:0,0:0:0:0:
184,88,158495,2,0,P|136:144|32:160,1,167.999994873047,6|0,0:0|0:0,0:0:0:0:
184,88,158954,2,0,P|264:72|368:96,1,167.999994873047,6|0,0:0|0:0,0:0:0:0:
416,136,159413,1,2,0:0:0:0:
440,216,159566,1,0,0:0:0:0:
392,280,159719,1,2,0:0:0:0:
320,328,159872,6,0,L|216:328,1,83.9999974365235,2|0,0:0|0:0,0:0:0:0:
160,288,160179,2,0,L|80:328,1,83.9999974365235,2|0,0:0|0:0,0:0:0:0:
160,288,160485,2,0,P|200:224|136:136,1,167.999994873047,6|0,0:0|0:0,0:0:0:0:
120,216,160944,2,0,L|312:216,1,167.999994873047,14|0,0:0|0:0,0:0:0:0:
368,232,161403,2,0,P|304:176|296:80,1,167.999994873047,2|0,0:0|0:0,0:0:0:0:
456,48,162015,1,2,0:0:0:0:
384,104,162168,1,2,0:0:0:0:
291,97,162321,6,0,L|184:96,1,83.9999974365235,8|0,0:0|0:0,0:0:0:0:
72,120,162628,2,0,L|144:176,1,83.9999974365235,2|2,0:0|0:0,0:0:0:0:
246,238,162934,2,0,P|190:150|222:78,1,167.999994873047,4|0,0:0|0:0,0:0:0:0:
328,168,163393,2,0,P|352:224|304:320,1,167.999994873047,4|0,0:0|0:0,0:0:0:0:
246,238,163852,1,12,0:0:0:0:
246,238,164158,6,0,P|384:272|312:168,1,335.999989746094
256,192,164847,12,0,166811,0:0:0:0:
