osu file format v14

[General]
AudioFilename: audio.mp3
AudioLeadIn: 0
PreviewTime: 41592
Countdown: 0
SampleSet: Soft
StackLeniency: 0.4
Mode: 0
LetterboxInBreaks: 0
EpilepsyWarning: 1
WidescreenStoryboard: 1

[Editor]
Bookmarks: 14164,38164,41592,46307,55307,69021,69235,69450,69664,69878,70092,70307,70521,70735,72450,75878,82735,93878,94735,96342,118521,123878,127307,130735,134164,144450,151307,165021,178735,185164,188164,191057,192450,193307,194164,195021,195878,196735,197592,198450,199307,200164,201021,201878,202735,203592,204450,205307,206164,207021,207878,208735,209592,210450,211307,212164,213021,213878,214735,215592,216450,217307,218164,219021,219878,233592,243878,245592,247307,254164,257592,258878,261021,264450,271307,274735,281592,288021,315664,315878,322521,322735,327021,327235,329592,334735,343307,350164,357878,364735,371592,378450,384450,391307,398164,399878,411878,415092,415307,418735,422164,425378,428592
DistanceSpacing: 0.8
BeatDivisor: 4
GridSize: 8
TimelineZoom: 2.299999

[Metadata]
Title:Conversation
TitleUnicode:Conversation
Artist:Milkychan
ArtistUnicode:Milkychan
Creator:Cosmolade
Version:XFriend
Source:東方Project
Tags:cover フラワリングナイト 十六夜咲夜, 東方花映塚 ~ Phantasmagoria of Flower View NGC 3.14 Hakurei Maiko ZUN Flowering touhou night of knights Sakuya Izayoi Ferret Okoratu Okorin
BeatmapID:1124454
BeatmapSetID:530432

[Difficulty]
HPDrainRate:6
CircleSize:4
OverallDifficulty:7.5
ApproachRate:9
SliderMultiplier:1.8
SliderTickRate:1

[Events]
//Background and Video events
0,0,"bg.jpg",0,0
//Break Periods
2,41792,54707
2,69221,71850
2,73292,75278
2,76721,78707
2,80150,82135
2,154935,157564
2,158364,160992
2,161792,163564
2,220078,232992
2,247507,256992
2,384650,387278
2,388078,390707
2,391507,394135
2,394935,396707
//Storyboard Layer 0 (Background)
//Storyboard Layer 1 (Fail)
//Storyboard Layer 2 (Pass)
//Storyboard Layer 3 (Foreground)
//Storyboard Sound Samples

[TimingPoints]
450,428.571428571429,4,2,1,25,1,0
14164,-80,4,2,1,30,0,0
14807,-100,4,2,1,30,0,0
55307,-133.333333333333,4,2,1,50,0,0
93878,-133.333333333333,4,2,1,40,0,0
96450,-50,4,2,1,50,0,1
96878,-66.6666666666667,4,2,1,50,0,0
97307,-100,4,2,1,50,0,0
98164,-66.6666666666667,4,2,1,50,0,0
99021,-83.3333333333333,4,2,1,50,0,0
99450,-66.6666666666667,4,2,1,50,0,0
99878,-66.6666666666667,4,2,1,50,0,0
100735,-100,4,2,1,50,0,0
101592,-66.6666666666667,4,2,1,50,0,0
102450,-100,4,2,1,50,0,0
102878,-66.6666666666667,4,2,1,50,0,0
103307,-50,4,2,1,50,0,0
103735,-66.6666666666667,4,2,1,50,0,0
104164,-100,4,2,1,50,0,0
104592,-50,4,2,1,50,0,0
105021,-66.6666666666667,4,2,1,50,0,0
105878,-66.6666666666667,4,2,1,50,0,0
106307,-66.6666666666667,4,2,1,50,0,0
107592,-100,4,2,1,50,0,0
108450,-66.6666666666667,4,2,1,50,0,0
110164,-133.333333333333,4,2,1,50,0,0
110592,-66.6666666666667,4,2,1,50,0,0
111878,-133.333333333333,4,2,1,50,0,0
112735,-66.6666666666667,4,2,1,50,0,0
113164,-100,4,2,1,50,0,0
113592,-133.333333333333,4,2,1,50,0,0
114450,-66.6666666666667,4,2,1,50,0,0
115307,-133.333333333333,4,2,1,50,0,0
116164,-66.6666666666667,4,2,1,50,0,0
117021,-133.333333333333,4,2,1,50,0,0
117878,-66.6666666666667,4,2,1,50,0,0
118735,-133.333333333333,4,2,1,50,0,0
119592,-66.6666666666667,4,2,1,50,0,0
120450,-133.333333333333,4,2,1,50,0,0
121307,-66.6666666666667,4,2,1,50,0,0
122164,-66.6666666666667,4,2,1,15,0,0
123021,-66.6666666666667,4,2,1,35,0,0
123878,-66.6666666666667,4,2,1,50,0,1
124307,-76.9230769230769,4,2,1,50,0,1
126021,-66.6666666666667,4,2,1,50,0,1
128164,-76.9230769230769,4,2,1,50,0,1
130735,-66.6666666666667,4,2,1,50,0,1
131592,-76.9230769230769,4,2,1,50,0,1
134164,-66.6666666666667,4,2,1,50,0,1
135021,-76.9230769230769,4,2,1,50,0,1
137592,-66.6666666666667,4,2,1,50,0,1
138450,-76.9230769230769,4,2,1,50,0,1
141021,-66.6666666666667,4,2,1,50,0,1
141878,-76.9230769230769,4,2,1,50,0,1
144450,-66.6666666666667,4,2,1,50,0,1
145307,-76.9230769230769,4,2,1,50,0,1
147878,-50,4,2,1,50,0,1
148307,-66.6666666666667,4,2,1,50,0,1
149592,-100,4,2,1,50,0,1
151307,-76.9230769230769,4,2,1,50,0,0
165021,-76.9230769230769,4,2,1,20,0,0
178735,-133.333333333333,4,2,1,50,0,0
194592,-66.6666666666667,4,2,1,50,0,0
195021,-133.333333333333,4,2,1,50,0,0
197378,-66.6666666666667,4,2,1,50,0,0
197592,-66.6666666666667,4,2,1,50,0,0
198021,-133.333333333333,4,2,1,50,0,0
199307,-100,4,2,1,50,0,0
200164,-133.333333333333,4,2,1,50,0,0
200592,-66.6666666666667,4,2,1,50,0,0
201021,-133.333333333333,4,2,1,50,0,0
203592,-66.6666666666667,4,2,1,50,0,0
204021,-133.333333333333,4,2,1,50,0,0
204450,-66.6666666666667,4,2,1,50,0,0
205092,-100,4,2,1,50,0,0
206164,-133.333333333333,4,2,1,50,0,0
209592,-66.6666666666667,4,2,1,50,0,0
210021,-133.333333333333,4,2,1,50,0,0
211307,-100,4,2,1,50,0,0
212592,-66.6666666666667,4,2,1,50,0,0
213021,-133.333333333333,4,2,1,50,0,0
214735,-100,4,2,1,50,0,0
217307,-66.6666666666667,4,2,1,50,0,0
217735,-80,4,2,1,50,0,0
218164,-100,4,2,1,50,0,0
260485,-66.6666666666667,4,2,1,50,0,0
261021,-100,4,2,1,50,0,0
267878,-66.6666666666667,4,2,1,50,0,0
268307,-100,4,2,1,50,0,0
274307,-66.6666666666667,4,2,1,50,0,0
274735,-76.9230769230769,4,2,1,50,0,1
275164,-66.6666666666667,4,2,1,50,0,1
279021,-133.333333333333,4,2,1,50,0,1
279450,-66.6666666666667,4,2,1,50,0,1
282021,-100,4,2,1,50,0,1
282450,-66.6666666666667,4,2,1,50,0,1
284164,-66.6666666666667,4,2,1,50,0,1
288450,-50,4,2,1,50,0,1
288878,-66.6666666666667,4,2,1,50,0,1
296164,-50,4,2,1,50,0,1
297021,-66.6666666666667,4,2,1,50,0,1
300450,-50,4,2,1,50,0,1
300878,-66.6666666666667,4,2,1,50,0,1
302164,-100,4,2,1,50,0,0
305592,-66.6666666666667,4,2,1,50,0,0
306878,-66.6666666666667,4,2,1,50,0,0
307307,-133.333333333333,4,2,1,50,0,0
308164,-100,4,2,1,50,0,0
309021,-133.333333333333,4,2,1,50,0,0
310735,-100,4,2,1,50,0,0
312450,-66.6666666666667,4,2,1,50,0,0
327878,-133.333333333333,4,2,1,50,0,0
329592,-66.6666666666667,4,2,1,50,0,1
331307,-100,4,2,1,50,0,1
333021,-76.9230769230769,4,2,1,50,0,1
334735,-100,4,2,1,50,0,1
339878,-125,4,2,1,50,0,1
343307,-100,4,2,1,50,0,1
346735,-83.3333333333333,4,2,1,50,0,1
349307,-66.6666666666667,4,2,1,50,0,1
349735,-83.3333333333333,4,2,1,50,0,1
350164,-66.6666666666667,4,2,1,50,0,1
350592,-83.3333333333333,4,2,1,50,0,1
353592,-66.6666666666667,4,2,1,50,0,1
354021,-83.3333333333333,4,2,1,50,0,1
357021,-133.333333333333,4,2,1,50,0,0
370735,-100,4,2,1,50,0,0
398164,-133.333333333333,4,2,1,50,0,0
411878,-133.333333333333,4,2,1,40,0,0
415307,-133.333333333333,4,2,1,30,0,0

[Colours]
Combo1 : 239,197,118
Combo2 : 205,72,255
Combo3 : 255,130,245
Combo4 : 254,65,117

[HitObjects]
136,56,450,5,0,1:2:0:0:
184,208,664,1,2,0:0:0:0:
220,212,771,1,0,0:0:0:0:
256,200,878,1,8,0:0:0:0:
284,176,985,1,0,0:0:0:0:
300,144,1092,1,2,0:0:0:0:
300,108,1200,1,0,0:0:0:0:
280,80,1307,6,0,L|344:68,1,45,0|0,1:2|0:0,0:0:0:0:
384,120,1521,2,0,L|448:128,1,45,2|0,0:0|0:0,0:0:0:0:
472,212,1735,1,8,0:0:0:0:
468,248,1842,1,0,0:0:0:0:
448,280,1950,1,2,0:0:0:0:
416,296,2057,1,0,0:0:0:0:
380,308,2164,6,0,L|340:288,1,45,0|0,1:2|0:0,0:0:0:0:
300,352,2378,2,0,L|260:332,1,45,2|0,0:0|0:0,0:0:0:0:
200,256,2592,1,8,0:0:0:0:
164,260,2700,1,0,0:0:0:0:
136,284,2807,1,2,0:0:0:0:
120,316,2914,1,0,0:0:0:0:
116,352,3021,6,0,L|84:296,1,45,0|0,1:2|0:0,0:0:0:0:
16,312,3235,2,0,L|24:252,1,45,2|0,0:0|0:0,0:0:0:0:
36,172,3450,1,8,0:0:0:0:
72,168,3557,1,0,0:0:0:0:
104,152,3664,1,2,0:0:0:0:
132,128,3771,1,0,0:0:0:0:
164,80,3878,5,0,1:2:0:0:
184,108,3985,1,0,0:0:0:0:
208,136,4092,1,2,0:0:0:0:
232,164,4200,1,0,0:0:0:0:
256,192,4307,2,0,L|312:192,1,45,8|0,0:0|0:0,0:0:0:0:
308,268,4521,2,0,L|364:280,1,45,2|0,0:0|0:0,0:0:0:0:
236,296,4735,5,0,1:2:0:0:
200,296,4842,1,0,0:0:0:0:
168,280,4950,1,2,0:0:0:0:
148,252,5057,1,0,0:0:0:0:
140,216,5164,2,4,L|84:228,1,45,8|0,0:0|0:0,0:0:0:0:
64,160,5378,2,0,L|12:176,1,45,2|0,0:0|0:0,0:0:0:0:
0,272,5592,5,0,1:2:0:0:
28,296,5700,1,0,0:0:0:0:
56,316,5807,1,2,0:0:0:0:
88,336,5914,1,0,0:0:0:0:
120,352,6021,2,0,L|164:320,1,45,8|0,0:0|0:0,0:0:0:0:
140,248,6235,2,0,L|192:228,1,45,2|0,0:0|0:0,0:0:0:0:
256,276,6450,5,0,1:2:0:0:
276,260,6557,1,0,0:0:0:0:
300,244,6664,1,2,0:0:0:0:
320,228,6771,1,2,0:0:0:0:
356,256,6878,5,8,0:0:0:0:
376,240,6985,1,0,0:0:0:0:
400,224,7092,1,2,0:0:0:0:
420,208,7199,1,2,0:0:0:0:
448,184,7307,6,0,L|484:136,1,45,0|0,1:2|0:0,0:0:0:0:
420,92,7521,2,0,L|440:44,1,45,2|0,0:0|0:0,0:0:0:0:
336,56,7735,1,8,0:0:0:0:
308,76,7842,1,0,0:0:0:0:
272,80,7950,1,2,0:0:0:0:
236,76,8057,1,0,0:0:0:0:
200,60,8164,2,0,L|144:28,1,45,0|0,1:2|0:0,0:0:0:0:
104,88,8378,2,0,L|48:56,1,45,2|0,0:0|0:0,0:0:0:0:
80,176,8592,5,8,0:0:0:0:
108,196,8700,1,0,0:0:0:0:
124,228,8807,1,2,0:0:0:0:
124,264,8914,1,0,0:0:0:0:
108,296,9021,2,0,L|160:332,1,45,0|0,1:2|0:0,0:0:0:0:
212,284,9235,2,0,L|256:312,1,45,2|0,0:0|0:0,0:0:0:0:
336,360,9450,5,8,0:0:0:0:
364,336,9557,1,0,0:0:0:0:
376,300,9664,1,2,0:0:0:0:
376,264,9771,1,2,0:0:0:0:
360,232,9878,2,0,L|312:200,1,45,0|0,1:2|0:0,0:0:0:0:
368,144,10092,2,0,L|320:112,1,45,2|0,0:0|0:0,0:0:0:0:
224,132,10307,5,8,0:0:0:0:
204,160,10414,1,0,0:0:0:0:
200,196,10521,1,2,0:0:0:0:
208,232,10628,1,0,0:0:0:0:
232,260,10735,2,0,P|212:276|184:280,1,45,0|0,1:2|0:0,0:0:0:0:
180,352,10950,2,8,P|148:340|132:320,1,45,2|0,0:0|0:0,0:0:0:0:
76,252,11164,5,8,0:0:0:0:
96,224,11271,1,0,0:0:0:0:
100,188,11378,1,2,0:0:0:0:
88,156,11485,1,0,0:0:0:0:
68,124,11592,2,0,L|124:88,1,45,0|0,1:2|0:0,0:0:0:0:
176,132,11807,2,0,L|220:108,1,45,2|0,0:0|0:0,0:0:0:0:
304,64,12021,5,8,0:0:0:0:
328,92,12128,1,0,0:0:0:0:
340,128,12235,1,2,0:0:0:0:
344,164,12342,1,0,0:0:0:0:
340,200,12450,2,0,P|324:228|304:248,1,45,0|0,1:2|0:0,0:0:0:0:
356,300,12664,2,0,P|312:316|292:312,1,45,2|0,0:0|0:0,0:0:0:0:
212,348,12878,5,8,0:0:0:0:
192,316,12985,1,0,0:0:0:0:
176,284,13092,1,2,0:0:0:0:
156,252,13200,1,0,0:0:0:0:
128,208,13307,6,0,P|88:212|64:204,3,45,2|0|0|0,0:0|0:0|0:0|0:0,0:0:0:0:
100,140,13735,2,0,L|80:100,1,45,2|0,0:0|0:0,0:0:0:0:
192,103,13950,2,0,L|172:144,1,45,2|0,0:0|0:0,0:0:0:0:
212,260,14164,6,0,B|244:248|256:212|256:212|281:276|342:295,1,168.75,4|0,1:2|0:0,0:0:0:0:
423,316,14592,2,0,P|437:296|449:267,1,56.25,8|0,0:0|0:0,0:0:0:0:
458,232,14807,1,2,3:2:0:0:
460,196,14914,1,0,0:0:0:0:
444,163,15021,6,0,L|392:138,1,45,0|0,1:2|0:0,0:0:0:0:
389,72,15235,2,0,L|333:63,1,45,2|0,3:2|0:0,0:0:0:0:
269,84,15450,1,8,0:0:0:0:
261,120,15557,1,0,0:0:0:0:
237,148,15664,1,2,3:2:0:0:
205,168,15771,1,0,0:0:0:0:
169,172,15878,6,0,L|125:156,1,45,0|0,1:2|0:0,0:0:0:0:
85,220,16092,2,0,L|141:240,1,45,2|0,3:2|0:0,0:0:0:0:
200,304,16307,2,0,L|152:344,2,45,8|0|2,0:0|0:0|3:2,0:0:0:0:
247,275,16629,1,0,0:0:0:0:
292,301,16735,5,0,1:2:0:0:
324,317,16842,1,0,0:0:0:0:
360,321,16950,1,2,3:2:0:0:
396,313,17057,1,0,0:0:0:0:
432,297,17164,2,0,L|488:261,1,45,8|0,0:0|0:0,0:0:0:0:
469,200,17378,2,0,L|514:157,1,45,2|0,3:2|0:0,0:0:0:0:
462,108,17592,2,0,L|486:48,2,45,0|0|2,1:2|0:0|3:2,0:0:0:0:
428,122,17914,1,0,0:0:0:0:
315,156,18021,6,0,L|247:148,1,45,8|0,0:0|0:0,0:0:0:0:
239,220,18235,2,0,L|175:232,1,45,2|0,3:2|0:0,0:0:0:0:
163,154,18450,2,0,L|95:146,1,45,0|0,1:2|0:0,0:0:0:0:
87,218,18664,2,0,L|23:230,1,45,2|0,3:2|0:0,0:0:0:0:
20,299,18878,1,8,0:0:0:0:
48,323,18985,1,0,0:0:0:0:
82,336,19092,1,2,3:2:0:0:
117,341,19200,1,0,0:0:0:0:
152,338,19307,6,0,L|212:318,1,45,0|0,1:2|0:0,0:0:0:0:
259,355,19521,2,0,L|315:311,1,45,2|0,3:2|0:0,0:0:0:0:
400,321,19735,2,0,L|376:359,2,45,8|0|2,0:0|0:0|3:2,0:0:0:0:
446,291,20057,1,0,0:0:0:0:
494,264,20164,5,0,1:2:0:0:
486,228,20271,1,0,0:0:0:0:
463,200,20378,1,2,3:2:0:0:
432,181,20485,1,0,0:0:0:0:
396,174,20592,2,0,L|392:106,1,45,8|0,0:0|0:0,0:0:0:0:
328,97,20807,2,0,L|324:29,1,45,2|0,3:2|0:0,0:0:0:0:
253,47,21021,2,0,L|249:-21,2,45,0|0|2,1:2|0:0|3:2,0:0:0:0:
245,82,21342,1,0,0:0:0:0:
294,197,21450,6,0,L|314:237,1,45,8|0,0:0|0:0,0:0:0:0:
217,201,21664,2,0,L|195:161,1,45,2|0,3:2|0:0,0:0:0:0:
148,235,21878,2,0,L|170:274,1,45,0|0,1:2|0:0,0:0:0:0:
73,253,22092,2,0,L|50:207,1,45,2|0,3:2|0:0,0:0:0:0:
84,142,22307,1,8,0:0:0:0:
112,120,22414,1,0,0:0:0:0:
147,113,22521,1,2,3:2:0:0:
182,120,22628,1,0,0:0:0:0:
214,135,22735,6,0,P|218:159|214:191,1,45,0|0,1:2|0:0,0:0:0:0:
293,178,22950,2,0,P|292:156|296:134,1,45,2|0,3:2|0:0,0:0:0:0:
406,86,23164,2,0,L|367:109,2,45,8|0|2,0:0|0:0|3:2,0:0:0:0:
457,85,23485,1,0,0:0:0:0:
493,114,23592,5,0,1:2:0:0:
506,147,23700,1,0,0:0:0:0:
508,182,23807,1,2,3:2:0:0:
504,217,23914,1,0,0:0:0:0:
489,249,24021,2,0,L|497:299,1,45,8|0,0:0|0:0,0:0:0:0:
422,338,24235,2,0,L|419:293,1,45,2|0,3:2|0:0,0:0:0:0:
344,265,24450,2,0,L|342:313,2,45,0|0|2,1:2|0:0|3:2,0:0:0:0:
315,243,24771,1,0,0:0:0:0:
210,194,24878,6,0,L|201:127,1,45,8|0,0:0|0:0,0:0:0:0:
275,118,25092,2,0,L|300:62,1,45,2|0,3:2|0:0,0:0:0:0:
370,86,25307,2,0,L|417:60,1,45,0|0,1:2|0:0,0:0:0:0:
468,114,25521,2,0,L|527:121,1,45,2|0,3:2|0:0,0:0:0:0:
503,195,25735,1,8,0:0:0:0:
481,224,25842,1,0,0:0:0:0:
450,241,25950,1,2,3:2:0:0:
414,241,26057,1,0,0:0:0:0:
378,234,26164,6,0,L|302:258,1,45,0|0,1:2|0:0,0:0:0:0:
350,161,26378,2,0,L|308:176,1,45,2|0,3:2|0:0,0:0:0:0:
333,65,26592,2,0,L|376:51,2,45,8|0|2,0:0|0:0|3:2,0:0:0:0:
278,76,26914,1,0,0:0:0:0:
222,66,27021,5,0,1:2:0:0:
206,98,27128,1,0,0:0:0:0:
194,130,27235,1,2,3:2:0:0:
178,162,27342,1,0,0:0:0:0:
165,196,27450,2,0,L|181:252,1,45,8|0,0:0|0:0,0:0:0:0:
252,226,27664,2,0,L|268:282,1,45,2|0,3:2|0:0,0:0:0:0:
332,235,27878,2,0,L|348:291,2,45,0|0|2,1:2|0:0|3:2,0:0:0:0:
344,200,28200,1,0,0:0:0:0:
284,94,28307,6,0,P|236:106|220:122,1,45,8|0,0:0|0:0,0:0:0:0:
180,62,28522,2,0,P|168:102|172:134,1,45,2|0,3:2|0:0,0:0:0:0:
156,184,28735,2,0,P|204:172|220:156,1,45,0|0,1:2|0:0,0:0:0:0:
260,216,28950,2,0,P|272:176|268:144,1,45,2|0,3:2|0:0,0:0:0:0:
284,94,29164,1,8,0:0:0:0:
249,83,29271,1,0,0:0:0:0:
214,73,29378,1,2,3:2:0:0:
178,65,29485,1,0,0:0:0:0:
142,62,29592,6,0,L|78:58,1,45,0|0,1:2|0:0,0:0:0:0:
98,136,29807,2,0,L|53:133,1,45,2|0,3:2|0:0,0:0:0:0:
49,247,30021,2,0,L|4:244,2,45,8|0|2,0:0|0:0|3:2,0:0:0:0:
96,271,30342,1,0,0:0:0:0:
132,304,30450,5,0,1:2:0:0:
164,320,30557,1,0,0:0:0:0:
200,324,30664,1,2,3:2:0:0:
235,318,30771,1,0,0:0:0:0:
269,308,30878,2,0,L|329:324,1,45,8|0,0:0|0:0,0:0:0:0:
345,250,31092,2,0,L|405:266,1,45,2|0,3:2|0:0,0:0:0:0:
413,190,31307,2,0,L|473:206,2,45,0|0|2,1:2|0:0|3:2,0:0:0:0:
388,163,31628,1,0,0:0:0:0:
303,82,31735,6,0,L|251:122,1,45,8|0,0:0|0:0,0:0:0:0:
291,182,31949,2,0,L|251:238,1,45,2|0,3:2|0:0,0:0:0:0:
190,193,32164,2,0,L|138:233,1,45,0|0,1:2|0:0,0:0:0:0:
178,293,32378,2,0,L|138:349,1,45,2|0,3:2|0:0,0:0:0:0:
217,369,32592,1,8,0:0:0:0:
252,374,32700,1,0,0:0:0:0:
287,369,32807,1,2,3:2:0:0:
319,354,32914,1,0,0:0:0:0:
346,330,33021,6,0,L|371:271,1,45,0|0,1:2|0:0,0:0:0:0:
439,278,33235,2,0,L|463:208,1,45,2|0,3:2|0:0,0:0:0:0:
470,116,33450,2,0,P|501:108|524:93,2,45,8|0|2,0:0|0:0|3:2,0:0:0:0:
417,110,33771,1,0,0:0:0:0:
370,95,33878,5,0,1:2:0:0:
334,100,33985,1,0,0:0:0:0:
298,107,34092,1,2,3:2:0:0:
262,116,34200,1,0,0:0:0:0:
226,121,34307,2,0,L|154:105,1,45,8|0,0:0|0:0,0:0:0:0:
132,168,34521,2,0,L|86:158,1,45,2|0,3:2|0:0,0:0:0:0:
50,225,34735,2,0,L|3:213,2,45,0|0|2,1:2|0:0|3:2,0:0:0:0:
69,255,35057,1,0,0:0:0:0:
155,341,35164,6,0,P|181:346|211:337,1,45,8|0,0:0|0:0,0:0:0:0:
219,269,35379,2,0,P|243:265|275:273,1,45,2|0,3:2|0:0,0:0:0:0:
299,349,35592,2,0,P|325:354|355:345,1,45,0|0,1:2|0:0,0:0:0:0:
363,277,35807,2,0,P|387:273|419:281,1,45,2|0,3:2|0:0,0:0:0:0:
482,291,36021,1,8,0:0:0:0:
489,255,36128,1,0,0:0:0:0:
496,219,36235,1,2,3:2:0:0:
497,183,36342,1,0,0:0:0:0:
497,146,36450,6,0,L|449:142,1,45,0|0,1:2|0:0,0:0:0:0:
457,66,36664,2,0,L|412:69,1,45,2|0,3:2|0:0,0:0:0:0:
317,29,36878,2,0,L|378:5,2,45,8|0|2,0:0|0:0|3:2,0:0:0:0:
289,72,37200,1,0,0:0:0:0:
261,115,37307,5,0,1:2:0:0:
225,110,37414,1,0,0:0:0:0:
190,102,37521,1,2,3:2:0:0:
154,94,37628,1,0,0:0:0:0:
119,89,37735,2,0,P|108:115|117:154,1,45,8|0,0:0|0:0,0:0:0:0:
47,179,37950,2,0,P|61:195|100:210,1,45,2|0,3:2|0:0,0:0:0:0:
138,257,38164,2,0,P|119:276|90:284,2,45,0|0|2,1:2|0:0|3:2,0:0:0:0:
171,243,38485,1,0,0:0:0:0:
273,194,38592,5,8,0:0:0:0:
289,170,38700,1,0,0:0:0:0:
293,142,38807,1,2,3:2:0:0:
285,110,38914,1,0,0:0:0:0:
261,86,39021,5,0,1:2:0:0:
225,74,39128,1,0,0:0:0:0:
189,82,39235,1,2,3:2:0:0:
161,106,39342,1,0,0:0:0:0:
145,150,39450,5,8,0:0:0:0:
157,194,39557,1,0,0:0:0:0:
193,218,39664,1,2,3:2:0:0:
237,218,39771,1,2,0:0:0:0:
269,202,39878,5,0,1:2:0:0:
289,170,39985,1,0,0:0:0:0:
317,142,40092,1,2,3:2:0:0:
349,126,40200,1,0,0:0:0:0:
373,118,40307,5,8,0:0:0:0:
401,118,40414,1,0,0:0:0:0:
425,130,40521,1,2,3:2:0:0:
441,150,40628,1,0,0:0:0:0:
445,170,40735,5,0,1:2:0:0:
445,194,40842,1,0,0:0:0:0:
433,214,40950,1,2,3:2:0:0:
413,226,41057,1,0,0:0:0:0:
396,228,41164,5,8,0:0:0:0:
379,225,41271,1,0,0:0:0:0:
364,216,41378,1,2,3:2:0:0:
353,202,41485,1,2,0:0:0:0:
352,170,41592,5,4,1:0:0:0:
151,124,55307,6,0,B|205:140|256:208|256:208|287:145|380:126,1,270.000010299683,2|2,0:0|0:0,0:0:0:0:
424,197,56378,2,0,P|432:225|424:261,1,67.5000025749208,2|2,0:0|0:0,0:0:0:0:
354,325,56807,6,0,B|322:317|290:337|290:337|258:314|226:321,1,135.000005149842,2|0,0:0|0:0,0:0:0:0:
135,269,57450,2,0,P|167:329|207:225,1,236.250009012223,2|0,0:0|0:0,0:0:0:0:
205,218,58307,2,0,P|245:222|281:214,1,67.5000025749208,2|0,0:0|0:0,0:0:0:0:
364,100,58735,6,0,P|324:96|288:104,1,67.5000025749208,2|0,0:0|0:0,0:0:0:0:
196,132,59164,1,2,0:0:0:0:
176,124,59271,1,0,0:0:0:0:
164,108,59378,1,2,0:0:0:0:
160,88,59485,1,2,0:0:0:0:
166,65,59592,2,0,L|66:121,1,101.250003862381,0|2,0:0|0:0,0:0:0:0:
59,129,60021,2,0,P|83:165|87:201,1,67.5000025749208,0|2,0:0|0:0,0:0:0:0:
92,308,60450,6,0,P|122:293|145:268,1,67.5000025749208,2|0,0:0|0:0,0:0:0:0:
222,264,60878,2,0,P|244:288|275:303,1,67.5000025749208,2|0,0:0|0:0,0:0:0:0:
300,307,61200,1,0,0:0:0:0:
324,304,61307,2,0,P|356:280|392:264,1,67.5000025749208,2|0,0:0|0:0,0:0:0:0:
383,193,61735,2,0,P|352:182|327:160,1,67.5000025749208,2|0,0:0|0:0,0:0:0:0:
395,56,62164,6,0,P|379:116|203:112,1,270.000010299683,2|2,0:0|0:0,0:0:0:0:
147,58,63235,1,0,0:0:0:0:
88,174,63450,2,0,P|80:141|83:108,1,67.5000025749208,2|0,0:0|0:0,0:0:0:0:
205,114,63878,6,0,P|173:153|180:104,1,135.000005149842,2|0,0:0|0:0,0:0:0:0:
196,86,64414,1,2,0:0:0:0:
214,71,64521,1,2,0:0:0:0:
233,57,64628,1,2,0:0:0:0:
253,45,64735,2,0,P|289:53|319:45,1,67.5000025749208,2|0,0:0|0:0,0:0:0:0:
412,126,65164,2,0,P|380:118|345:125,1,67.5000025749208,2|0,0:0|0:0,0:0:0:0:
340,290,65592,6,0,B|376:254|376:198|376:198|328:210,1,135.000005149842,2|0,0:0|0:0,0:0:0:0:
264,227,66235,1,2,0:0:0:0:
186,251,66450,2,0,P|146:247|106:227,1,67.5000025749208,2|0,0:0|0:0,0:0:0:0:
140,169,66771,1,2,0:0:0:0:
140,169,66878,2,0,P|114:137|100:95,1,67.5000025749208,2|0,0:0|0:0,0:0:0:0:
268,113,67307,6,0,B|260:145|232:185,1,67.5000025749208,2|0,0:0|0:0,0:0:0:0:
209,56,67735,1,2,0:0:0:0:
225,40,67842,1,0,0:0:0:0:
249,32,67950,1,2,0:0:0:0:
273,28,68057,1,2,0:0:0:0:
297,32,68164,2,0,P|321:40|389:20,1,67.5000025749208,2|0,0:0|0:0,0:0:0:0:
449,24,68592,2,0,P|449:52|425:100,1,67.5000025749208,2|0,0:0|0:0,0:0:0:0:
356,192,69021,5,4,1:0:0:0:
433,129,72450,6,0,L|360:160,1,67.5000025749208,2|2,0:0|0:0,0:0:0:0:
256,200,72878,1,2,0:0:0:0:
224,184,72985,1,0,0:0:0:0:
192,164,73092,1,2,0:0:0:0:
92,160,75878,6,0,L|169:191,1,67.5000025749208,2|2,0:0|0:0,0:0:0:0:
272,220,76307,1,2,0:0:0:0:
300,196,76414,1,0,0:0:0:0:
328,172,76521,1,2,0:0:0:0:
404,196,79307,6,0,L|328:228,1,67.5000025749208,2|2,0:0|0:0,0:0:0:0:
228,264,79735,1,2,0:0:0:0:
196,248,79842,1,0,0:0:0:0:
164,228,79950,1,2,0:0:0:0:
448,48,82735,5,0,1:2:0:0:
256,336,83164,1,8,1:2:0:0:
64,48,83592,1,0,1:2:0:0:
88,36,83700,1,2,0:0:0:0:
180,200,83914,1,2,0:0:0:0:
152,196,84021,1,8,1:2:0:0:
224,24,84235,1,2,0:0:0:0:
288,144,84450,6,0,P|324:152|368:140,1,67.5000025749208,0|0,1:2|0:0,0:0:0:0:
480,232,84878,2,0,P|448:228|400:236,1,67.5000025749208,8|0,1:2|0:0,0:0:0:0:
276,284,85307,1,0,1:2:0:0:
296,300,85414,1,2,0:0:0:0:
328,144,85628,1,2,0:0:0:0:
308,128,85735,1,8,1:2:0:0:
152,196,85950,1,2,0:0:0:0:
176,204,86057,1,0,0:0:0:0:
204,212,86164,6,0,L|224:128,1,67.5000025749208,0|0,1:2|0:0,0:0:0:0:
343,78,86592,2,0,L|323:162,1,67.5000025749208,8|0,1:2|0:0,0:0:0:0:
436,236,87021,1,0,1:2:0:0:
460,224,87128,1,2,0:0:0:0:
488,44,87342,1,2,0:0:0:0:
464,32,87450,1,8,1:2:0:0:
304,72,87664,1,2,0:0:0:0:
360,220,87878,6,0,P|381:193|392:162,1,67.5000025749208,0|0,1:2|0:0,0:0:0:0:
252,201,88307,2,0,P|236:230|232:264,1,67.5000025749208,8|0,1:2|0:0,0:0:0:0:
340,352,88735,1,0,1:2:0:0:
364,344,88842,1,2,0:0:0:0:
440,192,89057,1,2,0:0:0:0:
416,180,89164,1,8,1:2:0:0:
472,360,89378,1,2,0:0:0:0:
360,220,89592,6,0,L|332:176,1,33.7500012874604,0|0,1:2|0:0,0:0:0:0:
272,204,89807,2,0,L|244:160,1,33.7500012874604,0|0,1:2|0:0,0:0:0:0:
184,192,90021,2,0,L|156:148,1,33.7500012874604,0|0,1:2|0:2,0:0:0:0:
96,176,90236,2,0,L|68:132,1,33.7500012874604,0|0,1:2|0:0,0:0:0:0:
112,48,90450,6,0,L|140:92,1,33.7500012874604,0|0,1:2|0:0,0:0:0:0:
200,64,90665,2,0,L|228:108,1,33.7500012874604,0|0,1:2|0:0,0:0:0:0:
288,76,90879,2,0,L|316:120,1,33.7500012874604,0|0,1:2|0:0,0:0:0:0:
376,92,91092,2,0,L|400:128,1,33.7500012874604,0|0,1:2|0:0,0:0:0:0:
394,264,91307,6,0,L|375:292,1,33.7500012874604,0|0,1:2|0:0,0:0:0:0:
136,292,91521,2,0,L|118:264,1,33.7500012874604,0|0,1:2|1:2,0:0:0:0:
118,120,91735,2,0,L|136:91,1,33.7500012874604,0|0,1:2|0:0,0:0:0:0:
375,91,91950,2,0,L|394:120,1,33.7500012874604,0|0,1:2|0:0,0:0:0:0:
125,208,92164,6,0,L|96:192,1,33.7500012874604,0|0,1:2|0:0,0:0:0:0:
279,320,92378,2,0,L|256:344,1,33.7500012874604,0|0,1:2|0:0,0:0:0:0:
389,171,92592,2,0,L|416:192,1,33.7500012874604,0|0,1:2|0:0,0:0:0:0:
229,61,92807,2,0,L|256:40,1,33.7500012874604,8|8,1:2|0:0,0:0:0:0:
125,208,93021,5,0,1:2:0:0:
145,219,93128,1,0,1:2:0:0:
165,230,93235,1,2,1:2:0:0:
185,241,93342,1,0,1:2:0:0:
224,225,93450,5,0,1:2:0:0:
244,236,93557,1,0,1:2:0:0:
264,247,93664,1,2,1:2:0:0:
284,258,93771,1,0,1:2:0:0:
320,264,93878,6,0,L|344:262,1,16.8750006437302,0|0,1:2|1:2,0:0:0:0:
350,234,93985,2,0,L|379:220,1,16.8750006437302,0|0,1:2|1:2,0:0:0:0:
357,194,94092,2,0,L|378:175,1,16.8750006437302,2|0,1:2|1:2,0:0:0:0:
344,157,94200,2,0,L|354:133,1,16.8750006437302,0|0,1:2|1:2,0:0:0:0:
312,120,94307,2,0,L|324:96,6,16.8750006437302,0|0|0|0|2|0|0,1:2|1:2|1:2|1:2|1:2|1:2|1:2,0:0:0:0:
257,100,94735,5,2,0:0:0:0:
185,132,94950,1,0,0:0:0:0:
165,209,95164,1,2,0:0:0:0:
213,272,95378,1,0,0:0:0:0:
292,273,95592,1,2,0:0:0:0:
343,213,95807,1,2,0:0:0:0:
327,136,96021,1,2,0:0:0:0:
327,136,96450,6,0,B|257:114|257:114|187:17,1,180,4|0,1:2|0:0,0:3:0:0:
104,36,96771,1,12,1:3:0:0:
104,36,96878,6,0,L|140:92,1,67.5000025749208,2|0,0:0|0:0,0:0:0:0:
71,143,97092,2,0,L|107:199,1,67.5000025749208,4|2,1:3|0:0,0:0:0:0:
172,336,97307,6,2,P|200:272|220:340,1,180,12|4,1:0|0:0,0:3:0:0:
104,240,97950,1,6,0:0:0:0:
203,317,98164,6,0,B|238:290|238:290|288:280|288:280|317:253,1,135.000005149842,4|0,1:3|0:0,0:0:0:0:
404,220,98485,1,4,1:3:0:0:
404,220,98592,2,0,P|410:252|402:285,1,67.5000025749208,2|0,0:0|0:0,0:0:0:0:
318,253,98807,2,0,P|309:220|316:187,1,67.5000025749208,4|2,1:3|0:0,0:0:0:0:
479,323,99021,6,0,P|463:350|433:370,1,53.9999983520508,8|0,1:1|0:0,0:0:0:0:
369,326,99235,2,0,P|384:298|414:278,1,53.9999983520508,2|0,0:0|0:0,0:0:0:0:
281,333,99450,2,0,B|193:303,1,67.5000025749208,2|0,0:0|0:0,0:0:0:0:
143,345,99664,2,0,B|55:315,1,67.5000025749208,2|0,0:0|0:0,0:0:0:0:
24,216,99878,6,0,P|44:148|104:96,1,135.000005149842,4|0,1:3|0:0,0:0:0:0:
164,120,100200,1,4,1:3:0:0:
164,120,100307,2,0,L|229:101,1,67.5000025749208,2|0,0:0|0:0,0:0:0:0:
306,162,100521,2,0,L|241:181,1,67.5000025749208,4|2,1:3|0:0,0:0:0:0:
304,76,100735,6,0,B|340:76|364:100|364:100|388:16,1,135,8|2,1:1|0:0,0:3:0:0:
456,8,101164,2,0,B|465:49|465:49|481:61|509:65,1,90,4|2,1:3|0:0,0:0:0:0:
500,104,101485,1,2,0:0:0:0:
484,136,101592,6,0,L|420:192,1,67.5000025749208,4|0,1:3|0:0,0:0:0:0:
472,256,101807,2,0,L|384:284,1,67.5000025749208,2|0,0:0|0:0,0:0:0:0:
340,324,102021,2,0,P|368:348|424:356,2,67.5000025749208,2|0|4,0:0|0:0|1:3,0:0:0:0:
264,316,102342,1,2,0:0:0:0:
264,316,102450,6,0,P|216:328|172:312,1,90,8|2,1:1|0:0,0:0:0:0:
164,120,102878,6,0,L|224:264,1,135.000005149842,4|2,1:3|0:0,0:0:0:0:
392,104,103307,6,0,P|264:112|336:36,1,270,4|4,1:2|1:3,0:0:0:0:
392,104,103735,6,0,L|472:68,1,67.5000025749208,2|0,0:0|0:0,0:0:0:0:
416,216,103950,2,0,L|340:252,1,67.5000025749208,4|2,1:3|0:0,0:0:0:0:
260,236,104164,6,2,P|200:200|116:232,1,135,12|0,1:0|0:0,0:3:0:0:
116,204,104592,6,0,L|100:296,1,90,6|0,0:0|0:0,0:0:0:0:
32,252,104807,2,0,L|12:344,1,90,6|0,0:0|0:0,0:0:0:0:
116,204,105021,6,0,B|168:168|168:168|196:92,1,135.000005149842,4|0,1:3|0:0,0:0:0:0:
255,49,105342,1,4,1:3:0:0:
317,101,105450,2,0,P|325:130|357:160,1,67.5000025749208,2|0,0:0|0:0,0:0:0:0:
431,151,105664,2,0,P|421:119|397:95,1,67.5000025749208,4|2,1:3|0:0,0:0:0:0:
392,273,105878,6,0,B|429:224|429:224|430:150,1,135.000005149842,8|0,1:1|0:0,0:0:0:0:
315,283,106307,6,0,P|323:314|347:338,1,67.5000025749208,4|0,1:3|0:0,0:0:0:0:
426,328,106521,2,0,P|410:290|384:268,1,67.5000025749208,2|0,0:0|0:0,0:0:0:0:
279,197,106735,6,0,L|209:315,1,135.000005149842,4|2,1:3|0:0,0:0:0:0:
162,238,107057,2,0,B|237:111,1,135.000005149842,4|0,1:3|0:0,0:0:0:0:
317,103,107378,2,0,P|349:107|382:99,1,67.5000025749208,4|0,1:3|0:0,0:0:0:0:
293,25,107592,6,0,P|269:37|241:85,1,45,8|0,1:1|0:0,0:0:0:0:
317,103,107807,2,0,P|349:79|357:59,1,45,2|0,0:0|0:0,0:0:0:0:
231,122,108021,1,4,1:3:0:0:
231,122,108128,1,2,0:0:0:0:
231,122,108235,2,0,P|211:110|167:114,1,45,2|0,0:0|0:0,0:0:0:0:
78,133,108450,6,0,B|50:199|50:199|48:262,1,135.000005149842,4|2,1:3|0:0,0:0:0:0:
92,328,108771,1,4,1:3:0:0:
92,328,108878,2,0,B|124:320|124:320|148:284,1,67.5000025749208,2|0,0:0|0:0,0:0:0:0:
224,292,109092,2,0,B|244:321|244:321|276:329,1,67.5000025749208,4|2,1:3|0:0,0:0:0:0:
252,203,109307,6,0,P|260:171|251:139,1,67.5000025749208,8|0,0:1|0:0,0:0:0:0:
200,64,109521,2,0,L|138:91,1,67.5000025749208,2|0,0:0|0:0,0:0:0:0:
138,218,109735,2,0,P|162:195|173:164,1,67.5000025749208,2|0,0:0|0:0,0:0:0:0:
109,74,109950,2,0,L|29:114,1,67.5000025749208,2|0,0:0|0:0,0:0:0:0:
200,64,110164,6,2,B|232:60|248:32|248:32|308:80|308:80|368:44|416:64,1,236.250009012223,4|0,1:0|0:0,0:3:0:0:
456,8,111021,1,8,1:0:0:0:
327,223,111235,1,2,0:0:0:0:
251,137,111450,1,2,0:0:0:0:
416,330,111664,1,2,0:0:0:0:
99,304,111878,6,2,P|194:249|266:330,1,236.250009012223,4|0,1:0|0:0,0:3:0:0:
28,260,112735,6,0,L|76:200,1,67.5000025749208,8|0,1:0|0:0,0:0:0:0:
24,144,112950,2,0,L|112:112,1,67.5000025749208,2|0,0:0|0:0,0:0:0:0:
72,40,113164,6,0,L|136:56,1,45,2|0,0:0|0:0,0:0:0:0:
180,12,113378,2,0,L|204:64,1,45
197,172,113592,6,2,B|244:207|304:172|304:172|364:136|419:170,1,236.250009012223,4|0,1:0|0:0,0:3:0:0:
246,260,114450,6,0,P|206:256|174:240,1,67.5000025749208,8|0,1:0|0:0,0:0:0:0:
197,172,114664,2,0,P|170:149|158:118,1,67.5000025749208,2|0,0:0|0:0,0:0:0:0:
238,101,114878,1,2,0:0:0:0:
280,114,114985,1,2,0:0:0:0:
311,147,115092,1,2,0:0:0:0:
322,190,115199,1,2,0:0:0:0:
181,244,115307,6,2,P|82:194|86:82,1,236.250009012223,4|0,1:0|0:0,0:3:0:0:
166,78,116164,6,0,P|160:111|133:146,1,67.5000025749208,8|0,1:0|0:0,0:0:0:0:
87,81,116378,2,0,P|92:47|119:12,1,67.5000025749208,2|0,0:0|0:0,0:0:0:0:
224,22,116592,2,0,P|242:50|247:83,1,67.5000025749208,2|0,0:0|0:0,0:0:0:0:
191,139,116807,2,0,P|172:110|167:77,1,67.5000025749208,2|0,0:0|0:0,0:0:0:0:
371,136,117021,6,2,B|305:138|254:163|254:163|197:134|134:136,1,236.250009012223,4|0,0:0|0:0,0:3:0:0:
152,216,117878,6,0,P|184:220|224:240,1,67.5000025749208,8|0,1:0|0:0,0:0:0:0:
360,216,118092,2,0,P|328:220|288:240,1,67.5000025749208,2|0,0:0|0:0,0:0:0:0:
160,348,118307,2,0,P|184:324|232:300,1,67.5000025749208,2|0,0:0|0:0,0:0:0:0:
352,348,118521,2,0,P|328:324|280:300,1,67.5000025749208,2|0,0:0|0:0,0:0:0:0:
220,136,118735,6,2,P|267:220|267:123,1,236.250009012223,4|0,1:0|0:0,0:3:0:0:
356,100,119592,6,0,L|412:56,1,67.5000025749208,8|0,1:0|0:0,0:0:0:0:
292,64,119807,2,0,L|320:0,1,67.5000025749208,2|0,0:0|0:0,0:0:0:0:
220,64,120021,2,0,L|192:3,1,67.5000025749208,2|0,0:0|0:0,0:0:0:0:
156,96,120235,2,0,L|100:52,1,67.5000025749208,2|0,0:0|0:0,0:0:0:0:
256,160,120450,6,2,B|272:232|192:285|192:285|285:268,1,236.250009012223,4|0,1:0|0:0,0:3:0:0:
336,152,121307,6,0,P|324:120|296:88,1,67.5000025749208,8|0,1:0|0:0,0:0:0:0:
208,94,121521,2,0,P|187:120|176:152,1,67.5000025749208,2|0,0:0|0:0,0:0:0:0:
191,255,121735,1,2,0:0:0:0:
233,268,121842,1,2,0:0:0:0:
276,269,121949,1,2,0:0:0:0:
320,255,122056,1,2,0:0:0:0:
256,192,122378,12,0,123771,0:0:0:0:
302,93,123878,6,0,P|379:152|470:117,1,202.500007724762,4|0,1:2|0:0,0:0:0:0:
284,16,124307,6,0,P|252:32|232:56,1,58.4999973220826,10|0,1:2|0:0,0:0:0:0:
208,124,124521,2,0,L|152:104,1,58.4999973220826,2|0,0:0|0:0,0:0:0:0:
128,24,124735,1,0,1:2:0:0:
44,204,124950,2,0,L|116:216,1,58.4999973220826,2|0,0:0|0:0,0:0:0:0:
68,285,125164,2,0,L|125:295,1,58.4999973220826,10|0,1:2|0:0,0:0:0:0:
94,366,125378,2,0,L|151:376,1,58.4999973220826,2|0,0:0|0:0,0:0:0:0:
211,262,125592,6,0,P|231:202|343:146,1,175.499991966248,2|0,1:2|0:0,0:0:0:0:
402,185,126021,6,0,B|442:245|442:245|370:221|290:257,1,202.500007724762,10|0,1:2|0:0,0:0:0:0:
231,206,126450,2,0,B|192:151|192:151|265:172|322:148,1,202.500007724762,2|2,1:2|0:0,0:0:0:0:
352,40,126878,2,0,P|320:64|264:72,1,67.5000025749208,8|0,1:2|0:0,0:0:0:0:
217,71,127092,2,0,P|186:61|160:39,1,67.5000025749208,2|0,0:0|0:0,0:0:0:0:
20,56,127307,6,0,P|68:100|88:176,1,135.000005149842,6|0,1:2|0:0,0:0:0:0:
32,320,127735,2,0,B|64:340|64:340|93:340,1,67.5000025749208,10|0,1:2|0:0,0:0:0:0:
82,258,127950,2,0,B|52:241|52:241|17:240,1,67.5000025749208,2|0,0:0|0:0,0:0:0:0:
88,165,128164,6,0,P|170:193|264:159,1,175.499991966248,0|0,1:2|0:0,0:0:0:0:
289,101,128592,2,0,P|321:129|321:165,1,58.4999973220826,10|0,1:2|0:0,0:0:0:0:
209,101,128807,2,0,P|177:73|177:37,1,58.4999973220826,2|0,0:0|0:0,0:0:0:0:
289,101,129021,6,0,L|377:205,1,116.999994644165,2|0,1:2|0:0,0:0:0:0:
447,360,129450,2,0,P|387:316|275:328,1,175.499991966248,10|0,1:2|0:0,0:0:0:0:
184,312,129878,2,0,L|215:361,1,58.4999973220826,2|0,1:2|0:0,0:0:0:0:
290,320,130092,2,0,L|259:271,1,58.4999973220826,2|0,0:0|0:0,0:0:0:0:
190,174,130307,2,0,P|254:232|340:236,1,175.499991966248,10|0,1:2|0:0,0:0:0:0:
354,69,130735,6,0,P|327:154|249:96,1,202.500007724762,6|0,1:2|0:0,0:0:0:0:
200,44,131164,2,0,L|127:8,1,67.5000025749208,10|0,1:2|0:0,0:0:0:0:
62,61,131378,2,0,L|128:99,1,67.5000025749208,2|0,0:0|0:0,0:0:0:0:
179,142,131592,6,0,B|89:147|89:147|38:166|17:220,1,175.499991966248,2|0,1:2|0:0,0:0:0:0:
61,277,132021,2,0,B|93:272|93:272|124:278,1,58.4999973220826,10|0,1:2|0:0,0:0:0:0:
157,353,132235,2,0,B|122:356|122:356|98:352,1,58.4999973220826,2|0,0:0|0:0,0:0:0:0:
200,288,132450,6,0,B|248:280|248:280|284:292|284:292|388:284,1,175.499991966248,2|0,1:2|0:0,0:0:0:0:
436,200,132878,2,0,L|376:204,1,58.4999973220826,10|0,1:2|0:0,0:0:0:0:
335,137,133092,2,0,L|275:141,1,58.4999973220826,2|0,0:0|0:0,0:0:0:0:
137,178,133307,2,0,B|175:213|226:202|226:202|285:130,1,175.499991966248,2|0,1:2|0:0,0:0:0:0:
339,100,133735,2,0,P|374:34|300:28,1,175.499991966248,10|0,1:2|0:0,0:0:0:0:
340,100,134164,6,0,P|426:143|511:96,1,202.500007724762,6|0,1:2|0:0,0:0:0:0:
300,27,134592,2,0,L|220:20,1,67.5000025749208,10|0,1:2|0:0,0:0:0:0:
216,100,134807,2,0,L|136:93,1,67.5000025749208,2|0,0:0|0:0,0:0:0:0:
52,210,135021,6,0,P|100:200|146:87,1,175.499991966248,0|0,1:2|0:0,0:0:0:0:
56,64,135450,2,0,B|67:137,1,58.4999973220826,10|0,1:2|0:0,0:0:0:0:
52,210,135664,2,0,L|68:280,1,58.4999973220826,2|0,0:0|0:0,0:0:0:0:
172,328,135878,6,0,P|164:236|236:160,1,175.499991966248,2|0,1:2|0:0,0:0:0:0:
300,264,136307,2,0,P|264:264|224:232,1,58.4999973220826,10|0,1:2|0:0,0:0:0:0:
211,172,136521,2,0,P|247:172|287:204,1,58.4999973220826,2|0,0:0|0:0,0:0:0:0:
316,352,136735,2,0,P|292:308|376:224,1,175.499991966248,2|0,1:2|0:0,0:0:0:0:
432,188,137164,2,0,P|416:163|391:148,1,58.4999973220826,10|0,1:2|0:0,0:0:0:0:
388,72,137378,2,0,P|413:57|429:33,1,58.4999973220826,2|0,0:0|0:0,0:0:0:0:
392,149,137592,6,0,B|348:156|320:116|320:116|177:97,1,202.500007724762,6|0,1:2|0:0,0:0:0:0:
132,160,138021,2,0,L|252:60,1,135.000005149842,10|0,1:2|0:0,0:0:0:0:
32,108,138450,6,0,L|192:16,1,175.499991966248,0|0,1:2|0:0,0:0:0:0:
289,94,138878,2,0,P|257:86|221:58,1,58.4999973220826,10|0,1:2|0:0,0:0:0:0:
336,36,139092,2,0,P|364:48|392:72,1,58.4999973220826,2|0,0:0|0:0,0:0:0:0:
452,108,139307,6,0,B|448:140|432:156|432:156|436:180|436:180|375:198|384:288,1,175.499991966248,2|0,1:2|0:0,0:0:0:0:
333,333,139735,2,0,P|405:345|475:259,1,175.499991966248,10|0,1:2|0:0,0:0:0:0:
383,254,140164,2,0,B|350:233|315:254|315:254|210:309,1,175.499991966248,2|0,1:2|0:0,0:0:0:0:
124,276,140592,2,0,L|184:240,1,58.4999973220826,10|0,1:2|0:0,0:0:0:0:
140,176,140807,2,0,L|200:140,1,58.4999973220826,2|0,0:0|0:0,0:0:0:0:
356,88,141021,6,0,P|281:110|215:12,1,202.500007724762,6|0,1:2|0:0,0:0:0:0:
298,26,141450,2,0,P|358:2|425:36,1,135.000005149842,10|2,1:2|0:0,0:0:0:0:
332,184,141878,6,0,P|296:192|248:176,1,58.4999973220826,0|0,1:2|0:0,0:0:0:0:
373,271,142092,2,0,P|389:243|437:215,1,58.4999973220826,2|0,0:0|0:0,0:0:0:0:
466,337,142307,2,0,B|380:360|380:360|288:336,1,175.499991966248,10|0,1:2|0:0,0:0:0:0:
222,326,142735,6,0,B|236:270,1,58.4999973220826,2|0,1:2|0:0,0:0:0:0:
146,299,142950,2,0,B|132:355,1,58.4999973220826,2|0,0:0|0:0,0:0:0:0:
56,276,143164,2,0,P|104:228|140:309,1,175.499991966248,10|0,1:2|0:0,0:0:0:0:
236,270,143592,2,0,P|216:200|124:148,1,175.499991966248,2|2,1:2|0:0,0:0:0:0:
48,88,144021,2,0,L|112:72,1,58.4999973220826,10|0,1:2|0:0,0:0:0:0:
132,148,144235,2,0,L|208:132,1,58.4999973220826,2|0,0:0|0:0,0:0:0:0:
328,229,144450,6,0,B|282:265|244:230|244:230|189:136,1,202.500007724762,6|0,1:2|0:0,0:0:0:0:
360,88,144878,2,0,B|409:95|423:145|423:145|423:256,1,202.500007724762,10|0,1:2|0:0,0:0:0:0:
460,336,145307,5,0,1:2:0:0:
460,336,145521,2,0,P|431:344|387:328,1,58.4999973220826,2|0,0:0|0:0,0:0:0:0:
367,259,145735,2,0,P|396:251|440:267,1,58.4999973220826,10|0,1:2|0:0,0:0:0:0:
472,168,145950,2,0,P|443:176|399:160,1,58.4999973220826,2|0,0:0|0:0,0:0:0:0:
339,164,146164,6,0,L|224:304,1,175.499991966248,2|0,1:2|0:0,0:0:0:0:
74,241,146592,2,0,P|139:258|201:164,1,175.499991966248,10|0,1:2|0:0,0:0:0:0:
179,96,147021,2,0,B|233:96|233:96|233:109|233:109|297:109,1,116.999994644165,2|2,1:2|0:0,0:0:0:0:
359,8,147450,2,0,L|299:7,1,58.4999973220826,10|0,1:2|0:0,0:0:0:0:
399,74,147664,2,0,L|458:73,1,58.4999973220826,2|0,0:0|0:0,0:0:0:0:
481,173,147878,6,0,P|433:148|484:225,1,270.000010299683,4|0,1:2|0:0,0:0:0:0:
481,173,148307,6,0,P|431:110|292:88,1,202.500007724762,10|0,1:2|0:0,0:0:0:0:
212,172,148735,1,0,1:2:0:0:
212,172,148950,2,0,P|256:168|288:136,1,67.5000025749208,2|0,0:0|0:0,0:0:0:0:
219,87,149164,2,0,B|186:91|186:91|125:68,1,67.5000025749208,8|0,1:2|0:0,0:0:0:0:
274,155,149378,2,0,B|307:151|307:151|368:174,1,67.5000025749208,2|0,0:0|0:0,0:0:0:0:
219,87,149592,6,0,B|159:94|131:141|131:141|104:145|104:145|93:168|45:182,1,180,12|8,1:0|1:0,0:0:0:0:
49,255,150235,1,2,0:0:0:0:
107,314,150450,2,0,B|133:318|153:304|153:304|172:320|217:314,1,90,8|2,1:2|1:3,0:0:0:0:
322,350,150878,1,0,1:0:0:0:
297,323,150985,1,0,1:0:0:0:
288,288,151092,1,0,1:0:0:0:
294,252,151200,1,0,1:0:0:0:
321,214,151307,5,4,1:0:0:0:
256,192,151414,12,2,154735,0:0:0:0:
256,192,158164,5,2,0:0:0:0:
256,192,161592,5,2,0:0:0:0:
256,192,164164,5,2,0:0:0:0:
256,192,165021,5,2,3:0:0:0:
328,132,165235,1,2,0:0:0:0:
396,196,165450,1,2,0:0:0:0:
396,196,165557,1,0,0:0:0:0:
396,196,165664,1,2,0:0:0:0:
324,256,165878,1,0,0:0:0:0:
256,192,166092,1,2,0:0:0:0:
188,256,166307,6,0,L|192:320,2,58.4999973220826,2|0|2,0:0|0:0|0:0,0:0:0:0:
144,264,166628,1,0,0:0:0:0:
100,248,166735,1,2,0:0:0:0:
100,156,166950,1,2,0:0:0:0:
184,116,167164,5,2,0:0:0:0:
184,116,167271,1,0,0:0:0:0:
184,116,167378,1,2,0:0:0:0:
272,148,167592,1,2,0:0:0:0:
360,184,167807,1,2,0:0:0:0:
312,264,168021,1,0,0:0:0:0:
260,340,168235,1,2,0:0:0:0:
88,188,168450,5,2,3:0:0:0:
156,124,168664,1,2,0:0:0:0:
224,60,168878,1,2,0:0:0:0:
224,60,168985,1,0,0:0:0:0:
224,60,169092,1,2,0:0:0:0:
156,124,169307,1,0,0:0:0:0:
88,60,169521,1,2,0:0:0:0:
20,124,169735,6,0,L|24:200,2,58.4999973220826,2|0|2,0:0|0:0|0:0,0:0:0:0:
52,92,170057,1,0,0:0:0:0:
88,60,170164,1,2,0:0:0:0:
156,124,170378,1,2,0:0:0:0:
172,224,170592,5,2,0:0:0:0:
172,224,170700,1,0,0:0:0:0:
172,224,170807,1,2,0:0:0:0:
216,142,171021,1,2,0:0:0:0:
301,179,171235,1,2,0:0:0:0:
334,91,171450,1,0,0:0:0:0:
419,127,171664,1,2,0:0:0:0:
340,280,171878,5,2,3:0:0:0:
256,324,172092,1,2,0:0:0:0:
172,284,172307,1,2,0:0:0:0:
172,284,172414,1,0,0:0:0:0:
172,284,172521,1,2,0:0:0:0:
168,192,172735,1,0,0:0:0:0:
256,220,172950,1,2,0:0:0:0:
344,192,173164,6,0,L|392:232,2,58.4999973220826,2|2|2,0:0|2:0|2:0,2:0:0:0:
380,164,173485,1,0,0:0:0:0:
396,120,173592,1,2,0:0:0:0:
324,60,173807,1,2,0:0:0:0:
260,128,174021,5,2,0:0:0:0:
260,128,174128,1,0,0:0:0:0:
260,128,174235,1,2,0:0:0:0:
182,75,174450,1,2,0:0:0:0:
118,143,174664,1,2,0:0:0:0:
40,91,174878,1,0,0:0:0:0:
118,143,175092,1,2,0:0:0:0:
256,16,175307,5,2,3:0:0:0:
332,72,175521,1,2,0:0:0:0:
408,128,175735,1,2,0:0:0:0:
408,128,175842,1,0,0:0:0:0:
408,128,175950,1,2,0:0:0:0:
320,160,176164,1,0,0:0:0:0:
392,220,176378,1,2,0:0:0:0:
464,280,176592,6,0,L|532:248,2,58.4999973220826,2|2|2,0:0|2:0|0:0,0:0:0:0:
420,296,176914,1,0,0:0:0:0:
376,312,177021,1,2,0:0:0:0:
296,264,177235,1,2,0:0:0:0:
228,200,177450,5,2,0:0:0:0:
228,200,177557,1,0,0:0:0:0:
228,200,177664,1,2,0:0:0:0:
164,268,177878,1,2,3:0:0:0:
100,200,178092,1,2,0:0:0:0:
164,132,178307,1,0,0:0:0:0:
228,200,178521,1,2,0:0:0:0:
100,200,178735,6,0,P|73:136|101:64,1,135.000005149842,2|0,2:0|0:0,0:0:0:0:
425,75,179592,2,0,P|443:139|417:200,1,135.000005149842,2|0,2:0|0:0,0:0:0:0:
343,259,180235,1,0,0:0:0:0:
243,274,180450,6,0,P|209:261|183:225,1,67.5000025749208,2|0,0:0|0:0,0:0:0:0:
107,189,180878,2,0,P|96:218|102:263,1,67.5000025749208,2|0,0:0|0:0,0:0:0:0:
181,136,181307,1,2,0:0:0:0:
158,113,181414,1,0,0:0:0:0:
128,101,181521,1,2,0:0:0:0:
95,100,181628,1,2,0:0:0:0:
64,108,181735,2,0,P|28:95|6:68,1,67.5000025749208,2|0,0:0|0:0,0:0:0:0:
158,37,182164,6,0,B|209:49|289:9|289:9|249:45|265:109,1,236.250009012223,2|0,0:0|0:0,0:0:0:0:
410,101,183021,2,0,P|379:81|324:74,1,67.5000025749208,2|0,0:0|0:0,0:0:0:0:
402,197,183450,2,0,P|433:217|488:224,1,67.5000025749208,2|0,0:0|0:0,0:0:0:0:
350,74,183878,6,0,L|296:113,1,67.5000025749208,2|0,0:0|0:0,0:0:0:0:
164,164,184307,1,2,0:0:0:0:
144,148,184414,1,0,0:0:0:0:
132,124,184521,1,2,0:0:0:0:
132,96,184628,1,0,0:0:0:0:
140,72,184735,2,0,B|162:52|162:52|169:57|169:57|205:15,1,67.5000025749208,2|0,0:0|0:0,0:0:0:0:
324,34,185164,2,0,B|343:57|343:57|350:52|350:52|372:72,1,67.5000025749208,2|0,0:0|0:0,0:0:0:0:
372,273,185592,6,0,P|322:299|299:303,1,67.5000025749208,2|0,0:0|0:0,0:0:0:0:
200,301,186021,2,0,P|168:291|140:273,1,67.5000025749208,2|0,0:0|0:0,0:0:0:0:
215,156,186450,2,0,P|254:229|295:157,1,202.500007724762,2|2,0:0|0:0,0:0:0:0:
140,88,187307,6,0,L|65:143,1,67.5000025749208,2|0,0:0|0:0,0:0:0:0:
55,230,187735,2,0,P|91:238|132:268,1,67.5000025749208,2|0,0:0|0:0,0:0:0:0:
209,332,188164,1,2,0:0:0:0:
222,308,188271,1,2,0:0:0:0:
236,285,188378,2,0,L|276:264,1,33.7500012874604,2|0,0:0|0:0,0:0:0:0:
269,190,188592,2,0,L|354:148,1,67.5000025749208,2|2,0:0|0:0,0:0:0:0:
424,108,189021,6,0,P|376:98|328:20,1,135.000005149842,2|0,0:0|0:0,0:0:0:0:
512,96,189664,1,2,0:0:0:0:
512,96,189878,2,0,L|490:173,1,67.5000025749208,2|0,0:0|0:0,0:0:0:0:
452,276,190307,2,0,L|408:216,1,67.5000025749208,2|2,0:0|0:0,0:0:0:0:
362,142,190628,1,0,0:0:0:0:
362,142,190735,6,0,P|335:166|321:210,1,67.5000025749208,2|0,0:0|0:0,0:0:0:0:
275,302,191164,1,2,0:0:0:0:
252,287,191271,1,0,0:0:0:0:
228,273,191378,2,0,L|205:236,1,33.7500012874604,2|0,0:0|0:0,0:0:0:0:
138,166,191592,2,0,L|118:245,1,67.5000025749208,10|2,0:2|0:0,0:0:0:0:
50,358,192021,2,0,L|37:282,1,67.5000025749208,2|0,0:0|0:0,0:0:0:0:
32,108,192450,6,0,P|67:100|96:72,1,67.5000025749208,4|2,1:3|0:0,0:0:0:0:
208,108,192878,2,0,P|173:116|144:144,1,67.5000025749208,2|2,0:0|0:0,0:0:0:0:
175,295,193307,2,2,P|258:231|189:185,1,202.500007724762,4|0,1:0|0:0,0:3:0:0:
97,294,194164,6,0,P|100:324|130:362,1,67.5000025749208,2|0,0:0|0:0,0:0:0:0:
175,295,194485,1,2,0:0:0:0:
128,212,194592,6,0,P|65:214|13:272,1,135.000005149842,2|2,0:0|0:0,0:0:0:0:
10,131,195021,1,2,0:0:0:0:
30,113,195128,1,0,0:0:0:0:
50,95,195235,1,2,0:0:0:0:
70,77,195342,1,2,0:0:0:0:
92,57,195450,2,0,L|156:96,1,67.5000025749208,2|2,0:0|0:0,0:0:0:0:
269,154,195878,6,0,P|303:157|343:133,1,67.5000025749208,2|0,0:0|0:0,0:0:0:0:
311,54,196200,1,2,0:0:0:0:
311,54,196307,2,0,B|244:34,1,67.5000025749208,2|0,0:0|0:0,0:0:0:0:
112,34,196735,2,0,B|66:46,1,33.7500012874604,2|0,0:0|0:0,0:0:0:0:
110,118,196950,2,0,B|62:130,1,33.7500012874604,2|0,0:0|0:0,0:0:0:0:
111,201,197164,2,0,B|65:214,1,33.7500012874604,2|0,0:0|0:0,0:0:0:0:
105,291,197378,6,0,B|141:282|141:282|190:295,1,67.5000025749208,2|0,0:0|0:0,0:0:0:0:
222,232,197592,6,0,P|246:272|196:366,1,135.000005149842,2|0,0:0|0:0,0:0:0:0:
91,350,198021,1,2,0:0:0:0:
73,329,198128,1,0,0:0:0:0:
62,304,198235,1,2,0:0:0:0:
62,277,198342,1,2,0:0:0:0:
68,250,198450,6,0,L|-16:236,1,67.5000025749208,2|0,0:0|0:0,0:0:0:0:
211,183,198878,2,0,L|289:165,1,67.5000025749208,2|0,0:0|0:0,0:0:0:0:
57,44,199307,6,0,L|127:175,1,135,4|0,3:0|0:0,0:0:0:0:
147,231,199735,2,0,P|136:175|55:165,1,135,2|0,0:0|0:0,0:0:0:0:
61,284,200164,6,2,L|159:223,1,101.250003862381,4|0,1:0|0:0,0:3:0:0:
218,248,200592,6,2,P|174:284|150:224,1,135.000005149842,2|0,0:0|0:0,0:2:0:0:
298,109,201021,6,0,P|314:133|330:181,1,67.5000025749208,2|2,0:0|0:0,0:0:0:0:
392,210,201342,1,0,0:0:0:0:
392,210,201450,2,0,L|457:177,1,67.5000025749208,2|0,0:0|0:0,0:0:0:0:
365,47,201878,1,2,0:0:0:0:
338,47,201985,1,0,0:0:0:0:
311,53,202092,1,2,0:0:0:0:
286,65,202200,1,2,0:0:0:0:
264,81,202307,2,0,P|231:67|179:71,1,67.5000025749208,2|0,0:0|0:0,0:0:0:0:
53,246,202735,6,0,B|78:223|78:223|81:210|81:210|113:182,1,67.5000025749208
72,324,203164,2,0,P|38:326|2:307,1,67.5000025749208,2|2,0:0|0:0,0:0:0:0:
96,196,203592,6,2,B|151:179|151:179|189:190|224:245,1,135.000005149842,2|0,0:0|0:0,0:2:0:0:
261,305,204021,6,0,P|295:306|334:290,1,67.5000025749208,2|0,0:0|0:0,0:0:0:0:
470,315,204450,6,0,B|450:291|426:295|426:295|423:244|372:215,1,135.000005149842,2|0,0:0|0:0,0:0:0:0:
248,131,204878,5,2,0:0:0:0:
266,162,204985,1,0,0:0:0:0:
285,192,205092,2,0,L|337:168,1,45,2|0,0:0|0:0,0:0:0:0:
386,224,205307,2,0,L|467:185,1,90,2|2,0:0|0:0,0:0:0:0:
248,131,205735,2,0,L|166:170,1,90,2|2,0:0|0:0,0:0:0:0:
176,23,206164,6,0,L|102:57,2,67.5000025749208,4|0|2,3:3|0:0|0:2,0:0:0:0:
277,77,206807,1,2,0:0:0:0:
367,147,207021,2,2,P|250:188|170:116,1,236.250009012223,8|0,0:1|0:0,0:3:0:0:
196,49,207878,6,0,L|269:26,1,67.5000025749208,8|0,3:0|0:0,0:0:0:0:
295,20,208200,1,2,0:0:0:0:
332,11,208307,1,2,0:0:0:0:
442,42,208521,1,2,0:0:0:0:
491,145,208735,2,0,L|505:107,2,33.7500012874604,8|0|2,0:1|0:0|0:0,0:0:0:0:
470,198,209057,1,2,0:0:0:0:
470,198,209164,2,0,P|455:237|431:266,1,67.5000025749208,2|0,0:0|0:0,0:0:0:0:
305,348,209592,6,2,B|269:328|257:336|257:336|237:320|237:320|209:336|169:300,1,135.000005149842,6|0,3:0|0:0,0:2:0:0:
29,291,210021,6,0,P|57:267|97:255,1,67.5000025749208,2|0,0:0|0:0,0:0:0:0:
208,191,210450,1,8,0:1:0:0:
184,175,210557,1,0,0:0:0:0:
164,159,210664,1,2,0:0:0:0:
140,143,210771,1,0,0:0:0:0:
120,127,210878,2,0,P|100:103|96:55,1,67.5000025749208,2|0,0:0|0:0,0:0:0:0:
192,79,211307,6,0,B|240:99|272:131|272:131|272:79,1,135,4|0,3:0|0:0,0:0:0:0:
352,64,211735,1,2,0:0:0:0:
352,88,211842,1,2,0:0:0:0:
354,110,211950,2,0,P|374:126|414:138,1,45,2|0,0:0|0:0,0:0:0:0:
460,184,212164,2,0,P|477:130|456:84,1,90,8|2,0:1|0:0,0:0:0:0:
269,83,212592,6,2,B|270:119|270:119|255:147|255:147|277:176|277:176|278:220,1,135.000005149842,2|0,0:0|0:0,0:2:0:0:
420,356,213021,6,0,B|388:316|340:300|340:300|284:324,1,135.000005149842,4|2,3:0|0:0,0:0:0:0:
180,344,213664,2,0,L|126:318,1,33.7500012874604,2|0,0:0|0:0,0:0:0:0:
52,313,213878,2,2,P|146:295|108:183,1,236.250009012223,8|0,0:1|0:0,0:3:0:0:
69,100,214735,6,0,P|105:129|175:155,1,90,4|2,3:0|0:0,0:0:0:0:
226,149,215057,1,2,0:0:0:0:
226,149,215164,2,0,P|266:129|301:101,1,90,2|2,0:0|0:0,0:0:0:0:
400,128,215592,6,0,L|435:156,1,45,8|2,0:1|0:0,0:0:0:0:
388,212,215807,2,0,L|422:240,1,45,2|2,0:0|0:0,0:0:0:0:
381,300,216021,2,0,B|433:344|433:344|407:362,1,90,2|2,0:0|0:0,0:0:0:0:
293,299,216450,6,0,B|240:254|240:254|267:237,1,90,4|0,3:0|0:0,0:0:0:0:
328,108,216878,2,0,L|240:172,1,90,2|2,0:0|0:0,0:0:0:0:
78,110,217307,6,0,B|118:146|156:136|156:136|256:64,1,202.500007724762,8|0,0:1|0:0,0:0:0:0:
352,44,217735,2,0,P|265:69|171:21,1,168.75,2|2,0:0|0:0,0:0:0:0:
352,44,218164,6,0,B|388:80|388:80|409:150,1,90,2|2,0:0|0:0,0:0:0:0:
461,240,218592,2,0,L|472:284,1,45,2|0,0:0|0:0,0:0:0:0:
392,264,218807,2,0,L|377:217,1,45,2|0,0:0|0:0,0:0:0:0:
310,248,219021,2,0,L|333:336,1,90,2|0,0:0|0:0,0:0:0:0:
179,336,219450,2,0,L|201:248,1,90,2|0,0:0|0:0,0:0:0:0:
256,192,219771,1,2,0:0:0:0:
256,88,219878,5,4,1:0:0:0:
396,116,233592,6,0,P|340:108|308:72,1,90,8|2,0:3|0:0,0:0:0:0:
260,172,234021,1,8,0:0:0:0:
236,196,234128,1,0,0:0:0:0:
268,204,234235,1,2,0:0:0:0:
195,86,234450,2,0,P|160:113|116:116,1,90,4|2,0:3|0:0,0:0:0:0:
116,267,234878,2,0,P|160:270|195:297,1,90,8|2,0:0|0:0,0:0:0:0:
256,348,235200,1,2,0:0:0:0:
316,297,235307,6,0,P|351:270|395:267,1,90,4|2,0:3|0:0,0:0:0:0:
412,120,235735,1,8,0:0:0:0:
388,128,235842,1,0,0:0:0:0:
364,136,235950,1,2,0:0:0:0:
208,176,236164,2,0,B|164:188|164:188|104:172,1,90,4|2,0:3|0:0,0:0:0:0:
180,56,236592,2,0,B|224:44|224:44|284:60,1,90,8|2,0:0|0:0,0:0:0:0:
48,228,237021,6,0,P|36:184|48:132,1,90,4|2,0:3|0:0,0:0:0:0:
216,96,237450,1,8,0:0:0:0:
187,112,237557,1,0,0:0:0:0:
186,79,237664,1,2,0:0:0:0:
204,312,237878,2,0,L|108:296,1,90,4|2,0:3|0:0,0:0:0:0:
308,232,238307,2,0,L|404:216,1,90,8|2,0:0|0:0,0:0:0:0:
448,160,238628,1,2,0:0:0:0:
444,84,238735,6,0,P|396:104|376:144,1,90,4|2,0:3|0:0,0:0:0:0:
239,179,239164,2,0,P|266:213|307:231,1,90,8|2,0:0|0:0,0:0:0:0:
200,56,239592,2,0,P|156:76|128:116,1,90,4|2,0:3|0:0,0:0:0:0:
239,179,240021,2,0,P|283:159|311:119,1,90,8|2,0:0|0:0,0:0:0:0:
112,276,240450,6,0,L|192:332,1,90,4|2,0:3|0:0,0:0:0:0:
273,193,240878,1,2,0:0:0:0:
246,172,240985,1,0,0:0:0:0:
243,204,241092,1,2,0:0:0:0:
326,327,241307,2,0,L|400:276,1,90,2|2,0:0|0:0,0:0:0:0:
404,80,241735,1,2,0:0:0:0:
380,92,241842,1,0,0:0:0:0:
356,104,241950,1,2,0:0:0:0:
332,116,242057,1,2,0:0:0:0:
307,126,242164,6,0,P|291:174|295:238,1,90,4|2,0:3|0:0,0:0:0:0:
165,116,242592,1,0,0:0:0:0:
136,104,242700,1,0,0:0:0:0:
112,92,242807,1,2,0:0:0:0:
40,60,243021,5,2,0:0:0:0:
165,116,243235,1,2,0:0:0:0:
40,205,243450,1,2,0:0:0:0:
165,261,243664,1,2,0:0:0:0:
256,192,243878,12,4,247307,0:1:0:0:
256,192,257592,12,0,260378,0:0:0:0:
294,81,260485,6,0,L|330:45,2,33.7500012874604,0|0|0,0:0|0:0|1:2,0:0:0:0:
257,98,260700,1,8,0:0:0:0:
221,79,260807,1,8,0:0:0:0:
156,328,261021,6,0,B|188:280|188:280|196:240,1,90,4|2,3:0|0:0,0:0:0:0:
316,249,261450,2,0,B|320:284|320:284|356:328,1,90,0|2,1:2|0:0,0:0:0:0:
356,136,261878,2,0,P|343:93|316:57,1,90,0|2,1:2|0:0,0:0:0:0:
195,57,262307,2,0,P|168:93|156:136,1,90,0|2,1:2|0:0,0:0:0:0:
64,192,262735,6,0,P|108:248|144:264,1,90,0|2,1:2|0:0,0:0:0:0:
212,332,263164,2,0,P|256:340|320:324,1,90,0|2,1:2|0:0,0:0:0:0:
388,256,263592,2,0,P|424:230|448:192,1,90,0|2,1:2|0:0,0:0:0:0:
355,135,264021,2,0,P|343:93|316:57,1,90,0|2,1:2|0:0,0:0:0:0:
72,68,264450,6,0,L|172:108,1,90,4|2,1:3|0:0,0:0:0:0:
316,57,264878,2,0,L|232:23,1,90,0|2,1:0|0:0,0:0:0:0:
72,68,265307,2,0,P|80:128|52:176,1,90,0|2,1:2|0:0,0:0:0:0:
15,306,265735,2,0,L|102:350,1,90,0|2,1:0|0:0,0:0:0:0:
240,332,266164,6,0,P|312:320|392:334,1,135,0|2,1:2|0:0,0:0:0:0:
440,336,266592,2,0,P|372:328|412:256,1,180,0|0,1:0|1:2,0:0:0:0:
480,192,267235,1,2,0:0:0:0:
480,88,267450,2,0,L|340:156,1,135,0|2,1:0|0:0,0:0:0:0:
324,208,267878,6,0,B|360:148|360:148|320:64,1,135.000005149842,4|2,1:2|1:2,0:0:0:0:
120,100,268307,6,0,P|150:116|184:124,1,45,0|0,1:3|0:0,0:0:0:0:
143,207,268521,2,0,P|177:208|215:199,1,45,0|0,1:2|0:0,0:0:0:0:
212,292,268735,2,0,P|243:278|273:253,1,45,0|0,1:3|0:0,0:0:0:0:
324,208,268950,1,0,1:0:0:0:
120,100,269164,1,0,1:3:0:0:
188,207,269378,1,2,1:2:0:0:
236,16,269592,6,0,L|184:52,1,45,0|0,1:3|0:0,0:0:0:0:
120,100,269807,1,2,1:2:0:0:
212,292,270021,1,0,1:3:0:0:
252,120,270235,1,2,1:2:0:0:
351,254,270450,6,0,L|395:298,1,45,0|0,1:3|0:0,0:0:0:0:
447,347,270664,1,2,1:2:0:0:
408,120,270878,1,0,1:3:0:0:
351,254,271092,1,2,1:2:0:0:
340,40,271307,6,0,B|322:32|322:32|292:32,1,45,0|0,1:0|1:0,0:0:0:0:
204,116,271521,2,0,L|204:161,1,45,0|0,1:0|1:0,0:0:0:0:
308,161,271735,2,0,L|308:116,1,45,0|0,1:0|1:0,0:0:0:0:
215,32,271950,2,0,B|190:32|190:32|172:40,1,45,0|0,1:0|1:0,0:0:0:0:
128,116,272164,6,0,B|128:152|128:152|128:208|173:234,1,135,0|0,1:2|0:3,0:3:0:0:
338,234,272592,2,0,B|384:208|384:152|384:152|384:116,1,135,0|0,1:2|0:3,0:3:0:0:
256,36,273021,5,2,0:0:0:0:
256,48,273450,1,2,0:0:0:0:
256,60,273878,1,2,0:0:0:0:
406,287,274307,6,2,P|407:218|394:285,1,202.500007724762,2|0,1:0|0:0,0:3:0:0:
506,218,274735,6,0,P|445:155|360:157,1,175.499991966248,4|0,1:0|0:0,0:3:0:0:
296,184,275164,6,0,B|272:204|264:236|264:236|216:168|132:172,1,202.500007724762,2|0,0:0|0:0,0:0:0:0:
72,240,275592,2,2,B|112:252|112:252|156:240|184:252|204:284,1,135.000005149842,8|2,1:2|0:0,0:3:0:0:
352,140,276021,2,0,P|316:116|288:112,1,67.5000025749208,2|0,0:0|0:0,0:0:0:0:
145,171,276235,2,0,P|180:160|209:135,1,67.5000025749208,2|0,0:0|0:0,0:0:0:0:
80,56,276450,6,2,L|40:268,1,202.500007724762,8|2,1:2|0:0,0:3:0:0:
180,132,276878,2,0,L|219:57,1,67.5000025749208,2|0,0:0|0:0,0:0:0:0:
304,72,277092,2,0,L|336:132,1,67.5000025749208,2|0,0:0|0:0,0:0:0:0:
440,324,277307,2,2,P|408:232|456:132,1,202.500007724762,8|2,1:2|0:0,0:3:0:0:
408,32,277735,2,0,P|396:68|376:104,1,67.5000025749208,2|0,0:0|0:0,0:0:0:0:
278,134,277950,2,0,P|290:98|310:62,1,67.5000025749208,2|0,0:0|0:0,0:3:0:0:
392,192,278164,5,0,1:0:0:0:
356,216,278271,1,0,0:0:0:0:
320,240,278378,1,2,0:0:0:0:
284,260,278485,1,2,0:0:0:0:
296,220,278593,5,2,0:0:0:0:
276,184,278700,1,0,0:0:0:0:
236,184,278807,1,2,0:0:0:0:
216,220,278914,1,2,0:0:0:0:
232,264,279021,6,2,B|200:268|200:268|168:252|168:252|132:252,1,101.250003862381,8|2,1:2|0:0,0:3:0:0:
32,176,279450,6,2,B|163:176|163:176|208:172|236:144,1,202.500007724762,6|2,0:3|0:0,3:0:0:0:
208,76,279878,6,0,P|176:84|140:76,1,67.5000025749208,2|2,1:2|0:0,0:0:0:0:
176,8,280092,1,2,0:0:0:0:
212,24,280200,1,0,0:0:0:0:
248,40,280307,1,2,0:0:0:0:
284,60,280414,1,2,0:0:0:0:
255,92,280521,1,2,1:2:0:0:
223,126,280628,1,2,0:0:0:0:
189,161,280735,6,0,L|117:241,1,90.0000034332277,8|2,1:2|0:0,0:0:0:0:
143,312,281021,1,2,0:0:0:0:
225,332,281164,2,0,L|296:260,1,90.0000034332277,2|2,0:0|0:0,0:0:0:0:
344,204,281450,1,2,1:2:0:0:
388,136,281592,6,2,P|347:97|440:86,1,202.500007724762,4|0,0:0|0:0,0:3:0:0:
344,204,282021,6,0,P|284:155|270:77,1,135,2|0,0:0|0:0,0:0:0:0:
127,188,282450,6,2,P|224:187|267:96,1,202.500007724762,8|0,1:2|0:0,3:0:0:0:
175,108,282878,2,0,L|110:67,1,67.5000025749208,2|0,0:0|0:0,0:0:0:0:
127,188,283092,2,0,L|59:171,1,67.5000025749208,2|0,0:0|0:0,0:0:0:0:
267,101,283307,6,2,L|475:148,1,202.500007724762,8|2,1:2|0:0,3:0:0:0:
464,145,283735,2,0,P|448:177|420:197,1,67.5000025749208,2|0,0:2|0:0,0:0:0:0:
288,243,283950,2,0,P|304:211|332:191,1,67.5000025749208,2|0,0:0|0:0,0:0:0:0:
467,264,284164,6,0,L|406:303,1,67.5000025749208,8|0,1:2|0:0,0:0:0:0:
381,317,284378,1,2,0:0:0:0:
350,330,284485,1,0,0:0:0:0:
318,342,284592,1,2,0:0:0:0:
294,314,284700,1,0,0:0:0:0:
263,328,284807,1,2,0:0:0:0:
231,338,284914,1,0,0:0:0:0:
203,317,285021,6,2,B|139:329|139:329|71:317,1,135.000005149842,0|2,1:3|0:0,3:0:0:0:
163,160,285450,2,2,B|231:148|231:148|295:160,1,135.000005149842,2|2,0:0|0:0,0:3:0:0:
54,139,285878,5,8,1:2:0:0:
70,119,285985,1,0,0:0:0:0:
90,99,286092,1,2,0:0:0:0:
110,79,286200,1,0,0:0:0:0:
130,59,286307,5,2,0:0:0:0:
161,70,286414,1,0,0:0:0:0:
194,73,286521,1,2,0:0:0:0:
224,66,286628,1,0,0:0:0:0:
255,53,286735,6,0,B|299:45|299:45|327:5,2,90.0000034332277,8|2|2,3:0|0:0|0:0,0:0:0:0:
208,140,287164,2,0,B|164:148|164:148|136:188,2,90.0000034332277,8|2|2,3:0|0:0|0:0,0:0:0:0:
344,172,287592,5,2,1:2:0:0:
360,204,287700,1,0,0:0:0:0:
356,244,287807,1,2,3:2:0:0:
332,272,287914,1,0,3:2:0:0:
286,291,288021,1,2,0:0:0:0:
232,280,288128,1,0,0:0:0:0:
192,236,288235,1,2,3:2:0:0:
204,168,288342,1,0,3:2:0:0:
260,130,288450,6,2,P|146:131|192:236,1,270,4|0,1:2|0:0,0:3:0:0:
204,168,288878,6,0,L|384:47,1,202.500007724762,10|0,1:2|0:0,0:3:0:0:
319,0,289307,2,0,L|243:50,1,67.5000025749208,2|0,1:2|0:0,0:0:0:0:
372,55,289521,2,0,L|429:18,1,67.5000025749208,2|0,0:0|0:0,0:0:0:0:
512,48,289735,2,2,B|464:92|464:92|509:145|481:226,1,202.500007724762,8|0,1:2|0:0,3:0:0:0:
282,221,290164,6,0,B|334:225|382:209|382:209|422:221|482:221,1,202.500007724762,2|2,1:2|0:0,0:0:0:0:
352,296,290592,2,0,B|326:315|326:315|275:325,1,67.5000025749208,10|0,1:2|0:0,0:0:0:0:
212,320,290807,2,0,B|178:314|178:314|152:295,1,67.5000025749208,2|0,0:0|0:0,0:0:0:0:
101,206,291021,6,2,P|194:175|281:221,1,202.500007724762,0|2,1:2|0:0,0:3:0:0:
151,294,291450,2,0,L|60:287,1,67.5000025749208,10|0,1:2|0:0,0:0:0:0:
48,165,291664,2,0,L|101:207,1,67.5000025749208,2|0,0:0|0:0,0:0:0:0:
194,116,291878,6,0,P|148:120|88:108,2,90.0000034332277,0|2|0,1:2|0:0|0:0,0:0:0:0:
318,116,292307,2,0,P|368:124|424:112,2,90.0000034332277,8|2|0,1:2|0:0|0:2,0:0:0:0:
257,58,292735,5,0,1:2:0:0:
234,82,292842,1,2,0:0:0:0:
228,115,292950,1,2,0:0:0:0:
238,146,293057,1,0,0:0:0:0:
246,178,293164,5,8,1:2:0:0:
226,205,293271,1,0,0:0:0:0:
220,238,293378,1,2,0:0:0:0:
228,270,293485,1,2,0:0:0:0:
299,233,293592,6,2,B|334:242|361:219|361:219|385:240|427:235,1,135.000005149842,0|2,1:2|0:0,0:3:0:0:
211,159,294021,2,2,B|176:150|149:173|149:173|125:152|83:157,1,135.000005149842,10|0,1:2|0:0,0:3:0:0:
245,85,294450,1,0,1:2:0:0:
273,102,294557,1,0,0:0:0:0:
291,129,294664,1,2,0:0:0:0:
296,162,294771,1,2,0:0:0:0:
262,236,294878,5,8,1:2:0:0:
234,219,294985,1,0,0:0:0:0:
216,192,295092,1,2,0:0:0:0:
211,159,295199,1,2,1:2:0:0:
280,53,295307,6,2,P|364:70|424:187,1,202.500007724762,4|0,1:2|0:0,3:0:0:0:
389,236,295735,2,0,P|292:252|215:191,1,202.500007724762,8|0,1:2|0:0,0:0:0:0:
177,264,296164,6,2,P|294:326|424:302,1,270,0|0,1:2|0:0,3:0:0:0:
389,236,296592,2,2,P|496:276|428:380,1,270,8|2,1:2|0:0,0:3:0:0:
389,236,297021,6,2,B|342:197|342:197|356:158|332:102,1,135.000005149842,0|2,1:2|0:0,3:0:0:0:
69,138,297450,2,0,P|86:158|126:176,1,67.5000025749208,8|0,1:2|0:0,0:0:0:0:
102,249,297664,2,0,L|51:293,1,67.5000025749208,2|0,0:0|0:0,0:0:0:0:
92,368,297878,2,2,B|172:300|172:300|196:352|260:352,1,202.500007724762,0|2,1:2|0:0,0:3:0:0:
304,240,298307,2,0,P|272:250|247:272,1,67.5000025749208,10|0,1:2|0:0,0:0:0:0:
372,289,298521,2,0,P|403:278|429:257,1,67.5000025749208,2|0,0:0|0:0,0:0:0:0:
443,118,298735,6,0,P|399:129|357:118,2,90.0000034332277,0|2|0,1:2|0:0|0:0,0:0:0:0:
311,35,299164,2,0,P|355:25|399:35,2,90.0000034332277,8|2|2,1:2|0:0|0:0,0:0:0:0:
238,140,299592,6,0,B|296:193,1,67.5000025749208,0|0,1:0|0:0,0:0:0:0:
314,206,299807,1,2,0:0:0:0:
340,226,299914,1,2,0:0:0:0:
382,230,300021,5,8,1:2:0:0:
408,251,300128,1,0,0:0:0:0:
433,273,300235,1,2,0:0:0:0:
459,294,300342,1,2,0:0:0:0:
487,315,300450,6,2,P|374:345|381:229,1,270,6|0,1:2|0:0,0:3:0:0:
420,290,300878,6,0,L|296:386,1,135.000005149842,2|0,0:0|0:0,0:0:0:0:
101,316,301307,1,0,1:2:0:0:
129,298,301414,1,0,0:0:0:0:
150,272,301521,1,2,0:0:0:0:
163,241,301628,1,0,0:0:0:0:
168,207,301735,5,0,0:0:0:0:
163,173,301842,1,0,0:0:0:0:
148,142,301950,1,2,0:0:0:0:
123,118,302057,1,0,0:0:0:0:
48,86,302164,6,2,B|72:132|122:117|122:117|128:196|216:228|296:200|304:108,1,360,4|2,0:0|0:0,0:3:0:0:
208,108,303235,1,2,0:0:0:0:
304,280,303450,1,2,0:0:0:0:
392,104,303664,1,2,0:0:0:0:
303,279,303878,6,2,P|401:358|499:281,1,270,4|2,0:0|0:0,0:3:0:0:
445,194,304735,2,0,P|412:226|401:282,1,90,2|0,0:0|0:0,0:0:0:0:
500,280,305164,1,2,0:0:0:0:
329,90,305378,1,8,3:0:0:0:
236,311,305592,6,0,P|305:304|359:241,1,135.000005149842,4|0,0:0|0:0,0:0:0:0:
330,190,305914,2,0,L|390:387,1,202.500007724762,4|4,1:3|0:3,0:0:0:0:
462,208,306450,1,0,3:0:0:0:
224,68,306878,6,0,P|164:100|132:164,1,135.000005149842,2|0,0:0|0:0,0:0:0:0:
280,240,307307,6,2,P|288:160|216:208,1,202.500007724762,4|2,0:0|0:0,0:3:0:0:
340,301,308164,6,2,P|388:226|382:138,1,180,2|2,0:0|0:0,0:3:0:0:
137,104,308807,1,2,0:0:0:0:
137,104,309021,6,2,B|186:154|256:120|256:120|332:80|382:138,1,270.000010299683,4|0,0:0|0:0,0:3:0:0:
208,44,310307,1,2,0:0:0:0:
312,196,310521,1,8,3:0:0:0:
312,196,310628,1,2,0:0:0:0:
312,196,310735,6,2,B|260:220|208:184|208:184|124:220|36:184,1,270,4|2,0:0|0:0,0:3:0:0:
8,332,311592,2,0,P|93:309|178:337,1,180,2|2,0:0|0:0,0:0:0:0:
292,352,312235,1,2,1:2:0:0:
324,332,312342,1,0,0:0:0:0:
354,307,312450,6,2,B|366:275|398:274|398:274|342:207|390:139,1,202.500007724762,4|4,0:0|1:3,0:3:0:0:
484,144,312878,2,0,L|448:216,1,67.5000025749208,2|0,0:0|0:0,0:0:0:0:
388,143,313092,2,0,L|419:83,1,67.5000025749208,4|0,1:3|0:0,0:0:0:0:
396,272,313307,5,2,0:0:0:0:
304,48,313521,1,2,0:0:0:0:
260,160,313735,1,2,0:0:0:0:
216,48,313950,1,2,0:0:0:0:
115,271,314164,2,2,B|60:197|121:129|121:129|59:163,1,202.500007724762,4|0,1:2|0:0,0:3:0:0:
180,204,314592,2,0,P|204:260|292:288,1,135.000005149842,2|2,0:0|0:0,0:0:0:0:
197,82,315021,6,0,L|63:162,1,135.000005149842,2|2,0:0|0:0,0:0:0:0:
276,194,315450,2,0,L|392:125,1,135.000005149842,2|2,0:0|0:0,0:0:0:0:
103,44,315878,5,4,0:3:0:0:
256,316,316735,1,4,0:3:0:0:
409,44,317592,1,4,3:0:0:0:
136,288,318450,1,4,0:3:0:0:
256,32,319307,5,4,0:3:0:0:
376,288,320164,1,4,0:3:0:0:
64,188,321021,1,4,0:3:0:0:
376,96,321878,1,4,0:3:0:0:
100,268,322735,5,4,0:3:0:0:
172,124,323164,1,4,0:3:0:0:
252,268,323592,1,4,0:3:0:0:
332,120,324021,1,4,0:3:0:0:
412,268,324450,5,4,3:3:0:0:
276,184,324878,1,4,0:3:0:0:
172,308,325307,1,4,0:3:0:0:
104,268,325521,1,4,0:3:0:0:
40,220,325735,1,4,0:3:0:0:
257,63,326164,5,4,3:3:0:0:
333,120,326378,1,4,0:3:0:0:
302,209,326592,1,4,0:3:0:0:
208,208,326807,1,4,0:3:0:0:
180,117,327021,1,4,0:3:0:0:
320,340,327235,5,2,0:0:0:0:
256,140,327450,1,2,0:0:0:0:
192,340,327664,1,2,0:0:0:0:
196,72,327878,2,0,P|256:48|320:76,1,135.000005149842,2|2,0:0|0:0,0:0:0:0:
264,220,328735,2,2,P|267:287|252:218,1,202.500007724762,2|2,0:0|0:0,0:3:0:0:
68,160,329592,6,2,B|112:192|164:160|164:160|256:96|356:160|356:160|408:192|460:164,1,405.000015449525,4|2,0:0|0:0,0:3:0:0:
318,239,330450,2,0,P|257:215|196:240,1,135.000005149842,8|2,0:0|0:0,0:0:0:0:
192,352,330878,2,0,P|253:375|315:352,1,135.000005149842,2|2,0:0|0:0,0:0:0:0:
28,61,331307,6,2,B|54:88|57:114|57:114|97:126|97:126|86:180|154:244|196:240,1,270,0|2,1:2|0:0,0:3:0:0:
318,239,332164,2,2,B|359:243|427:179|416:125|416:125|456:113|456:113|459:87|485:60,1,270,8|2,0:0|0:0,0:3:0:0:
198,111,333021,6,0,B|256:100|256:100|312:116,1,116.999994644165,0|2,1:2|0:0,0:0:0:0:
318,239,333450,2,0,B|262:255|262:255|206:240,1,116.999994644165,2|2,0:0|0:0,0:0:0:0:
80,96,333878,2,2,P|185:116|97:292,1,350.999983932496,8|0,0:0|0:0,0:3:0:0:
236,64,334735,6,0,P|264:96|288:156,1,90,0|2,1:2|0:0,0:0:0:0:
336,284,335164,2,0,P|340:240|360:188,1,90,2|2,0:0|0:0,0:0:0:0:
184,148,335592,2,0,L|252:236,1,90,8|2,0:0|0:0,0:0:0:0:
242,79,336021,1,8,0:0:0:0:
174,53,336128,1,0,3:2:0:0:
104,69,336235,1,8,1:3:0:0:
184,148,336450,6,2,P|302:143|300:11,1,270,4|2,0:0|0:0,0:3:0:0:
204,72,337307,2,2,B|136:64|108:132|108:132|64:216|-12:208,1,270,8|2,0:0|0:0,0:3:0:0:
0,96,338164,2,2,B|68:124|68:124|120:232|120:232|152:256|196:228,1,270,0|2,1:2|0:0,0:3:0:0:
359,343,339021,2,2,B|316:296|236:304|236:304|292:252|257:180,1,270,8|2,0:0|0:0,0:3:0:0:
144,36,339878,6,2,B|176:84|208:84|208:84|144:148|208:212|208:212|256:180|256:180|304:212|304:212|368:148|304:84|304:84|336:84|368:36,1,576,0|0,1:2|1:0,0:3:0:0:
438,110,341807,1,2,0:0:0:0:
405,209,342021,2,0,P|382:249|342:293,1,72,2|0,0:0|0:0,0:0:0:0:
206,211,342450,2,0,P|234:189|266:172,1,72,8|0,0:0|0:0,0:0:0:0:
141,356,342878,1,0,1:2:0:0:
105,350,342985,1,8,0:0:0:0:
7,244,343200,1,8,0:0:0:0:
16,206,343307,6,0,B|47:102,1,90,4|0,2:0|0:0,0:0:0:0:
73,10,343735,1,2,0:0:0:0:
105,25,343842,1,0,0:0:0:0:
137,40,343950,1,2,0:0:0:0:
240,103,344164,2,0,P|257:53|249:0,1,90,8|2,0:0|0:0,0:0:0:0:
112,148,344592,1,2,0:0:0:0:
131,178,344700,1,0,0:0:0:0:
159,200,344807,1,2,0:0:0:0:
192,211,344914,1,2,0:0:0:0:
227,216,345021,6,0,B|343:208,1,90,0|2,1:2|0:0,0:0:0:0:
313,73,345450,1,2,0:0:0:0:
277,80,345557,1,0,0:0:0:0:
241,87,345664,1,0,0:0:0:0:
116,150,345878,2,0,P|104:102|115:44,1,90,8|2,0:0|0:0,0:0:0:0:
261,17,346307,2,0,L|326:28,1,45,2|0,0:0|0:0,0:0:0:0:
365,97,346521,2,0,L|321:102,1,45,2|0,0:0|0:0,0:0:0:0:
116,150,346735,6,0,B|168:155|168:155|216:192,1,107.999996704102,4|2,0:0|0:0,0:0:0:0:
128,313,347164,1,2,0:0:0:0:
125,275,347271,1,0,0:0:0:0:
135,238,347378,1,2,0:0:0:0:
297,234,347592,2,0,P|311:294|285:359,1,107.999996704102,8|2,0:0|0:0,0:0:0:0:
68,263,348021,1,2,0:0:0:0:
84,223,348128,1,0,0:0:0:0:
110,189,348235,1,2,0:0:0:0:
143,161,348342,1,2,0:0:0:0:
184,148,348450,6,0,L|318:150,1,107.999996704102,0|2,1:2|0:0,0:0:0:0:
287,309,348878,1,2,0:0:0:0:
265,277,348985,1,0,0:0:0:0:
246,245,349092,1,2,0:0:0:0:
184,148,349307,6,0,P|135:186|61:84,1,202.500007724762,8|2,0:0|0:0,0:0:0:0:
71,67,349735,6,0,B|126:81|126:81|188:60,1,107.999996704102,2|2,0:0|0:0,0:0:0:0:
314,145,350164,6,0,B|248:130|248:130|157:155,1,135.000005149842,6|2,1:0|0:0,0:0:0:0:
396,111,350592,5,2,0:0:0:0:
370,82,350700,1,0,0:0:0:0:
336,63,350807,1,2,0:0:0:0:
260,215,351021,2,0,B|309:228|309:228|382:215,1,107.999996704102,8|2,0:0|0:0,0:0:0:0:
257,66,351450,1,2,0:0:0:0:
225,87,351557,1,0,0:0:0:0:
201,116,351664,1,2,0:0:0:0:
184,150,351771,1,2,0:0:0:0:
176,186,351878,6,0,P|175:237|221:295,1,107.999996704102,0|2,1:2|0:0,0:0:0:0:
365,217,352307,1,2,0:0:0:0:
341,187,352414,1,0,0:0:0:0:
315,159,352521,1,2,0:0:0:0:
334,309,352735,2,0,P|387:312|438:277,1,107.999996704102,8|2,0:0|0:0,0:0:0:0:
261,155,353164,2,0,P|249:180|230:199,1,53.9999983520508,2|0,0:0|0:0,0:0:0:0:
145,213,353378,2,0,P|131:236|122:261,1,53.9999983520508,2|0,0:0|0:0,0:0:0:0:
204,343,353592,6,0,B|268:359|268:359|344:343,1,135.000005149842,0|2,1:2|0:0,0:0:0:0:
437,248,354021,1,2,0:0:0:0:
419,214,354128,1,0,0:0:0:0:
404,179,354235,1,2,0:0:0:0:
316,41,354450,2,0,B|259:32|259:32|184:42,1,107.999996704102,8|2,0:0|0:0,0:0:0:0:
56,193,354878,1,2,0:0:0:0:
77,223,354985,1,0,0:0:0:0:
98,253,355092,1,2,0:0:0:0:
121,282,355200,1,2,0:0:0:0:
152,303,355307,6,0,B|214:302|214:302|274:274,1,107.999996704102,0|0,1:2|0:0,0:0:0:0:
211,78,355735,5,2,0:0:0:0:
176,75,355842,1,0,0:0:0:0:
145,86,355950,1,2,0:0:0:0:
166,210,356164,2,0,L|187:160,1,53.9999983520508,2|0,0:0|0:0,0:0:0:0:
165,36,356379,2,0,L|144:86,1,53.9999983520508,2|0,0:0|0:0,0:0:0:0:
258,208,356592,2,0,L|279:158,1,53.9999983520508,2|0,0:0|0:0,0:0:0:0:
257,34,356807,2,0,L|236:84,1,53.9999983520508,2|0,0:0|0:0,0:0:0:0:
258,207,357021,5,4,0:0:0:0:
371,62,357235,1,2,0:0:0:0:
464,248,357450,1,2,0:0:0:0:
464,248,357557,1,0,0:0:0:0:
464,248,357664,1,2,0:0:0:0:
448,96,357878,6,0,P|351:32|265:65,1,202.500007724762,8|0,0:0|0:0,0:0:0:0:
239,152,358735,2,0,B|235:213|183:237|183:237|121:264|117:334,1,202.500007724762,0|2,1:2|0:0,0:0:0:0:
206,323,359592,2,0,L|272:337,1,67.5000025749208,8|2,0:0|0:0,0:0:0:0:
154,157,360021,2,0,L|87:142,1,67.5000025749208,2|2,0:0|0:0,0:0:0:0:
260,188,360450,6,0,P|300:120|424:72,1,202.500007724762,0|2,1:2|0:0,0:0:0:0:
400,160,361307,2,0,P|372:168|340:216,1,67.5000025749208,8|0,0:0|0:0,0:0:0:0:
260,188,361735,2,0,P|237:163|205:151,1,67.5000025749208,2|2,0:0|0:0,0:0:0:0:
149,263,362164,6,0,P|207:151|114:66,1,270.000010299683,0|8,1:2|0:0,0:0:0:0:
106,170,363235,1,2,0:0:0:0:
149,263,363450,2,0,L|200:324,1,67.5000025749208,2|2,0:2|0:0,0:0:0:0:
319,314,363878,2,0,L|363:263,1,67.5000025749208,0|0,1:2|0:0,0:0:0:0:
448,232,364307,1,2,0:0:0:0:
448,232,364414,1,0,0:0:0:0:
448,232,364521,1,2,0:0:0:0:
352,120,364735,6,0,P|259:93|143:130,1,202.500007724762,8|2,0:0|0:0,0:0:0:0:
157,272,365592,2,0,B|195:265|195:265|258:300|316:265|316:265|356:274,1,202.500007724762,0|2,1:2|0:0,0:0:0:0:
228,189,366450,2,0,P|260:203|292:178,1,67.5000025749208,8|2,0:0|0:0,0:0:0:0:
285,112,366878,2,0,P|256:97|227:112,1,67.5000025749208,2|2,0:0|0:0,0:0:0:0:
287,188,367307,6,0,L|361:47,1,135.000005149842,0|2,1:2|0:0,0:0:0:0:
256,51,367950,1,2,0:0:0:0:
165,69,368164,2,0,L|216:150,1,67.5000025749208,8|2,0:0|0:0,0:0:0:0:
162,231,368592,2,0,L|127:174,1,67.5000025749208,2|2,0:0|0:0,0:0:0:0:
139,103,368914,1,0,0:0:0:0:
139,103,369021,6,0,P|177:110|204:128,1,67.5000025749208,0|0,1:2|0:0,0:0:0:0:
162,231,369450,1,2,0:0:0:0:
162,231,369557,1,0,0:0:0:0:
162,231,369664,2,0,P|124:224|97:206,1,67.5000025749208,2|8,0:0|0:0,0:0:0:0:
139,103,370092,1,2,0:0:0:0:
255,234,370307,2,0,L|213:306,1,67.5000025749208,2|2,0:0|0:0,0:0:0:0:
269,372,370735,6,0,B|309:304|309:304|342:287|342:287|374:213,1,180,0|2,1:2|0:0,0:0:0:0:
379,204,371271,1,2,0:0:0:0:
391,179,371378,1,2,0:0:0:0:
246,62,371592,2,0,P|212:86|160:93,1,90,8|2,0:0|0:0,0:0:0:0:
52,220,372021,2,0,P|85:195|138:189,1,90,2|2,0:0|0:0,0:0:0:0:
87,311,372450,6,0,B|60:225|60:225|51:227|51:227|16:113,1,180,0|2,1:2|0:0,0:0:0:0:
20,120,372985,1,2,0:0:0:0:
12,88,373092,1,2,0:0:0:0:
129,47,373307,2,0,B|173:62|173:62|237:36,1,90,8|2,0:0|0:0,0:0:0:0:
298,45,373735,2,0,B|339:62|339:62|383:47,1,90,2|0,0:0|0:0,0:0:0:0:
213,45,374164,6,0,P|172:132|212:215,1,180,0|2,1:2|0:0,0:0:0:0:
299,339,374807,1,2,0:0:0:0:
299,339,375021,2,0,P|340:252|300:169,1,180,8|2,0:0|0:0,0:0:0:0:
201,204,375664,1,2,0:0:0:0:
427,147,375878,5,0,1:2:0:0:
310,179,376092,1,2,0:0:0:0:
427,147,376307,1,2,0:0:0:0:
405,117,376414,1,2,0:0:0:0:
376,95,376521,1,2,0:0:0:0:
269,78,376735,2,0,P|228:96|199:130,1,90,8|2,0:0|0:0,0:0:0:0:
184,222,377164,2,0,P|144:205|115:171,1,90,2|2,0:0|0:0,0:0:0:0:
128,300,377592,6,0,B|150:322|150:322|172:324|172:324|196:350,1,90,2|2,1:2|0:0,0:0:0:0:
301,333,378021,1,2,0:0:0:0:
324,320,378128,1,0,0:0:0:0:
347,306,378235,1,2,0:0:0:0:
385,172,378450,6,0,P|306:176|306:336,1,270,8|2,0:0|0:0,0:0:0:0:
385,172,379307,2,0,L|326:74,1,90,0|2,1:2|0:0,0:0:0:0:
258,29,379735,1,2,0:0:0:0:
289,22,379842,1,0,0:0:0:0:
319,13,379950,1,2,0:0:0:0:
180,66,380164,2,0,B|85:49|85:49|0:65,1,180,8|2,0:0|0:0,0:0:0:0:
207,170,380807,1,2,0:0:0:0:
207,170,381021,6,0,B|302:187|302:187|387:171,1,180,0|2,1:2|0:0,0:0:0:0:
412,164,381557,1,0,0:0:0:0:
436,156,381664,1,2,0:0:0:0:
284,264,381878,2,0,L|176:248,1,90,8|2,0:0|0:0,0:0:0:0:
207,170,382200,1,2,0:0:0:0:
207,170,382307,2,0,P|164:160|124:120,1,90,2|0,0:0|0:0,0:0:0:0:
268,24,382735,6,0,P|248:60|180:84,1,90,0|2,1:2|0:0,0:0:0:0:
74,74,383164,1,2,0:0:0:0:
98,86,383271,1,2,0:0:0:0:
118,106,383378,1,2,0:0:0:0:
181,240,383592,2,0,L|144:352,1,90,8|0,0:0|0:0,0:0:0:0:
359,325,384021,2,0,L|331:240,1,90,2|0,0:0|0:0,0:0:0:0:
255,52,384450,5,4,1:2:0:0:
256,88,387878,5,2,0:0:0:0:
256,132,391307,5,2,0:0:0:0:
256,164,394735,5,2,0:0:0:0:
256,192,397307,5,2,0:0:0:0:
196,260,398164,6,0,P|256:284|328:248,1,135.000005149842,2|2,0:0|0:0,0:0:0:0:
318,124,399021,2,0,P|257:100|196:124,1,135.000005149842,2|2,0:0|0:0,0:0:0:0:
197,259,399878,2,0,B|228:276|239:312|239:312|250:353|285:363,2,135.000005149842,2|2|2,0:0|0:0|0:0,0:0:0:0:
156,196,400950,1,2,0:0:0:0:
156,120,401164,2,0,P|124:124|88:162,1,67.5000025749208,2|2,0:0|0:0,0:0:0:0:
197,259,401592,6,0,P|251:276|333:258,1,135.000005149842,2|2,0:0|0:0,0:0:0:0:
475,154,402450,2,0,P|421:137|339:155,1,135.000005149842,2|2,0:0|0:0,0:0:0:0:
262,87,403307,2,0,B|298:45|357:49|357:49|363:40|407:29,2,135.000005149842,2|2|2,0:0|0:0|0:0,0:0:0:0:
211,141,404378,1,2,0:0:0:0:
148,180,404592,2,0,P|136:140|147:105,1,67.5000025749208,2|2,0:0|0:0,0:0:0:0:
262,87,405021,6,0,B|270:123|302:135|302:135|295:173|334:203,1,135.000005149842,2|2,0:0|0:0,0:0:0:0:
238,284,405878,2,0,B|230:248|198:236|198:236|204:197|166:168,1,135.000005149842,2|2,0:0|0:0,0:0:0:0:
160,316,406735,2,0,P|204:360|280:356,2,135.000005149842,2|2|2,0:0|0:0|0:0,0:0:0:0:
104,264,407807,1,2,0:0:0:0:
136,196,408021,2,0,P|172:188|208:156,1,67.5000025749208,2|2,0:0|0:0,0:0:0:0:
176,16,408450,6,0,P|88:68|152:112,1,202.500007724762,2|2,0:0|0:0,0:0:0:0:
203,143,409307,2,0,L|286:127,1,67.5000025749208,2|0,0:0|0:0,0:0:0:0:
316,187,409735,2,0,B|368:175|368:175|392:179|392:179|468:163,2,135.000005149842,2|2|2,0:0|0:0|0:0,0:0:0:0:
182,169,411021,1,2,0:0:0:0:
124,122,411235,1,2,0:0:0:0:
143,50,411450,1,2,0:0:0:0:
216,43,411664,1,2,0:0:0:0:
264,104,411878,6,0,B|347:150|291:201|319:355|319:355|222:209|92:285|92:285|203:154|157:36|157:36|99:81|32:71|32:71|5:112|10:142,1,1012.50003862381,2|2,0:0|0:0,0:0:0:0:
9,133,415307,6,0,B|3:181|57:223|57:223|115:197|132:86|132:86|227:132|250:318|250:318|306:193|374:173|458:191|458:191|493:110|448:65|448:65|404:102|358:98,1,1012.50003862381,2|2,0:0|0:0,0:0:0:0:
389,95,418735,6,0,B|265:149|272:-19|147:55|147:55|180:200|23:193|40:286|40:286|127:373|255:306|256:240|256:240|282:276|308:364|308:364|332:313|357:293,1,1012.50003862381,2|2,0:0|0:0,0:0:0:0:
342,306,422164,6,0,B|483:327|492:157|441:128|441:128|283:169|240:8|240:8|190:134|190:134|113:98|64:138|64:138|88:204|88:204|49:231|54:264,1,945.000036048891,2|2,0:0|0:0,0:0:0:0:
91,329,425378,5,2,0:0:0:0:
