osu file format v14

[General]
AudioFilename: Seikai wa Hitotsu! Janai!!.mp3
AudioLeadIn: 0
PreviewTime: 60366
Countdown: 1
SampleSet: Normal
StackLeniency: 0.7
Mode: 3
LetterboxInBreaks: 0
SpecialStyle: 0
WidescreenStoryboard: 1

[Editor]
Bookmarks: 12719,24013,35308,46602,60719,72013,83308
DistanceSpacing: 1
BeatDivisor: 2
GridSize: 4
TimelineZoom: 1.100001

[Metadata]
Title:Seikai wa Hitotsu! Janai!!
TitleUnicode:正解はひとつ!じゃない!!
Artist:Milky Holmes
ArtistUnicode:ミルキィホームズ
Creator:Snow Note
Version:NORMAL
Source:探偵オペラミルキィホームズ
Tags:PMS Pop'n 7odoa Tantei Opera Milky Holmes
BeatmapID:683513
BeatmapSetID:305119

[Difficulty]
HPDrainRate:8.6
CircleSize:9
OverallDifficulty:8.3
ApproachRate:5
SliderMultiplier:1.4
SliderTickRate:1

[Events]
//Background and Video events
0,0,"BG.jpg",0,0
//Break Periods
//Storyboard Layer 0 (Background)
//Storyboard Layer 1 (Fail)
//Storyboard Layer 2 (Pass)
//Storyboard Layer 3 (Foreground)
//Storyboard Sound Samples

[TimingPoints]
14,352.941176470588,4,1,1,15,1,0

[HitObjects]
85,192,1425,5,0,0:0:0:0:
426,192,1425,1,4,0:0:0:0:
483,192,1778,1,8,0:0:0:0:
28,192,2131,1,0,0:0:0:0:
142,192,2308,1,0,0:0:0:0:
256,192,2484,1,0,0:0:0:0:
483,192,2484,1,8,0:0:0:0:
369,192,2661,1,0,0:0:0:0:
369,192,3013,1,0,0:0:0:0:
256,192,3190,1,0,0:0:0:0:
483,192,3190,1,8,0:0:0:0:
142,192,3543,1,0,0:0:0:0:
483,192,3896,1,8,0:0:0:0:
85,192,3896,1,0,0:0:0:0:
426,192,4249,1,0,0:0:0:0:
483,192,4602,1,8,0:0:0:0:
312,192,4955,1,0,0:0:0:0:
199,192,5131,1,0,0:0:0:0:
85,192,5308,1,0,0:0:0:0:
483,192,5308,1,8,0:0:0:0:
199,192,5484,1,0,0:0:0:0:
426,192,6013,1,8,0:0:0:0:
28,192,6366,1,0,0:0:0:0:
142,192,6543,1,0,0:0:0:0:
256,192,6719,1,0,0:0:0:0:
426,192,6719,1,8,0:0:0:0:
369,192,6896,1,0,0:0:0:0:
483,192,7072,1,0,0:0:0:0:
142,192,7072,1,4,0:0:0:0:
426,192,7425,1,8,0:0:0:0:
312,192,7602,1,0,0:0:0:0:
312,192,7778,1,0,0:0:0:0:
426,192,8131,1,8,0:0:0:0:
256,192,8484,1,0,0:0:0:0:
483,192,8484,1,2,0:0:0:0:
426,192,8837,1,2,0:0:0:0:
199,192,8837,1,8,0:0:0:0:
369,192,9190,1,2,0:0:0:0:
142,192,9190,1,0,0:0:0:0:
85,192,9543,1,8,0:0:0:0:
312,192,9543,1,2,0:0:0:0:
142,192,9896,1,0,0:0:0:0:
369,192,9896,1,6,0:0:0:0:
312,192,10072,1,0,0:0:0:0:
199,192,10425,1,0,0:0:0:0:
483,192,10778,1,2,0:0:0:0:
312,192,10778,1,0,0:0:0:0:
426,192,10955,1,2,0:0:0:0:
369,192,11131,1,2,0:0:0:0:
142,192,11131,1,4,0:0:0:0:
142,192,11484,1,4,0:0:0:0:
369,192,11484,1,0,0:0:0:0:
369,192,11661,1,0,0:0:0:0:
142,192,11661,1,4,0:0:0:0:
142,192,11837,1,4,0:0:0:0:
369,192,11837,1,0,0:0:0:0:
369,192,12013,1,0,0:0:0:0:
142,192,12013,1,4,0:0:0:0:
85,192,12366,1,4,0:0:0:0:
426,192,12366,1,0,0:0:0:0:
312,192,12366,1,0,0:0:0:0:
28,192,12719,1,0,0:0:0:0:
256,192,12719,1,4,0:0:0:0:
142,192,13425,1,0,0:0:0:0:
199,192,13602,1,0,0:0:0:0:
256,192,13778,1,0,0:0:0:0:
483,192,13778,1,8,0:0:0:0:
312,192,13955,1,0,0:0:0:0:
256,192,14131,1,0,0:0:0:0:
199,192,14661,1,0,0:0:0:0:
199,192,14837,1,0,0:0:0:0:
483,192,15190,1,8,0:0:0:0:
85,192,15543,1,0,0:0:0:0:
199,192,15896,1,0,0:0:0:0:
312,192,16249,1,0,0:0:0:0:
426,192,16602,1,0,0:0:0:0:
142,192,16602,1,8,0:0:0:0:
483,192,16955,1,0,0:0:0:0:
369,192,17484,1,0,0:0:0:0:
369,192,17661,1,0,0:0:0:0:
483,192,18013,1,8,0:0:0:0:
28,192,18366,1,0,0:0:0:0:
142,192,18719,1,0,0:0:0:0:
256,192,19072,1,0,0:0:0:0:
369,192,19425,1,0,0:0:0:0:
85,192,19425,1,8,0:0:0:0:
483,192,19778,1,2,0:0:0:0:
256,192,19778,1,0,0:0:0:0:
199,192,20131,1,0,0:0:0:0:
426,192,20131,1,2,0:0:0:0:
142,192,20484,1,0,0:0:0:0:
369,192,20484,1,2,0:0:0:0:
85,192,20837,1,0,0:0:0:0:
312,192,20837,1,2,0:0:0:0:
426,192,20837,1,8,0:0:0:0:
142,192,21190,1,0,0:0:0:0:
369,192,21190,1,0,0:0:0:0:
312,192,21543,1,8,0:0:0:0:
426,192,21719,1,0,0:0:0:0:
426,192,21896,1,0,0:0:0:0:
312,192,22249,1,8,0:0:0:0:
142,192,22602,1,0,0:0:0:0:
369,192,22778,1,8,0:0:0:0:
142,192,22955,1,0,0:0:0:0:
369,192,23131,1,8,0:0:0:0:
426,192,23308,1,8,0:0:0:0:
256,192,23484,1,8,0:0:0:0:
28,192,23661,1,0,0:0:0:0:
142,192,24013,1,0,0:0:0:0:
256,192,24013,1,4,0:0:0:0:
369,192,24013,1,0,0:0:0:0:
483,192,24366,1,8,0:0:0:0:
142,192,24719,1,0,0:0:0:0:
483,192,25072,1,8,0:0:0:0:
85,192,25425,1,0,0:0:0:0:
426,192,25778,1,8,0:0:0:0:
85,192,26131,1,0,0:0:0:0:
426,192,26484,1,8,0:0:0:0:
28,192,26837,1,0,0:0:0:0:
256,192,26837,1,0,0:0:0:0:
369,192,27190,1,8,0:0:0:0:
256,192,27366,1,0,0:0:0:0:
28,192,27543,1,0,0:0:0:0:
369,192,27896,1,8,0:0:0:0:
142,192,28249,1,0,0:0:0:0:
426,192,28602,1,8,0:0:0:0:
142,192,28955,1,0,0:0:0:0:
256,192,29131,1,8,0:0:0:0:
426,192,29308,1,8,0:0:0:0:
312,192,29484,1,8,0:0:0:0:
28,192,29661,1,0,0:0:0:0:
483,192,30013,1,8,0:0:0:0:
28,192,30366,1,0,0:0:0:0:
483,192,30719,1,8,0:0:0:0:
483,192,31072,1,2,0:0:0:0:
256,192,31072,1,0,0:0:0:0:
426,192,31425,1,2,0:0:0:0:
199,192,31425,1,8,0:0:0:0:
142,192,31778,1,0,0:0:0:0:
369,192,31778,1,2,0:0:0:0:
85,192,32131,1,8,0:0:0:0:
312,192,32131,1,2,0:0:0:0:
28,192,32484,1,0,0:0:0:0:
142,192,32484,1,4,0:0:0:0:
28,192,32837,1,0,0:0:0:0:
142,192,32837,1,4,0:0:0:0:
369,192,33190,1,4,0:0:0:0:
483,192,33190,1,0,0:0:0:0:
85,192,33366,1,4,0:0:0:0:
199,192,33543,1,4,0:0:0:0:
369,192,33719,1,4,0:0:0:0:
483,192,33719,1,0,0:0:0:0:
426,192,34072,5,0,0:0:0:0:
312,192,34161,5,0,0:0:0:0:
426,192,34249,1,0,0:0:0:0:
199,192,34425,1,0,0:0:0:0:
369,192,34602,1,0,0:0:0:0:
483,192,34602,1,4,0:0:0:0:
256,192,34955,1,0,0:0:0:0:
369,192,34955,1,4,0:0:0:0:
142,192,35308,5,0,0:0:0:0:
256,192,35308,1,4,0:0:0:0:
142,192,35837,1,0,0:0:0:0:
142,192,36013,1,0,0:0:0:0:
369,192,36366,1,8,0:0:0:0:
142,192,36719,1,0,0:0:0:0:
142,192,37249,1,0,0:0:0:0:
142,192,37425,1,0,0:0:0:0:
312,192,37602,1,0,0:0:0:0:
426,192,37778,1,0,0:0:0:0:
142,192,38131,1,0,0:0:0:0:
483,192,38131,1,4,0:0:0:0:
142,192,38661,1,0,0:0:0:0:
142,192,38837,1,0,0:0:0:0:
369,192,39190,1,8,0:0:0:0:
142,192,39366,1,0,0:0:0:0:
142,192,39719,1,0,0:0:0:0:
142,192,40072,1,0,0:0:0:0:
142,192,40249,1,0,0:0:0:0:
426,192,40425,1,2,2:0:0:0:
312,192,40602,1,2,2:0:0:0:
426,192,40778,1,2,2:0:0:0:
142,192,40955,1,0,0:0:0:0:
483,192,40955,1,4,0:0:0:0:
142,192,41484,1,0,0:0:0:0:
142,192,41661,1,0,0:0:0:0:
369,192,42013,1,8,0:0:0:0:
142,192,42366,1,0,0:0:0:0:
142,192,42896,1,0,0:0:0:0:
142,192,43072,1,0,0:0:0:0:
369,192,43249,1,2,2:2:0:0:
312,192,43425,1,2,2:2:0:0:
369,192,43602,1,2,2:0:0:0:
142,192,43778,1,0,0:0:0:0:
483,192,43778,1,4,0:0:0:0:
142,192,44308,1,0,0:0:0:0:
142,192,44484,1,0,0:0:0:0:
426,192,44484,1,0,0:0:0:0:
369,192,44837,1,8,0:0:0:0:
256,192,45190,1,0,0:0:0:0:
483,192,45190,1,4,0:0:0:0:
142,192,45366,1,0,0:0:0:0:
28,192,45543,1,0,0:0:0:0:
199,192,45719,1,0,0:0:0:0:
426,192,45719,1,4,0:0:0:0:
142,192,46249,1,0,0:0:0:0:
256,192,46425,1,0,0:0:0:0:
28,192,46602,1,0,0:0:0:0:
142,192,46602,1,2,0:0:0:0:
369,192,46602,1,4,0:0:0:0:
426,192,46955,1,8,0:0:0:0:
28,192,47308,1,0,0:0:0:0:
426,192,47661,1,8,0:0:0:0:
85,192,48013,1,0,0:0:0:0:
199,192,48013,1,2,0:0:0:0:
483,192,48366,1,8,0:0:0:0:
85,192,48719,1,0,0:0:0:0:
369,192,48719,1,2,0:0:0:0:
483,192,49072,1,8,0:0:0:0:
142,192,49425,1,0,0:0:0:0:
256,192,49425,1,2,0:0:0:0:
369,192,49778,1,8,0:0:0:0:
142,192,50131,1,0,0:0:0:0:
312,192,50131,1,2,0:0:0:0:
199,192,50308,1,2,0:0:0:0:
312,192,50484,1,10,0:0:0:0:
28,192,50661,1,0,0:0:0:0:
142,192,50661,1,4,0:0:0:0:
256,192,51013,1,0,0:0:0:0:
369,192,51190,1,8,0:0:0:0:
256,192,51543,1,0,0:0:0:0:
369,192,51719,1,8,0:0:0:0:
369,192,51896,1,8,0:0:0:0:
256,192,52249,1,0,0:0:0:0:
483,192,52249,1,4,0:0:0:0:
312,192,52778,1,4,0:0:0:0:
85,192,52778,1,0,0:0:0:0:
199,192,53131,1,0,0:0:0:0:
256,192,53308,1,8,0:0:0:0:
312,192,53484,1,0,0:0:0:0:
369,192,53661,1,4,0:0:0:0:
142,192,53661,1,0,0:0:0:0:
28,192,54190,1,0,0:0:0:0:
256,192,54190,1,4,0:0:0:0:
483,192,54719,1,8,0:0:0:0:
142,192,55072,1,0,0:0:0:0:
369,192,55072,1,4,0:0:0:0:
312,192,55425,1,8,0:0:0:0:
142,192,55778,1,0,0:0:0:0:
312,192,56131,1,8,0:0:0:0:
28,192,56484,1,0,0:0:0:0:
256,192,56484,1,2,0:0:0:0:
369,192,56837,1,8,0:0:0:0:
28,192,57190,1,0,0:0:0:0:
199,192,57190,1,2,0:0:0:0:
369,192,57543,1,8,0:0:0:0:
256,192,57543,1,2,0:0:0:0:
199,192,57719,1,2,0:0:0:0:
85,192,57719,1,0,0:0:0:0:
312,192,57719,1,4,0:0:0:0:
28,192,58249,1,0,0:0:0:0:
142,192,58249,1,0,0:0:0:0:
85,192,58602,1,0,0:0:0:0:
199,192,58602,1,0,0:0:0:0:
142,192,58955,1,0,0:0:0:0:
256,192,58955,1,0,0:0:0:0:
199,192,59308,1,4,0:0:0:0:
312,192,59308,1,4,0:0:0:0:
199,192,59484,1,4,0:0:0:0:
312,192,59484,1,4,0:0:0:0:
312,192,59661,1,4,0:0:0:0:
199,192,59661,1,4,0:0:0:0:
199,192,59837,1,4,0:0:0:0:
312,192,59837,1,4,0:0:0:0:
199,192,60013,1,4,0:0:0:0:
312,192,60013,1,4,0:0:0:0:
256,192,60366,1,8,0:0:0:0:
369,192,60543,1,0,0:0:0:0:
483,192,60719,1,0,0:0:0:0:
142,192,60719,1,4,0:0:0:0:
256,192,61072,1,0,0:0:0:0:
28,192,61072,1,8,0:0:0:0:
369,192,61249,1,0,0:0:0:0:
483,192,61425,1,0,0:0:0:0:
28,192,61778,1,8,0:0:0:0:
369,192,61955,1,0,0:0:0:0:
369,192,62131,1,0,0:0:0:0:
483,192,62308,1,0,0:0:0:0:
369,192,62484,1,0,0:0:0:0:
85,192,62484,1,8,0:0:0:0:
483,192,62661,1,0,0:0:0:0:
369,192,62837,1,0,0:0:0:0:
199,192,63190,1,0,0:0:0:0:
85,192,63190,1,8,0:0:0:0:
312,192,63366,1,0,0:0:0:0:
426,192,63543,1,0,0:0:0:0:
142,192,63543,1,0,0:0:0:0:
199,192,63896,1,0,0:0:0:0:
85,192,63896,1,8,0:0:0:0:
312,192,64072,1,0,0:0:0:0:
426,192,64249,1,0,0:0:0:0:
85,192,64602,1,8,0:0:0:0:
312,192,64778,1,0,0:0:0:0:
312,192,64955,1,0,0:0:0:0:
426,192,65131,1,0,0:0:0:0:
312,192,65308,1,0,0:0:0:0:
28,192,65308,1,8,0:0:0:0:
142,192,65484,1,0,0:0:0:0:
256,192,65661,1,0,0:0:0:0:
28,192,66013,1,8,0:0:0:0:
312,192,66366,1,0,0:0:0:0:
85,192,66366,1,0,0:0:0:0:
142,192,66719,1,0,0:0:0:0:
369,192,66719,1,8,0:0:0:0:
199,192,67072,1,0,0:0:0:0:
426,192,67072,1,0,0:0:0:0:
28,192,67425,1,2,0:0:0:0:
426,192,67778,1,0,0:0:0:0:
199,192,67778,1,0,0:0:0:0:
369,192,68131,1,0,0:0:0:0:
142,192,68131,1,8,0:0:0:0:
312,192,68484,1,0,0:0:0:0:
85,192,68484,1,0,0:0:0:0:
483,192,68837,1,2,0:0:0:0:
199,192,69190,1,0,0:0:0:0:
312,192,69190,1,0,0:0:0:0:
142,192,69543,1,0,0:0:0:0:
369,192,69543,1,8,0:0:0:0:
426,192,69896,1,0,0:0:0:0:
85,192,69896,1,0,0:0:0:0:
483,192,70249,1,10,0:0:0:0:
28,192,70249,1,0,0:0:0:0:
426,192,70602,1,12,0:0:0:0:
85,192,70602,1,0,0:0:0:0:
312,192,70602,1,0,0:0:0:0:
199,192,70955,1,0,0:0:0:0:
426,192,70955,1,12,0:0:0:0:
142,192,71308,1,0,0:0:0:0:
426,192,71308,1,12,0:0:0:0:
426,192,71661,1,12,0:0:0:0:
256,192,71661,1,0,0:0:0:0:
369,192,71837,1,0,0:0:0:0:
142,192,72013,1,4,0:0:0:0:
483,192,72013,1,0,0:0:0:0:
28,192,72366,1,8,0:0:0:0:
256,192,72366,1,0,0:0:0:0:
369,192,72543,1,0,0:0:0:0:
483,192,72719,1,0,0:0:0:0:
28,192,73072,1,8,0:0:0:0:
369,192,73249,1,0,0:0:0:0:
483,192,73602,1,0,0:0:0:0:
85,192,73778,1,8,0:0:0:0:
369,192,73778,1,0,0:0:0:0:
483,192,73955,1,0,0:0:0:0:
369,192,74131,1,0,0:0:0:0:
85,192,74484,1,8,0:0:0:0:
199,192,74484,1,0,0:0:0:0:
312,192,74661,1,0,0:0:0:0:
426,192,74837,1,0,0:0:0:0:
142,192,74837,1,0,0:0:0:0:
85,192,75190,1,8,0:0:0:0:
199,192,75190,1,0,0:0:0:0:
312,192,75366,1,0,0:0:0:0:
426,192,75543,1,0,0:0:0:0:
85,192,75896,1,8,0:0:0:0:
369,192,75896,1,0,0:0:0:0:
312,192,76072,1,0,0:0:0:0:
312,192,76249,1,0,0:0:0:0:
426,192,76425,1,0,0:0:0:0:
312,192,76602,1,0,0:0:0:0:
28,192,76602,1,8,0:0:0:0:
199,192,76778,1,0,0:0:0:0:
256,192,76955,1,0,0:0:0:0:
142,192,77308,1,0,0:0:0:0:
369,192,77308,1,8,0:0:0:0:
483,192,77308,1,0,0:0:0:0:
28,192,77661,1,4,0:0:0:0:
312,192,77661,1,0,0:0:0:0:
312,192,77837,1,0,0:0:0:0:
426,192,78013,1,0,0:0:0:0:
85,192,78013,1,8,0:0:0:0:
483,192,78190,1,0,0:0:0:0:
369,192,78366,1,0,0:0:0:0:
256,192,78719,1,0,0:0:0:0:
85,192,78719,1,8,0:0:0:0:
426,192,79072,1,2,0:0:0:0:
199,192,79072,1,0,0:0:0:0:
369,192,79425,1,10,0:0:0:0:
142,192,79425,1,0,0:0:0:0:
85,192,79778,1,0,0:0:0:0:
312,192,79778,1,2,0:0:0:0:
142,192,80131,1,8,0:0:0:0:
369,192,80308,1,0,0:0:0:0:
483,192,80308,1,0,0:0:0:0:
199,192,80484,1,0,0:0:0:0:
312,192,80484,1,4,0:0:0:0:
142,192,80837,1,0,0:0:0:0:
483,192,81013,1,0,0:0:0:0:
369,192,81013,1,0,0:0:0:0:
199,192,81190,1,0,0:0:0:0:
312,192,81190,1,4,0:0:0:0:
142,192,81543,1,0,0:0:0:0:
369,192,81719,1,0,0:0:0:0:
483,192,81719,1,0,0:0:0:0:
426,192,81896,1,4,0:0:0:0:
85,192,81896,1,4,0:0:0:0:
85,192,82249,1,4,0:0:0:0:
426,192,82249,1,4,0:0:0:0:
28,192,83308,1,0,0:0:0:0:
256,192,83308,1,4,0:0:0:0:
28,192,83661,1,0,0:0:0:0:
85,192,84013,1,0,0:0:0:0:
85,192,84190,1,0,0:0:0:0:
142,192,84543,1,0,0:0:0:0:
369,192,84543,1,4,0:0:0:0:
28,192,84896,1,0,0:0:0:0:
369,192,85072,1,8,0:0:0:0:
483,192,85072,1,0,0:0:0:0:
28,192,85249,1,0,0:0:0:0:
369,192,85425,1,8,0:0:0:0:
483,192,85425,1,0,0:0:0:0:
312,192,85778,1,8,0:0:0:0:
426,192,85778,1,0,0:0:0:0:
142,192,86131,1,0,0:0:0:0:
369,192,86131,1,4,0:0:0:0:
483,192,86484,1,0,0:0:0:0:
256,192,86484,1,0,0:0:0:0:
142,192,86837,1,0,0:0:0:0:
369,192,86837,1,4,0:0:0:0:
199,192,87013,1,0,0:0:0:0:
426,192,87190,1,0,0:0:0:0:
28,192,87366,1,0,0:0:0:0:
256,192,87366,1,4,0:0:0:0:
85,192,87719,1,0,2:0:0:0:
199,192,87896,1,0,2:0:0:0:
312,192,88072,1,0,2:0:0:0:
426,192,88249,1,0,2:0:0:0:
256,192,88425,1,4,0:0:0:0:
142,192,88425,1,0,0:0:0:0:
312,192,88602,1,4,0:0:0:0:
199,192,88602,1,0,0:0:0:0:
369,192,88778,1,4,0:0:0:0:
256,192,88778,1,0,0:0:0:0:
