osu file format v14

[General]
AudioFilename: audio.mp3
AudioLeadIn: 0
PreviewTime: 66235
Countdown: 0
SampleSet: Soft
StackLeniency: 0.3
Mode: 0
LetterboxInBreaks: 0
WidescreenStoryboard: 0

[Editor]
Bookmarks: 22861,40211,57560,66235,79608,92620,104186
DistanceSpacing: 1.6
BeatDivisor: 4
GridSize: 16
TimelineZoom: 2.799999

[Metadata]
Title:Vulnerability
TitleUnicode:Vulnerability
Artist:Mili
ArtistUnicode:Mili
Creator:IceKalt
Version:Saturnalize's Insane
Source:
Tags:miracle milk electronic saihate records hamo hamoloid yamato kasai Xenok Saturnalize Myxomatosis desperate-kun pandahero
BeatmapID:1753408
BeatmapSetID:835194

[Difficulty]
HPDrainRate:6
CircleSize:4
OverallDifficulty:8
ApproachRate:9
SliderMultiplier:1.5
SliderTickRate:1

[Events]
//Background and Video events
0,0,"falling.jpg",0,0
//Break Periods
//Storyboard Layer 0 (Background)
//Storyboard Layer 1 (Fail)
//Storyboard Layer 2 (Pass)
//Storyboard Layer 3 (Foreground)
//Storyboard Sound Samples

[TimingPoints]
1175,361.44578313253,3,2,0,30,1,0
9849,-133.333333333333,3,2,50,30,0,0
14187,-100,3,2,50,50,0,0
28283,-105.263157894737,3,2,50,50,0,0
29367,-111.111111111111,3,2,50,50,0,0
30452,-117.647058823529,3,2,50,50,0,0
31536,-125,3,2,50,50,0,0
40211,-100,3,2,50,50,0,0
41928,-100,3,2,51,50,0,0
42108,-100,3,2,50,50,0,0
46265,-100,3,2,51,50,0,0
46446,-100,3,2,50,50,0,0
50602,-100,3,2,51,50,0,0
50783,-100,3,2,50,50,0,0
54940,-100,3,2,51,50,0,0
55120,-100,3,2,50,50,0,0
57560,-133.333333333333,3,2,50,50,0,0
66235,-100,3,2,50,50,0,0
69488,361.44578313253,4,2,50,50,1,0
69488,-66.6666666666667,4,2,50,50,0,1
92620,-200,4,2,50,50,0,0
98403,-100,4,2,50,50,0,0
104186,-133.333333333333,4,2,50,50,0,0
105632,-133.333333333333,4,2,50,40,0,0
107078,-133.333333333333,4,2,50,30,0,0
109247,-133.333333333333,4,2,50,40,0,0
109608,-133.333333333333,4,2,50,45,0,0
109969,-133.333333333333,4,2,50,50,0,0
112861,-200,4,2,50,30,0,0
116475,-200,4,2,50,35,0,0
117198,-200,4,2,50,40,0,0
117921,-200,4,2,50,45,0,0
118463,-200,4,2,50,50,0,0
118644,-83.3333333333333,4,2,50,50,0,0
119683,-83.3333333333333,4,2,50,5,0,0
119909,392.156862745098,4,2,50,50,1,0
120117,392.156862745098,4,2,50,50,1,0
120117,-133.333333333333,4,2,50,50,0,0
120754,-133.333333333333,4,2,50,5,0,0

[Colours]
Combo1 : 79,109,232
Combo2 : 145,219,255
Combo3 : 200,200,200
Combo4 : 183,183,255

[HitObjects]
69,258,1175,5,0,3:0:0:0:
66,174,1536,5,0,0:0:0:0:
76,264,1717,1,0,0:0:0:0:
126,107,1897,1,2,3:2:0:0:
126,107,2259,6,0,P|194:113|320:29,1,225,2|0,3:2|0:0,0:0:0:0:
279,110,2982,1,2,3:2:0:0:
374,103,3343,5,2,3:2:0:0:
286,118,3524,1,0,0:0:0:0:
116,151,3705,5,2,0:0:0:0:
204,166,3886,1,2,0:0:0:0:
289,287,4066,5,2,3:2:0:0:
289,287,4428,6,0,L|286:114,1,150,0|2,3:2|0:0,0:0:0:0:
286,137,5150,1,0,3:0:0:0:
292,54,5512,5,0,3:0:0:0:
294,145,5693,1,0,0:0:0:0:
377,10,5873,5,2,0:0:0:0:
300,58,6054,1,0,0:0:0:0:
465,135,6235,5,2,0:0:0:0:
465,135,6596,6,0,P|489:232|390:248,1,225,2|0,0:0|0:0,0:0:0:0:
472,286,7319,1,2,0:0:0:0:
456,383,7681,5,2,3:2:0:0:
476,296,7861,1,0,0:0:0:0:
370,169,8042,5,2,0:0:0:0:
390,249,8222,1,2,0:0:0:0:
281,359,8403,5,2,0:0:0:0:
299,287,8583,1,0,0:0:0:0:
251,227,8765,6,0,P|177:227|102:234,2,150,0|2|0,0:0|0:0|0:0,0:0:0:0:
95,290,9849,6,0,P|95:261|102:234,1,56.2500021457673,4|0,0:0|0:0,0:0:0:0:
38,197,10211,2,0,P|56:176|79:159,1,56.2500021457673
67,86,10572,2,0,P|94:81|122:83,1,56.2500021457673
148,14,10934,2,0,P|171:28|192:47,1,56.2500021457673
261,24,11295,2,0,P|269:50|273:78,1,56.2500021457673
265,151,11656,1,0,0:0:0:0:
243,221,11837,5,2,0:3:0:0:
248,230,11928,1,2,0:3:0:0:
254,239,12018,2,0,P|297:237|335:248,1,56.2500021457673,2|0,0:3|0:0,0:0:0:0:
377,279,12379,2,0,P|388:237|410:204,1,56.2500021457673
459,180,12741,2,0,P|423:156|398:125,1,56.2500021457673
397,59,13102,2,0,P|363:85|326:99,1,56.2500021457673
272,76,13464,5,0,0:0:0:0:
277,154,13644,1,0,0:0:0:0:
235,221,13825,1,0,0:0:0:0:
199,132,14006,1,4,0:0:0:0:
360,172,14187,6,0,P|401:164|448:162,2,75,12|0|2,1:2|0:0|0:0,0:0:0:0:
320,252,14729,1,0,0:0:0:0:
409,244,14909,2,0,P|446:247|482:254,1,75,2|2,1:2|0:0,0:0:0:0:
452,338,15271,6,0,B|408:307|368:323|337:310|313:340|289:375|239:365|206:376|167:345,1,300,2|0,1:2|0:0,0:0:0:0:
91,217,16174,1,2,0:0:0:0:
86,227,16265,1,2,0:0:0:0:
80,235,16355,6,0,P|201:217|116:130,1,300,2|0,1:2|1:0,0:0:0:0:
116,130,17440,6,0,P|108:94|115:58,1,75,0|0,1:0|0:0,0:0:0:0:
198,164,17801,2,0,P|205:200|196:236,1,75,2|0,0:2|0:0,0:0:0:0:
125,291,18162,1,6,0:2:0:0:
115,57,18524,6,0,P|189:51|265:53,1,150,6|0,0:0|0:0,0:0:0:0:
329,120,19066,1,0,0:0:0:0:
416,96,19247,2,0,P|427:54|415:14,1,75,0|2,1:0|0:0,0:0:0:0:
329,120,19608,6,0,B|316:167|361:203|381:201|400:199|441:241|423:304,1,225,2|0,1:2|0:0,0:0:0:0:
421,383,20331,2,0,P|413:346|419:310,1,75
436,221,20693,6,0,P|390:189|306:300,1,225,6|0,1:2|0:0,0:0:0:0:
382,303,21415,2,0,P|345:294|308:300,1,75,2|0,1:2|0:0,0:0:0:0:
226,339,21777,6,0,B|219:293|188:276|149:270|110:291|110:291|110:253|78:224,1,225,2|0,1:2|0:0,0:0:0:0:
0,205,22500,2,0,P|37:203|70:219,1,75,2|0,0:2|0:0,0:0:0:0:
166,166,22861,6,0,L|209:171,1,37.5,0|0,1:0|0:0,0:0:0:0:
417,76,23223,1,2,0:3:0:0:
417,76,23584,1,2,1:3:0:0:
166,166,23946,6,0,L|209:171,1,37.5,0|0,1:0|0:0,0:0:0:0:
417,76,24308,1,2,0:3:0:0:
417,76,24669,1,2,1:3:0:0:
166,166,25030,6,0,L|209:171,1,37.5,0|0,1:0|0:0,0:0:0:0:
281,182,25211,1,2,0:0:0:0:
277,192,25301,1,2,0:0:0:0:
273,202,25391,2,0,L|347:210,1,75,2|0,0:0|0:0,0:0:0:0:
496,150,25753,2,0,L|422:158,1,75,2|2,1:2|0:2,0:0:0:0:
257,277,26114,6,0,B|186:283|186:283|94:293|71:204,1,225,2|0,1:2|0:0,0:0:0:0:
119,90,26837,1,0,1:0:0:0:
208,101,27018,1,0,0:0:0:0:
219,102,27108,1,2,0:0:0:0:
230,104,27199,6,0,P|303:104|385:90,2,150,2|0|0,1:2|0:0|0:0,0:0:0:0:
89,202,28283,2,0,P|44:202|106:285,1,213.749994292259,0|0,1:0|0:0,0:0:0:0:
160,247,29006,1,0,0:0:0:0:
480,302,29367,6,0,B|371:289|424:377|296:359,1,202.499993820191
235,307,30090,1,2,0:2:0:0:
92,92,30452,6,0,B|143:40|211:59|211:59|239:30|286:35,1,191.250003647804
340,66,31174,2,0,P|339:28|344:0,1,63.7500012159348,2|0,0:2|0:0,0:0:0:0:
414,95,31536,6,0,P|417:184|391:282,1,180,2|0,0:0|0:0,0:0:0:0:
352,357,32259,1,0,0:0:0:0:
398,277,32440,1,0,0:0:0:0:
347,361,32620,1,0,0:0:0:0:
261,143,32982,1,2,0:0:0:0:
398,277,33343,1,0,0:0:0:0:
215,355,33705,6,0,P|158:340|33:371,1,180,2|0,0:0|0:0,0:0:0:0:
110,316,34428,1,0,0:0:0:0:
35,363,34608,1,2,0:0:0:0:
118,319,34789,2,0,P|160:267|149:153,1,180,2|0,0:0|0:0,0:0:0:0:
92,91,35512,1,0,0:0:0:0:
92,91,35873,6,0,B|194:135|158:47|262:88,1,180,2|0,0:0|0:0,0:0:0:0:
279,168,36596,1,0,0:0:0:0:
266,77,36777,1,2,0:0:0:0:
275,176,36958,2,0,P|359:155|427:209,1,180
454,289,37681,1,0,0:0:0:0:
453,288,38042,6,0,P|372:261|305:315,1,180,2|0,0:0|0:0,0:0:0:0:
223,294,38765,1,0,0:0:0:0:
311,324,38946,1,2,0:0:0:0:
215,288,39126,6,0,P|177:291|141:302,1,60,2|0,0:0|0:0,0:0:0:0:
152,203,39488,2,0,P|120:224|94:252,1,60,2|0,0:0|0:0,0:0:0:0:
68,315,39849,1,2,0:2:0:0:
257,209,40211,5,4,1:2:0:0:
342,235,40391,1,0,0:0:0:0:
395,163,40572,1,0,1:0:0:0:
342,90,40753,1,0,0:0:0:0:
257,118,40934,1,0,1:0:0:0:
342,235,41114,1,0,0:0:0:0:
342,90,41295,5,0,1:0:0:0:
257,118,41656,1,2,1:3:0:0:
172,146,42018,1,2,1:3:0:0:
342,90,42199,1,4,3:2:0:0:
307,275,42379,5,4,1:2:0:0:
282,360,42560,1,0,0:0:0:0:
191,363,42741,1,0,1:3:0:0:
160,278,42921,1,0,0:0:0:0:
232,223,43102,1,0,1:3:0:0:
282,360,43283,1,0,0:0:0:0:
160,278,43464,5,2,1:2:0:0:
149,189,43825,1,14,1:3:0:0:
138,100,44187,1,14,1:3:0:0:
127,11,44548,6,0,L|172:17,3,37.5,4|0|2|0,1:3|0:0|0:0|0:0,0:0:0:0:
221,75,44909,2,0,L|266:69,3,37.5,2|0|0|0,1:2|0:0|0:0|0:0,0:0:0:0:
311,6,45271,2,0,L|356:12,1,37.5,2|0,1:2|0:0,0:0:0:0:
405,70,45452,2,0,L|450:64,1,37.5,2|0,1:2|0:0,0:0:0:0:
503,10,45632,5,0,1:3:0:0:
503,10,45994,1,2,1:3:0:0:
473,94,46174,1,0,0:0:0:0:
500,179,46355,1,2,1:3:0:0:
387,137,46536,1,12,0:3:0:0:
272,172,46717,5,12,0:3:0:0:
226,249,46897,2,0,P|229:290|250:326,2,75,0|0|0,0:0|1:0|0:0,0:0:0:0:
272,172,47440,1,0,1:0:0:0:
182,170,47620,1,0,1:0:0:0:
95,167,47801,5,2,1:0:0:0:
46,241,47982,1,0,0:0:0:0:
182,170,48162,1,14,1:3:0:0:
142,91,48343,1,0,0:0:0:0:
135,246,48524,1,14,1:3:0:0:
224,249,48705,1,0,0:0:0:0:
245,106,48885,5,6,1:2:0:0:
182,170,49066,1,0,0:0:0:0:
224,249,49247,1,0,1:0:0:0:
313,235,49428,1,0,0:0:0:0:
326,146,49609,1,0,1:0:0:0:
182,170,49789,1,0,1:0:0:0:
313,235,49970,5,0,1:0:0:0:
397,202,50331,1,2,1:3:0:0:
481,169,50693,1,2,1:3:0:0:
313,235,50873,1,4,1:3:0:0:
182,170,51053,5,4,1:3:0:0:
104,127,51234,1,0,2:0:0:0:
120,38,51415,1,0,1:3:0:0:
209,25,51595,1,0,2:0:0:0:
247,108,51776,1,0,1:3:0:0:
104,127,51957,1,0,2:0:0:0:
209,25,52138,5,2,1:0:0:0:
298,32,52499,1,14,1:3:0:0:
387,40,52861,1,14,1:3:0:0:
476,48,53223,6,0,L|461:82,3,37.5,4|0|2|0,1:2|0:0|0:0|0:0,0:0:0:0:
393,121,53584,2,0,L|407:155,3,37.5,2|0|0|0,1:2|0:0|0:0|0:0,0:0:0:0:
475,195,53946,2,0,L|460:229,1,37.5,2|0,1:2|0:0,0:0:0:0:
392,268,54126,2,0,L|406:302,1,37.5,2|0,1:2|0:0,0:0:0:0:
465,355,54307,1,0,1:0:0:0:
465,355,54668,5,2,1:3:0:0:
377,331,54849,1,0,0:0:0:0:
290,356,55030,1,2,1:3:0:0:
317,239,55211,1,12,1:3:0:0:
265,131,55391,5,12,1:3:0:0:
176,112,55572,2,0,P|131:113|91:125,2,75,0|0|0,0:0|1:0|0:0,0:0:0:0:
265,131,56114,1,0,1:0:0:0:
353,116,56294,1,0,1:0:0:0:
439,101,56475,5,2,1:0:0:0:
498,167,56656,1,0,0:0:0:0:
353,116,56836,1,14,1:3:0:0:
382,32,57017,1,0,0:0:0:0:
410,185,57198,1,14,1:3:0:0:
323,200,57379,1,0,0:0:0:0:
439,101,57560,6,0,P|499:169|474:249,1,168.750006437302,2|0,0:0|0:0,0:0:0:0:
402,280,58283,1,0,0:0:0:0:
490,246,58464,1,2,0:0:0:0:
389,277,58644,1,2,0:0:0:0:
439,101,59006,1,0,0:0:0:0:
462,329,59367,1,0,0:0:0:0:
254,287,59729,6,0,B|178:272|183:349|101:337,1,168.750006437302,2|0,0:0|0:0,0:0:0:0:
28,283,60452,1,0,0:0:0:0:
100,345,60632,1,2,0:0:0:0:
26,273,60813,1,2,0:0:0:0:
81,78,61174,1,0,0:0:0:0:
249,142,61536,1,0,0:0:0:0:
75,187,61897,5,2,0:0:0:0:
188,46,62259,1,0,0:0:0:0:
365,71,62620,1,0,0:0:0:0:
179,151,62982,2,0,P|106:138|26:203,1,168.750006437302
10,265,63705,1,0,0:0:0:0:
264,341,64066,6,0,B|300:353|339:333|343:318|346:302|381:280|421:295,1,168.750006437302
479,341,64789,1,2,0:0:0:0:
419,115,65150,6,0,P|358:134|270:77,1,168.750006437302
265,4,65873,1,2,0:0:0:0:
178,28,66235,5,2,0:0:0:0:
272,9,66415,1,2,0:0:0:0:
352,27,66596,1,2,0:0:0:0:
401,73,66777,1,0,0:0:0:0:
422,112,66958,1,0,0:0:0:0:
424,134,67138,1,0,0:0:0:0:
501,202,67319,5,2,0:0:0:0:
423,145,67499,1,2,0:0:0:0:
343,127,67680,1,2,0:0:0:0:
279,148,67861,1,0,0:0:0:0:
244,175,68042,1,0,0:0:0:0:
233,194,68222,1,0,0:0:0:0:
138,231,68403,5,2,0:0:0:0:
232,212,68583,1,2,0:0:0:0:
122,324,68765,5,0,0:0:0:0:
53,188,68945,1,0,0:0:0:0:
174,79,69126,5,2,0:3:0:0:
138,231,69307,1,0,0:0:0:0:
64,42,69488,5,12,1:2:0:0:
284,57,69668,2,0,L|342:42,2,56.2500021457673,0|0|0,0:0|0:0|1:0,0:0:0:0:
61,54,70030,1,2,0:0:0:0:
275,143,70210,2,0,P|317:135|368:136,2,75.000002861023,2|0|0,1:2|0:0|0:0,0:0:0:0:
377,207,70572,2,0,P|414:208|451:215,2,75.000002861023,10|0|0,1:1|0:0|0:0,0:0:0:0:
444,306,70933,6,0,L|433:393,2,75.000002861023,0|2|0,1:0|0:0|0:0,0:0:0:0:
377,207,71295,2,0,L|367:132,2,75.000002861023,0|2|0,1:0|0:0|0:0,0:0:0:0:
278,274,71656,2,0,L|191:263,2,75.000002861023,2|0|2,1:2|0:0|0:0,0:0:0:0:
377,207,72018,2,0,L|451:197,2,75.000002861023,2|0|0,1:2|0:0|0:0,0:0:0:0:
385,116,72379,5,4,0:3:0:0:
388,86,72500,1,0,0:0:0:0:
391,56,72620,1,0,0:0:0:0:
311,58,72741,5,2,1:2:0:0:
308,82,72861,1,0,0:0:0:0:
306,106,72982,1,0,0:0:0:0:
228,100,73102,5,2,1:2:0:0:
229,80,73223,1,0,0:0:0:0:
231,61,73343,1,0,0:0:0:0:
151,64,73464,5,10,1:1:0:0:
149,79,73584,1,0,0:0:0:0:
148,95,73705,1,0,0:0:0:0:
74,146,73825,6,0,L|-8:143,2,75.000002861023,0|2|0,1:0|0:2|0:0,0:0:0:0:
94,234,74186,2,0,L|91:316,2,75.000002861023,2|2|0,1:2|0:2|0:0,0:0:0:0:
185,267,74548,5,2,1:2:0:0:
214,265,74668,1,0,0:0:0:0:
245,270,74789,1,2,0:2:0:0:
318,306,74909,6,0,P|384:298|421:321,1,112.500004291535,2|8,1:2|0:1,0:0:0:0:
494,119,75271,6,0,P|463:141|427:149,2,75.000002861023,8|0|0,1:2|0:0|0:0,0:0:0:0:
478,215,75632,1,2,1:2:0:0:
473,244,75753,1,2,0:2:0:0:
477,273,75873,1,0,0:0:0:0:
412,335,75994,6,0,P|381:313|345:305,2,75.000002861023,0|0|0,1:0|0:0|0:0,0:0:0:0:
396,239,76355,1,8,1:0:0:0:
405,210,76476,1,2,0:2:0:0:
395,181,76596,1,0,0:0:0:0:
336,113,76716,6,0,L|185:127,1,150.000005722046,2|0,1:2|0:0,0:0:0:0:
107,81,77078,2,0,L|100:2,2,75.000002861023,2|0|2,1:2|0:0|0:0,0:0:0:0:
35,136,77439,5,0,1:0:0:0:
60,151,77560,1,2,0:0:0:0:
81,171,77680,1,0,0:0:0:0:
94,197,77801,1,2,1:2:0:0:
121,185,77921,1,0,0:0:0:0:
150,181,78042,1,2,0:0:0:0:
179,186,78162,6,0,L|253:193,2,75.000002861023,10|0|0,1:0|0:0|0:0,0:0:0:0:
262,97,78524,2,0,L|336:90,2,75.000002861023,2|0|0,1:0|0:0|0:0,0:0:0:0:
438,133,78885,6,0,L|512:126,2,75.000002861023,2|0|0,1:0|0:0|0:0,0:0:0:0:
429,229,79247,2,0,L|355:222,2,75.000002861023,10|0|0,1:0|0:0|0:0,0:0:0:0:
275,211,79608,5,0,1:0:0:0:
443,124,79789,1,2,0:0:0:0:
252,34,79969,2,0,L|263:103,2,56.2500021457673,8|0|2,1:0|0:0|0:0,0:0:0:0:
92,159,80331,2,0,L|100:103,2,56.2500021457673,0|0|2,1:0|0:0|0:1,0:0:0:0:
39,297,80692,2,0,P|67:298|93:307,1,56.2500021457673,8|0,1:0|0:0,0:0:0:0:
142,250,80873,2,0,P|168:242|196:240,1,56.2500021457673,0|0,0:1|0:0,0:0:0:0:
266,272,81053,6,0,P|279:234|397:198,1,168.750006437302,8|0,1:2|0:0,0:0:0:0:
455,241,81415,1,0,1:0:0:0:
281,352,81596,1,0,0:0:0:0:
281,352,81686,1,0,0:0:0:0:
281,352,81777,1,0,1:0:0:0:
294,184,81957,1,2,0:0:0:0:
447,150,82138,2,0,P|453:95|450:39,1,112.500004291535,8|2,1:0|0:0,0:0:0:0:
294,184,82500,6,0,B|371:176|361:260|467:244,1,168.750006437302,0|0,1:0|0:0,0:0:0:0:
443,156,82861,1,0,1:0:0:0:
283,282,83042,1,0,0:0:0:0:
283,282,83132,1,0,0:0:0:0:
283,282,83222,1,0,1:0:0:0:
167,177,83403,1,2,0:0:0:0:
293,75,83584,2,0,P|306:129|294:184,1,112.500004291535,0|8,1:1|0:1,0:0:0:0:
65,294,83945,6,0,P|137:287|243:384,1,225.000008583069,10|0,1:2|1:0,0:0:0:0:
375,243,84488,1,0,0:0:0:0:
219,295,84668,2,0,P|181:222|220:84,1,225.000008583069,2|8,1:2|1:1,0:0:0:0:
375,243,85210,1,0,0:0:0:0:
219,295,85391,6,0,P|159:306|108:360,1,112.500004291535,2|0,1:2|0:0,0:0:0:0:
30,135,85753,2,0,P|113:169|157:167,1,112.500004291535,2|0,1:2|0:0,0:0:0:0:
313,124,86114,2,0,P|357:89|386:41,1,112.500004291535,2|0,1:2|0:0,0:0:0:0:
409,263,86476,2,0,P|353:254|302:274,1,112.500004291535,2|8,1:2|0:1,0:0:0:0:
120,338,86837,5,8,1:2:0:0:
134,169,87018,1,0,0:0:0:0:
302,274,87198,1,0,1:2:0:0:
288,104,87379,6,0,L|285:46,2,56.2500021457673,2|2|2,0:0|0:0|1:2,0:0:0:0:
134,169,87741,2,0,L|136:99,2,56.2500021457673,2|2|10,0:0|0:0|1:0,0:0:0:0:
300,250,88102,5,2,0:0:0:0:
301,262,88193,1,2,0:0:0:0:
302,273,88283,2,0,P|227:258|131:338,1,168.750006437302,2|2,1:2|0:0,0:0:0:0:
96,373,88644,2,0,P|74:322|38:279,1,112.500004291535,2|0,1:2|0:0,0:0:0:0:
172,129,89006,1,0,1:0:0:0:
150,302,89186,1,0,0:0:0:0:
14,125,89367,1,0,1:0:0:0:
257,31,89548,1,8,0:1:0:0:
254,41,89638,1,0,0:0:0:0:
251,51,89728,6,0,P|278:43|316:44,2,56.2500021457673,10|0|0,1:2|0:0|0:0,0:0:0:0:
304,139,90000,2,0,P|332:134|369:132,2,56.2500021457673,0|8|0,0:0|1:0|0:0,0:0:0:0:
380,206,90271,1,2,0:0:0:0:
377,216,90361,1,2,0:0:0:0:
374,226,90451,2,0,P|441:211|497:228,1,112.500004291535,2|2,1:2|0:0,0:0:0:0:
409,361,90813,2,0,P|354:370|300:355,1,112.500004291535,8|2,1:1|0:0,0:0:0:0:
201,232,91174,5,2,1:0:0:0:
61,305,91355,2,0,P|27:311|-10:338,1,56.2500021457673,2|0,0:0|0:0,0:0:0:0:
29,224,91536,2,0,P|71:224|102:233,3,56.2500021457673,10|0|2|0,1:0|0:0|0:0|0:0,0:0:0:0:
117,139,91897,2,0,P|75:139|44:148,3,56.2500021457673,2|0|8|0,1:0|0:0|0:1|0:0,0:0:0:0:
98,49,92259,2,0,P|140:49|171:58,1,56.2500021457673,10|0,1:0|0:0,0:0:0:0:
219,95,92439,2,0,P|234:121|243:150,1,56.2500021457673,2|0,0:0|0:0,0:0:0:0:
301,44,92620,6,0,P|350:30|449:57,3,150,12|0|0|0,3:2|0:0|0:0|0:0,0:0:0:0:
198,244,95331,1,0,3:0:0:0:
176,220,95421,1,0,3:0:0:0:
147,201,95512,2,0,P|98:187|-1:214,3,150,8|0|0|0,0:0|0:0|0:0|0:0,0:0:0:0:
29,296,98042,1,4,1:2:0:0:
57,381,98403,6,0,P|113:340|200:346,1,150,12|0,1:2|1:0,0:0:0:0:
190,342,99126,2,0,P|234:328|282:330,1,75,0|0,1:0|0:0,0:0:0:0:
348,356,99487,1,0,1:0:0:0:
340,266,99668,1,0,0:0:0:0:
345,255,99759,1,0,0:0:0:0:
350,245,99849,6,0,L|343:87,1,150,0|0,1:0|1:0,0:0:0:0:
343,95,100572,2,0,L|426:95,1,75,0|0,1:0|0:0,0:0:0:0:
258,139,100933,1,0,1:0:0:0:
190,78,101114,1,4,1:2:0:0:
183,74,101204,1,0,0:0:0:0:
175,71,101295,6,0,P|96:79|51:139,1,150,12|0,1:2|1:0,0:0:0:0:
53,130,102018,2,0,P|61:168|47:209,1,75,0|2,1:0|0:0,0:0:0:0:
0,277,102379,1,0,1:0:0:0:
141,209,102560,1,0,0:0:0:0:
146,214,102650,1,0,0:0:0:0:
151,219,102741,6,0,L|310:215,1,150,10|0,1:2|1:0,0:0:0:0:
300,215,103463,6,0,P|309:266|297:301,1,75,0|0,1:0|0:0,0:0:0:0:
225,179,103825,2,0,P|218:142|227:106,1,75,0|0,1:0|0:0,0:0:0:0:
297,49,104186,5,2,0:0:0:0:
380,82,104367,1,0,0:0:0:0:
451,27,104548,1,0,0:0:0:0:
392,170,104728,1,2,0:0:0:0:
333,313,104909,5,2,0:0:0:0:
245,290,105090,1,0,0:0:0:0:
182,355,105271,1,0,0:0:0:0:
221,203,105451,1,2,0:0:0:0:
260,51,105632,5,2,0:0:0:0:
326,110,105813,1,0,0:0:0:0:
412,82,105994,1,0,0:0:0:0:
307,197,106174,1,2,0:0:0:0:
203,311,106355,5,2,0:0:0:0:
128,259,106536,1,0,0:0:0:0:
47,299,106717,1,0,0:0:0:0:
135,169,106897,1,0,0:0:0:0:
133,161,106987,1,2,0:0:0:0:
131,153,107078,5,2,0:0:0:0:
147,64,107259,1,0,0:0:0:0:
61,94,107439,1,0,0:0:0:0:
216,122,107620,1,2,0:0:0:0:
371,150,107801,5,2,0:0:0:0:
285,180,107981,1,0,0:0:0:0:
301,91,108162,1,0,0:0:0:0:
354,238,108343,1,2,0:0:0:0:
225,324,108524,5,2,0:0:0:0:
208,235,108704,1,0,0:0:0:0:
354,238,108885,1,2,0:0:0:0:
326,323,109066,1,0,0:0:0:0:
323,333,109156,1,0,0:0:0:0:
321,344,109247,6,0,P|334:342|349:341,1,28.1250010728836,2|0,0:0|0:0,0:0:0:0:
430,349,109427,2,0,P|428:330|427:311,1,28.1250010728836
354,238,109608,2,0,P|353:223|352:209,1,28.1250010728836,2|0,0:0|0:0,0:0:0:0:
432,221,109788,2,0,P|450:220|469:218,1,28.1250010728836
480,125,109969,6,0,B|481:76|438:44|438:44|430:77|408:90|408:90|392:52|333:11|277:42|255:73,1,337.500012874604,2|0,0:0|0:0,0:0:0:0:
325,126,111234,1,0,0:0:0:0:
156,78,111415,6,0,B|115:42|-5:51|-36:124|-9:181|27:196|75:178|86:165|86:165|66:215|103:251,1,393.750015020371,2|0,0:0|0:0,0:0:0:0:
31,349,112861,6,0,B|126:289|163:393|246:347,1,225
369,334,114126,1,0,0:0:0:0:
361,335,114216,1,0,0:0:0:0:
353,336,114307,2,0,L|367:256,1,75
443,159,115030,2,0,L|455:232,1,75,2|0,0:0|0:0,0:0:0:0:
279,285,115753,5,0,0:0:0:0:
207,307,116114,1,0,0:0:0:0:
308,203,116475,2,0,L|346:195,2,37.5,2|0|0,0:0|0:0|0:0,0:0:0:0:
243,164,117018,1,0,0:0:0:0:
235,166,117108,1,0,0:0:0:0:
227,168,117198,2,0,L|185:178,1,37.5,2|0,0:0|0:0,0:0:0:0:
64,118,117560,5,0,0:0:0:0:
142,115,117741,1,2,0:0:0:0:
183,48,117921,1,2,0:0:0:0:
87,228,118463,5,0,0:0:0:0:
84,237,118554,1,0,0:0:0:0:
72,267,118644,6,0,B|119:225|234:226|237:278|218:338|329:382|401:350|434:309|439:260|451:194|360:164|306:197|330:279,1,539.999983520508,2|0,0:0|0:0,0:0:0:0:
457,78,119909,5,0,0:0:0:0:
446,82,120007,1,0,0:0:0:0:
433,87,120117,2,0,B|341:70|341:158|249:130,1,196.875007510186
